<?xml version="1.0" standalone="no"?>
<!DOCTYPE svg PUBLIC "-//W3C//DTD SVG 1.1//EN" "http://www.w3.org/Graphics/SVG/1.1/DTD/svg11.dtd" >
<svg xmlns="http://www.w3.org/2000/svg" xmlns:xlink="http://www.w3.org/1999/xlink" version="1.1">
<metadata>
Created by FontForge 20190801 at Thu Jun 30 12:09:33 2016
 By Jimmy Wärting
copyright missing
</metadata>
<defs>
<font id="Frank-Thin" horiz-adv-x="600" >
  <font-face 
    font-family="Frank Thin"
    font-weight="250"
    font-stretch="normal"
    units-per-em="1000"
    panose-1="0 0 3 0 0 0 0 0 0 0"
    ascent="800"
    descent="-200"
    x-height="700"
    cap-height="700"
    bbox="-674 -280 1253 949"
    underline-thickness="50"
    underline-position="-100"
    unicode-range="U+0020-2212"
  />
<missing-glyph horiz-adv-x="525" 
d="M431 800v-1050h-333v1050h333zM350 730h-174v-35h69v-39h-70v-34h175v34h-70v39h70v35zM280 594h-105v-109h175v36h-70v73zM245 559v-38h-35v38h35zM350 457h-175v-35h70v-39h-70v-34h105v73h70v35zM350 394h-35v-70h-140v-35h175v105zM350 266h-105v-59h35v24h35v-49
h-105v84h-35v-119h175v119zM350 84h-175v-119h175v119zM315 49v-49h-105v49h105zM350 -59h-175v-35h74l-74 -49v-35h175v35h-107l73 49h34v35z" />
    <glyph glyph-name=".notdef" horiz-adv-x="525" 
d="M431 800v-1050h-333v1050h333zM350 730h-174v-35h69v-39h-70v-34h175v34h-70v39h70v35zM280 594h-105v-109h175v36h-70v73zM245 559v-38h-35v38h35zM350 457h-175v-35h70v-39h-70v-34h105v73h70v35zM350 394h-35v-70h-140v-35h175v105zM350 266h-105v-59h35v24h35v-49
h-105v84h-35v-119h175v119zM350 84h-175v-119h175v119zM315 49v-49h-105v49h105zM350 -59h-175v-35h74l-74 -49v-35h175v35h-107l73 49h34v35z" />
    <glyph glyph-name="A" unicode="A" horiz-adv-x="601" 
d="M41 0h-31l283 700h16l282 -700h-32l-73 177h-373zM127 205h346l-173 435z" />
    <glyph glyph-name="Aacute" unicode="&#xc1;" horiz-adv-x="601" 
d="M308 750h-19l52 156h38zM41 0h-31l283 700h16l282 -700h-32l-73 177h-373zM127 205h346l-173 435z" />
    <glyph glyph-name="Abreve" unicode="&#x102;" horiz-adv-x="601" 
d="M300 750c-67 0 -120 53 -120 120h31c0 -48 41 -88 89 -88c47 0 89 40 89 88h31c0 -67 -54 -120 -120 -120zM41 0h-31l283 700h16l282 -700h-32l-73 177h-373zM127 205h346l-173 435z" />
    <glyph glyph-name="Acircumflex" unicode="&#xc2;" horiz-adv-x="601" 
d="M178 787l103 73h39l103 -73l-18 -26l-104 78l-105 -78zM41 0h-31l283 700h16l282 -700h-32l-73 177h-373zM127 205h346l-173 435z" />
    <glyph glyph-name="Adieresis" unicode="&#xc4;" horiz-adv-x="601" 
d="M223 750c-21 0 -37 14 -37 34c0 21 16 34 37 34s38 -13 38 -34c0 -20 -17 -34 -38 -34zM381 750c-22 0 -38 14 -38 34c0 21 16 34 38 34c20 0 37 -13 37 -34c0 -20 -17 -34 -37 -34zM41 0h-31l283 700h16l282 -700h-32l-73 177h-373zM127 205h346l-173 435z" />
    <glyph glyph-name="Agrave" unicode="&#xc0;" horiz-adv-x="601" 
d="M290 757l-71 156h38l52 -156h-19zM41 0h-31l283 700h16l282 -700h-32l-73 177h-373zM127 205h346l-173 435z" />
    <glyph glyph-name="Amacron" unicode="&#x100;" horiz-adv-x="601" 
d="M166 780h269v-30h-269v30zM41 0h-31l283 700h16l282 -700h-32l-73 177h-373zM127 205h346l-173 435z" />
    <glyph glyph-name="Aogonek" unicode="&#x104;" horiz-adv-x="601" 
d="M636 -89l17 -17c-44 -50 -108 -51 -134 8c-9 21 -6 59 37 98h3l-73 177h-373l-72 -177h-31l283 700h16l282 -700c8 3 -75 -41 -55 -88c18 -43 65 -42 100 -1zM127 205h346l-173 435z" />
    <glyph glyph-name="Aring" unicode="&#xc5;" horiz-adv-x="601" 
d="M301 790c-45 0 -80 34 -80 79s35 80 80 80c44 0 79 -35 79 -80s-35 -79 -79 -79zM301 820c26 0 47 22 47 49s-21 49 -47 49c-30 0 -50 -22 -50 -49s20 -49 50 -49zM41 0h-31l283 700h16l282 -700h-32l-73 177h-373zM127 205h346l-173 435z" />
    <glyph glyph-name="Atilde" unicode="&#xc3;" horiz-adv-x="601" 
d="M136 770c0 61 41 102 94 102c79 0 99 -66 159 -66c33 0 40 36 40 66h33c0 -58 -32 -99 -80 -99c-83 0 -87 66 -157 66c-39 0 -56 -34 -56 -69h-33zM41 0h-31l283 700h16l282 -700h-32l-73 177h-373zM127 205h346l-173 435z" />
    <glyph glyph-name="AE" unicode="&#xc6;" horiz-adv-x="908" 
d="M50 0l283 700h525v-29h-455v-306h345v-30h-345v-306h455v-29h-484v177h-221l-72 -177h-31zM167 205l207 1v464l-21 1z" />
    <glyph glyph-name="B" unicode="B" 
d="M50 0v700h276c181 0 252 -237 97 -340c200 -60 153 -360 -55 -360h-318zM79 364h247c201 0 198 307 0 307h-247v-307zM79 29h289c201 0 202 307 0 307h-289v-307z" />
    <glyph glyph-name="C" unicode="C" 
d="M232 0c-99 0 -182 81 -182 182v336c0 101 82 182 182 182h136c99 0 182 -81 182 -182h-29c0 84 -69 153 -153 153h-136c-84 0 -153 -69 -153 -153v-336c0 -84 69 -153 153 -153h136c84 0 153 69 153 153h29c0 -101 -82 -182 -182 -182h-136z" />
    <glyph glyph-name="Cacute" unicode="&#x106;" 
d="M302 757h-19l52 156h38zM232 0c-99 0 -182 81 -182 182v336c0 101 82 182 182 182h136c99 0 182 -81 182 -182h-29c0 84 -69 153 -153 153h-136c-84 0 -153 -69 -153 -153v-336c0 -84 69 -153 153 -153h136c84 0 153 69 153 153h29c0 -101 -82 -182 -182 -182h-136z" />
    <glyph glyph-name="Ccaron" unicode="&#x10c;" 
d="M178 823l18 27l105 -81l104 81l18 -27l-103 -73h-39zM232 0c-99 0 -182 81 -182 182v336c0 101 82 182 182 182h136c99 0 182 -81 182 -182h-29c0 84 -69 153 -153 153h-136c-84 0 -153 -69 -153 -153v-336c0 -84 69 -153 153 -153h136c84 0 153 69 153 153h29
c0 -101 -82 -182 -182 -182h-136z" />
    <glyph glyph-name="Ccedilla" unicode="&#xc7;" 
d="M232 0c-99 0 -182 81 -182 182v336c0 101 82 182 182 182h136c99 0 182 -81 182 -182h-29c0 84 -69 153 -153 153h-136c-84 0 -153 -69 -153 -153v-336c0 -84 69 -153 153 -153h136c84 0 153 69 153 153h29c0 -101 -82 -182 -182 -182h-136zM299 -45h19l-52 -156h-38z
" />
    <glyph glyph-name="Cdotaccent" unicode="&#x10a;" 
d="M300 750c-21 0 -38 14 -38 34c0 21 17 34 38 34s38 -13 38 -34c0 -20 -17 -34 -38 -34zM232 0c-99 0 -182 81 -182 182v336c0 101 82 182 182 182h136c99 0 182 -81 182 -182h-29c0 84 -69 153 -153 153h-136c-84 0 -153 -69 -153 -153v-336c0 -84 69 -153 153 -153h136
c84 0 153 69 153 153h29c0 -101 -82 -182 -182 -182h-136z" />
    <glyph glyph-name="D" unicode="D" 
d="M50 0v700h318c99 0 181 -81 182 -180v-340c-1 -99 -83 -180 -182 -180h-318zM79 29h289c83 0 153 69 153 153v336c0 84 -70 153 -153 153h-289v-642z" />
    <glyph glyph-name="Eth" unicode="&#xd0;" horiz-adv-x="735" 
d="M503 700c99 0 181 -81 182 -180v-340c-1 -99 -83 -180 -182 -180h-318v335h-134v30h134v335h318zM656 182v336c0 84 -70 153 -153 153h-289v-306h130v-30h-130v-306h289c83 0 153 69 153 153z" />
    <glyph glyph-name="Dcaron" unicode="&#x10e;" 
d="M178 823l18 27l105 -81l104 81l18 -27l-103 -73h-39zM50 0v700h318c99 0 181 -81 182 -180v-340c-1 -99 -83 -180 -182 -180h-318zM79 29h289c83 0 153 69 153 153v336c0 84 -70 153 -153 153h-289v-642z" />
    <glyph glyph-name="Dcroat" unicode="&#x110;" horiz-adv-x="735" 
d="M503 700c99 0 181 -81 182 -180v-340c-1 -99 -83 -180 -182 -180h-318v335h-134v30h134v335h318zM656 182v336c0 84 -70 153 -153 153h-289v-306h130v-30h-130v-306h289c83 0 153 69 153 153z" />
    <glyph glyph-name="E" unicode="E" horiz-adv-x="585" 
d="M50 0v700h478v-29h-449v-306h339v-30h-339v-306h449v-29h-478z" />
    <glyph glyph-name="Eacute" unicode="&#xc9;" horiz-adv-x="585" 
d="M302 757h-19l52 156h38zM50 0v700h478v-29h-449v-306h339v-30h-339v-306h449v-29h-478z" />
    <glyph glyph-name="Ecaron" unicode="&#x11a;" horiz-adv-x="585" 
d="M170 823l18 27l105 -81l104 81l18 -27l-103 -73h-39zM50 0v700h478v-29h-449v-306h339v-30h-339v-306h449v-29h-478z" />
    <glyph glyph-name="Ecircumflex" unicode="&#xca;" horiz-adv-x="585" 
d="M170 787l103 73h39l103 -73l-18 -26l-104 78l-105 -78zM50 0v700h478v-29h-449v-306h339v-30h-339v-306h449v-29h-478z" />
    <glyph glyph-name="Edieresis" unicode="&#xcb;" horiz-adv-x="585" 
d="M213 750c-21 0 -37 14 -37 34c0 21 16 34 37 34s38 -13 38 -34c0 -20 -17 -34 -38 -34zM371 750c-22 0 -38 14 -38 34c0 21 16 34 38 34c20 0 37 -13 37 -34c0 -20 -17 -34 -37 -34zM50 0v700h478v-29h-449v-306h339v-30h-339v-306h449v-29h-478z" />
    <glyph glyph-name="Edotaccent" unicode="&#x116;" horiz-adv-x="585" 
d="M292 750c-21 0 -38 14 -38 34c0 21 17 34 38 34s38 -13 38 -34c0 -20 -17 -34 -38 -34zM50 0v700h478v-29h-449v-306h339v-30h-339v-306h449v-29h-478z" />
    <glyph glyph-name="Egrave" unicode="&#xc8;" horiz-adv-x="585" 
d="M324 757l-71 156h38l52 -156h-19zM50 0v700h478v-29h-449v-306h339v-30h-339v-306h449v-29h-478z" />
    <glyph glyph-name="Emacron" unicode="&#x112;" horiz-adv-x="585" 
d="M158 780h269v-30h-269v30zM50 0v700h478v-29h-449v-306h339v-30h-339v-306h449v-29h-478z" />
    <glyph glyph-name="Eogonek" unicode="&#x118;" horiz-adv-x="585" 
d="M50 0v700h478v-29h-449v-306h339v-30h-339v-306h449v-29h-478zM504 -44l71 -156h-38l-52 156h19z" />
    <glyph glyph-name="F" unicode="F" horiz-adv-x="585" 
d="M50 0v700h485v-29h-456v-306h346v-30h-346v-335h-29z" />
    <glyph glyph-name="G" unicode="G" 
d="M232 0c-99 0 -182 81 -182 182v336c0 101 82 182 182 182h136c99 0 182 -61 182 -162h-29c0 84 -69 133 -153 133h-136c-84 0 -153 -69 -153 -153v-336c0 -84 69 -153 153 -153h136c84 0 153 69 153 153v113h-202v30h231v-143c0 -101 -82 -182 -182 -182h-136z" />
    <glyph glyph-name="Gbreve" unicode="&#x11e;" 
d="M298 750c-67 0 -120 53 -120 120h31c0 -48 41 -88 89 -88c47 0 89 40 89 88h31c0 -67 -54 -120 -120 -120zM232 0c-99 0 -182 81 -182 182v336c0 101 82 182 182 182h136c99 0 182 -61 182 -162h-29c0 84 -69 133 -153 133h-136c-84 0 -153 -69 -153 -153v-336
c0 -84 69 -153 153 -153h136c84 0 153 69 153 153v113h-202v30h231v-143c0 -101 -82 -182 -182 -182h-136z" />
    <glyph glyph-name="Gcommaaccent" unicode="&#x122;" 
d="M232 0c-99 0 -182 81 -182 182v336c0 101 82 182 182 182h136c99 0 182 -61 182 -162h-29c0 84 -69 133 -153 133h-136c-84 0 -153 -69 -153 -153v-336c0 -84 69 -153 153 -153h136c84 0 153 69 153 153v113h-202v30h231v-143c0 -101 -82 -182 -182 -182h-136zM350 -186
c0 -54 -39 -94 -106 -94l1 31c47 0 73 28 73 63c0 34 -27 63 -75 63l1 31c67 0 107 -41 106 -94z" />
    <glyph glyph-name="Gdotaccent" unicode="&#x120;" 
d="M300 750c-21 0 -38 14 -38 34c0 21 17 34 38 34s38 -13 38 -34c0 -20 -17 -34 -38 -34zM232 0c-99 0 -182 81 -182 182v336c0 101 82 182 182 182h136c99 0 182 -61 182 -162h-29c0 84 -69 133 -153 133h-136c-84 0 -153 -69 -153 -153v-336c0 -84 69 -153 153 -153h136
c84 0 153 69 153 153v113h-202v30h231v-143c0 -101 -82 -182 -182 -182h-136z" />
    <glyph glyph-name="H" unicode="H" 
d="M50 0v700h29v-335h442v335h29v-700h-29v335h-442v-335h-29z" />
    <glyph glyph-name="Hbar" unicode="&#x126;" horiz-adv-x="575" 
d="M615 541v-27h-78v-514h-29v335h-442v-335h-29v514h-81v27h81v159h29v-159h442v159h29v-159h78zM508 365v149h-442v-149h442z" />
    <glyph glyph-name="I" unicode="I" horiz-adv-x="179" 
d="M75 0v700h29v-700h-29z" />
    <glyph glyph-name="Iacute" unicode="&#xcd;" horiz-adv-x="129" 
d="M102 757h-19l52 156h38zM75 0v700h29v-700h-29z" />
    <glyph glyph-name="Icircumflex" unicode="&#xce;" horiz-adv-x="194" 
d="M-25 787l103 73h39l103 -73l-18 -26l-104 78l-105 -78zM75 0v700h29v-700h-29z" />
    <glyph glyph-name="Idieresis" unicode="&#xcf;" horiz-adv-x="133" 
d="M5 750c-21 0 -37 14 -37 34c0 21 16 34 37 34s38 -13 38 -34c0 -20 -17 -34 -38 -34zM163 750c-22 0 -38 14 -38 34c0 21 16 34 38 34c20 0 37 -13 37 -34c0 -20 -17 -34 -37 -34zM75 0v700h29v-700h-29z" />
    <glyph glyph-name="Idotaccent" unicode="&#x130;" horiz-adv-x="176" 
d="M88 750c-21 0 -38 14 -38 34c0 21 17 34 38 34s38 -13 38 -34c0 -20 -17 -34 -38 -34zM75 0v700h29v-700h-29z" />
    <glyph glyph-name="Igrave" unicode="&#xcc;" horiz-adv-x="190" 
d="M75 757l-71 156h38l52 -156h-19zM75 0v700h29v-700h-29z" />
    <glyph glyph-name="Imacron" unicode="&#x12a;" horiz-adv-x="175" 
d="M-47 780h269v-30h-269v30zM75 0v700h29v-700h-29z" />
    <glyph glyph-name="Iogonek" unicode="&#x12e;" horiz-adv-x="121" 
d="M42 0v700h29v-700h-29zM59 -24l39 -86h-21l-29 86h11z" />
    <glyph glyph-name="J" unicode="J" 
d="M232 0c-100 0 -182 81 -182 182h29c0 -84 69 -153 153 -153h136c84 0 153 69 153 153v518h29v-518c0 -101 -83 -182 -182 -182h-136z" />
    <glyph glyph-name="K" unicode="K" horiz-adv-x="624" 
d="M538 0l-321 388l-138 -128v-260h-29v700h29v-398l446 398h38l-327 -291l338 -409h-36z" />
    <glyph glyph-name="Kcommaaccent" unicode="&#x136;" horiz-adv-x="624" 
d="M538 0l-321 388l-138 -128v-260h-29v700h29v-398l446 398h38l-327 -291l338 -409h-36zM350 -186c0 -54 -39 -94 -106 -94l1 31c47 0 73 28 73 63c0 34 -27 63 -75 63l1 31c67 0 107 -41 106 -94z" />
    <glyph glyph-name="L" unicode="L" horiz-adv-x="539" 
d="M50 0v700h29v-671h410v-29h-439z" />
    <glyph glyph-name="Lacute" unicode="&#x139;" horiz-adv-x="454" 
d="M75 757h-19l52 156h38zM50 0v700h29v-671h410v-29h-439z" />
    <glyph glyph-name="Lcaron" unicode="&#x13d;" horiz-adv-x="454" 
d="M365 613c0 -54 -39 -94 -106 -94l1 31c47 0 73 28 73 63c0 34 -27 63 -75 63l1 31c67 0 107 -41 106 -94zM50 0v700h29v-671h410v-29h-439z" />
    <glyph glyph-name="Lcommaaccent" unicode="&#x13b;" horiz-adv-x="454" 
d="M50 0v700h29v-671h410v-29h-439zM350 -186c0 -54 -39 -94 -106 -94l1 31c47 0 73 28 73 63c0 34 -27 63 -75 63l1 31c67 0 107 -41 106 -94z" />
    <glyph glyph-name="Lslash" unicode="&#x141;" horiz-adv-x="586" 
d="M79 29h410v-29h-439v326l-70 -91h-30l100 130v335h29v-298l63 82h30l-93 -121v-334z" />
    <glyph glyph-name="M" unicode="M" horiz-adv-x="700" 
d="M50 0v700h23l277 -405l278 405h22v-700h-29v644l-258 -378h-26l-258 379v-645h-29z" />
    <glyph glyph-name="N" unicode="N" 
d="M50 0v700h23l445 -640l3 640h29v-700h-25l-446 636v-636h-29z" />
    <glyph glyph-name="Nacute" unicode="&#x143;" 
d="M274 757h-19l52 156h38zM50 0v700h23l445 -640l3 640h29v-700h-25l-446 636v-636h-29z" />
    <glyph glyph-name="Ncaron" unicode="&#x147;" 
d="M177 823l18 27l105 -81l104 81l18 -27l-103 -73h-39zM50 0v700h23l445 -640l3 640h29v-700h-25l-446 636v-636h-29z" />
    <glyph glyph-name="Ncommaaccent" unicode="&#x145;" 
d="M50 0v700h23l445 -640l3 640h29v-700h-25l-446 636v-636h-29zM350 -186c0 -54 -39 -94 -106 -94l1 31c47 0 73 28 73 63c0 34 -27 63 -75 63l1 31c67 0 107 -41 106 -94z" />
    <glyph glyph-name="Eng" unicode="&#x14a;" 
d="M521 700h29v-783c0 -102 -83 -182 -182 -182c-109 0 -188 81 -188 182h29c0 -87 67 -153 159 -153c84 0 153 68 153 153v89l-442 630v-636h-29v700h23l445 -640z" />
    <glyph glyph-name="Ntilde" unicode="&#xd1;" 
d="M137 744c0 61 41 102 94 102c79 0 99 -66 159 -66c33 0 40 36 40 66h33c0 -58 -32 -99 -80 -99c-83 0 -87 66 -157 66c-39 0 -56 -34 -56 -69h-33zM50 0v700h23l445 -640l3 640h29v-700h-25l-446 636v-636h-29z" />
    <glyph glyph-name="O" unicode="O" 
d="M232 0c-100 0 -182 82 -182 182l1 336c0 100 80 182 181 182h136c98 0 180 -80 182 -179v-340c-1 -100 -82 -181 -182 -181h-136zM232 29h136c84 0 153 69 153 153v334c0 89 -73 155 -153 155h-136c-83 0 -152 -70 -152 -153l-1 -336c0 -84 69 -153 153 -153z" />
    <glyph glyph-name="Oacute" unicode="&#xd3;" 
d="M302 757h-19l52 156h38zM232 0c-100 0 -182 82 -182 182l1 336c0 100 80 182 181 182h136c98 0 180 -80 182 -179v-340c-1 -100 -82 -181 -182 -181h-136zM232 29h136c84 0 153 69 153 153v334c0 89 -73 155 -153 155h-136c-83 0 -152 -70 -152 -153l-1 -336
c0 -84 69 -153 153 -153z" />
    <glyph glyph-name="Ocircumflex" unicode="&#xd4;" 
d="M178 787l103 73h39l103 -73l-18 -26l-104 78l-105 -78zM232 0c-100 0 -182 82 -182 182l1 336c0 100 80 182 181 182h136c98 0 180 -80 182 -179v-340c-1 -100 -82 -181 -182 -181h-136zM232 29h136c84 0 153 69 153 153v334c0 89 -73 155 -153 155h-136
c-83 0 -152 -70 -152 -153l-1 -336c0 -84 69 -153 153 -153z" />
    <glyph glyph-name="Odieresis" unicode="&#xd6;" 
d="M221 750c-21 0 -37 14 -37 34c0 21 16 34 37 34s38 -13 38 -34c0 -20 -17 -34 -38 -34zM379 750c-22 0 -38 14 -38 34c0 21 16 34 38 34c20 0 37 -13 37 -34c0 -20 -17 -34 -37 -34zM232 0c-100 0 -182 82 -182 182l1 336c0 100 80 182 181 182h136
c98 0 180 -80 182 -179v-340c-1 -100 -82 -181 -182 -181h-136zM232 29h136c84 0 153 69 153 153v334c0 89 -73 155 -153 155h-136c-83 0 -152 -70 -152 -153l-1 -336c0 -84 69 -153 153 -153z" />
    <glyph glyph-name="Ograve" unicode="&#xd2;" 
d="M324 757l-71 156h38l52 -156h-19zM232 0c-100 0 -182 82 -182 182l1 336c0 100 80 182 181 182h136c98 0 180 -80 182 -179v-340c-1 -100 -82 -181 -182 -181h-136zM232 29h136c84 0 153 69 153 153v334c0 89 -73 155 -153 155h-136c-83 0 -152 -70 -152 -153l-1 -336
c0 -84 69 -153 153 -153z" />
    <glyph glyph-name="Ohungarumlaut" unicode="&#x150;" 
d="M274 757h-19l52 156h38zM349 757h-20l52 156h39zM232 0c-100 0 -182 82 -182 182l1 336c0 100 80 182 181 182h136c98 0 180 -80 182 -179v-340c-1 -100 -82 -181 -182 -181h-136zM232 29h136c84 0 153 69 153 153v334c0 89 -73 155 -153 155h-136
c-83 0 -152 -70 -152 -153l-1 -336c0 -84 69 -153 153 -153z" />
    <glyph glyph-name="Omacron" unicode="&#x14c;" 
d="M166 797h269v-30h-269v30zM232 0c-100 0 -182 82 -182 182l1 336c0 100 80 182 181 182h136c98 0 180 -80 182 -179v-340c-1 -100 -82 -181 -182 -181h-136zM232 29h136c84 0 153 69 153 153v334c0 89 -73 155 -153 155h-136c-83 0 -152 -70 -152 -153l-1 -336
c0 -84 69 -153 153 -153z" />
    <glyph glyph-name="Oslash" unicode="&#xd8;" 
d="M624 724l-96 -119c13 -25 21 -54 22 -84v-340c-1 -100 -82 -181 -182 -181h-136c-56 0 -106 26 -140 66l-61 -76h-30l77 95c-18 28 -28 62 -28 97l1 336c0 100 80 182 181 182h136c59 0 113 -29 146 -75l80 99h30zM79 182c0 -26 7 -51 18 -73l398 493
c-28 42 -76 69 -127 69h-136c-83 0 -152 -70 -152 -153zM521 516c0 23 -5 45 -14 64l-396 -491c28 -36 72 -60 121 -60h136c84 0 153 69 153 153v334z" />
    <glyph glyph-name="Otilde" unicode="&#xd5;" 
d="M137 744c0 61 41 102 94 102c79 0 99 -66 159 -66c33 0 40 36 40 66h33c0 -58 -32 -99 -80 -99c-83 0 -87 66 -157 66c-39 0 -56 -34 -56 -69h-33zM232 0c-100 0 -182 82 -182 182l1 336c0 100 80 182 181 182h136c98 0 180 -80 182 -179v-340
c-1 -100 -82 -181 -182 -181h-136zM232 29h136c84 0 153 69 153 153v334c0 89 -73 155 -153 155h-136c-83 0 -152 -70 -152 -153l-1 -336c0 -84 69 -153 153 -153z" />
    <glyph glyph-name="OE" unicode="&#x152;" horiz-adv-x="901" 
d="M232 0c-100 0 -182 82 -182 182l1 336c0 100 80 182 181 182h619v-29h-456v-306h346v-30h-346v-306h456v-29h-619zM232 29h134v642h-134c-83 0 -152 -70 -152 -153l-1 -336c0 -84 69 -153 153 -153z" />
    <glyph glyph-name="P" unicode="P" 
d="M50 0v700h319c241 0 240 -405 0 -405h-290v-295h-29zM79 325h290c204 0 200 346 0 346h-290v-346z" />
    <glyph glyph-name="Thorn" unicode="&#xde;" 
d="M369 533c241 0 240 -365 0 -365h-290v-168h-29v182l-16 16h16v306h-16l16 16v180h29v-167h290zM369 198c204 0 200 306 0 306h-290v-306h290z" />
    <glyph glyph-name="Q" unicode="Q" 
d="M582 -2l-19 -19l-70 70c-33 -30 -77 -49 -125 -49h-136c-100 0 -182 82 -182 182l1 336c0 100 80 182 181 182h136c98 0 180 -80 182 -179v-340c0 -42 -15 -81 -39 -112zM368 29c40 0 77 16 104 41l-70 70l19 19l69 -69c19 26 31 58 31 92v334c0 89 -73 155 -153 155
h-136c-83 0 -152 -70 -152 -153l-1 -336c0 -84 69 -153 153 -153h136z" />
    <glyph glyph-name="R" unicode="R" horiz-adv-x="598" 
d="M50 0v700h317c235 0 243 -413 -29 -407l206 -293h-35l-207 295h-223v-295h-29zM79 325h265c226 0 223 346 23 346h-288v-346z" />
    <glyph glyph-name="Racute" unicode="&#x154;" horiz-adv-x="598" 
d="M273 757h-19l52 156h38zM50 0v700h317c235 0 243 -413 -29 -407l206 -293h-35l-207 295h-223v-295h-29zM79 325h265c226 0 223 346 23 346h-288v-346z" />
    <glyph glyph-name="Rcaron" unicode="&#x158;" horiz-adv-x="598" 
d="M177 823l18 27l105 -81l104 81l18 -27l-103 -73h-39zM50 0v700h317c235 0 243 -413 -29 -407l206 -293h-35l-207 295h-223v-295h-29zM79 325h265c226 0 223 346 23 346h-288v-346z" />
    <glyph glyph-name="Rcommaaccent" unicode="&#x156;" horiz-adv-x="598" 
d="M50 0v700h317c235 0 243 -413 -29 -407l206 -293h-35l-207 295h-223v-295h-29zM79 325h265c226 0 223 346 23 346h-288v-346zM350 -186c0 -54 -39 -94 -106 -94l1 31c47 0 73 28 73 63c0 34 -27 63 -75 63l1 31c67 0 107 -41 106 -94z" />
    <glyph glyph-name="S" unicode="S" horiz-adv-x="513" 
d="M44 157h27c-10 -120 78 -128 181 -128c138 0 208 43 208 155c0 229 -410 99 -410 319c0 122 51 197 202 197c86 0 208 -9 198 -157h-29c10 115 -90 125 -171 125c-144 0 -171 -62 -171 -163c0 -198 410 -56 410 -321c0 -92 -48 -184 -237 -184c-122 0 -218 23 -208 157z
" />
    <glyph glyph-name="Sacute" unicode="&#x15a;" horiz-adv-x="513" 
d="M272 757h-19l52 156h38zM44 157h27c-10 -120 78 -128 181 -128c138 0 208 43 208 155c0 229 -410 99 -410 319c0 122 51 197 202 197c86 0 208 -9 198 -157h-29c10 115 -90 125 -171 125c-144 0 -171 -62 -171 -163c0 -198 410 -56 410 -321c0 -92 -48 -184 -237 -184
c-122 0 -218 23 -208 157z" />
    <glyph glyph-name="Scaron" unicode="&#x160;" horiz-adv-x="513" 
d="M132 823l18 27l105 -81l104 81l18 -27l-103 -73h-39zM44 157h27c-10 -120 78 -128 181 -128c138 0 208 43 208 155c0 229 -410 99 -410 319c0 122 51 197 202 197c86 0 208 -9 198 -157h-29c10 115 -90 125 -171 125c-144 0 -171 -62 -171 -163c0 -198 410 -56 410 -321
c0 -92 -48 -184 -237 -184c-122 0 -218 23 -208 157z" />
    <glyph glyph-name="Scedilla" unicode="&#x15e;" horiz-adv-x="513" 
d="M44 157h27c-10 -120 78 -128 181 -128c138 0 208 43 208 155c0 229 -410 99 -410 319c0 122 51 197 202 197c86 0 208 -9 198 -157h-29c10 115 -90 125 -171 125c-144 0 -171 -62 -171 -163c0 -198 410 -56 410 -321c0 -92 -48 -184 -237 -184c-122 0 -218 23 -208 157z
M286 -33h19l-52 -156h-38z" />
    <glyph glyph-name="Scommaaccent" unicode="&#x218;" horiz-adv-x="513" 
d="M44 157h27c-10 -120 78 -128 181 -128c138 0 208 43 208 155c0 229 -410 99 -410 319c0 122 51 197 202 197c86 0 208 -9 198 -157h-29c10 115 -90 125 -171 125c-144 0 -171 -62 -171 -163c0 -198 410 -56 410 -321c0 -92 -48 -184 -237 -184c-122 0 -218 23 -208 157z
M350 -186c0 -54 -39 -94 -106 -94l1 31c47 0 73 28 73 63c0 34 -27 63 -75 63l1 31c67 0 107 -41 106 -94z" />
    <glyph glyph-name="T" unicode="T" horiz-adv-x="603" 
d="M286 0v671h-236v29h503v-29h-236v-671h-31z" />
    <glyph glyph-name="Tbar" unicode="&#x166;" horiz-adv-x="603" 
d="M553 671h-236v-293h229v-30h-229v-348h-31v348h-215v30h215v293h-236v29h503v-29z" />
    <glyph glyph-name="Tcaron" unicode="&#x164;" horiz-adv-x="603" 
d="M180 823l18 27l105 -81l104 81l18 -27l-103 -73h-39zM286 0v671h-236v29h503v-29h-236v-671h-31z" />
    <glyph glyph-name="uni0162" unicode="&#x162;" horiz-adv-x="603" 
d="M286 0v671h-236v29h503v-29h-236v-671h-31zM290 -44h19l-52 -156h-38z" />
    <glyph glyph-name="uni021A" unicode="&#x21a;" horiz-adv-x="603" 
d="M286 0v671h-236v29h503v-29h-236v-671h-31zM350 -186c0 -54 -39 -94 -106 -94l1 31c47 0 73 28 73 63c0 34 -27 63 -75 63l1 31c67 0 107 -41 106 -94z" />
    <glyph glyph-name="U" unicode="U" 
d="M232 0c-100 0 -182 82 -182 182l1 518h29l-1 -518c0 -84 69 -153 153 -153h136c108 0 153 69 153 153v518h29v-519c0 -99 -63 -181 -182 -181h-136z" />
    <glyph glyph-name="Uacute" unicode="&#xda;" 
d="M302 757h-19l52 156h38zM232 0c-100 0 -182 82 -182 182l1 518h29l-1 -518c0 -84 69 -153 153 -153h136c108 0 153 69 153 153v518h29v-519c0 -99 -63 -181 -182 -181h-136z" />
    <glyph glyph-name="Ucircumflex" unicode="&#xdb;" 
d="M178 787l103 73h39l103 -73l-18 -26l-104 78l-105 -78zM232 0c-100 0 -182 82 -182 182l1 518h29l-1 -518c0 -84 69 -153 153 -153h136c108 0 153 69 153 153v518h29v-519c0 -99 -63 -181 -182 -181h-136z" />
    <glyph glyph-name="Udieresis" unicode="&#xdc;" 
d="M221 750c-21 0 -37 14 -37 34c0 21 16 34 37 34s38 -13 38 -34c0 -20 -17 -34 -38 -34zM379 750c-22 0 -38 14 -38 34c0 21 16 34 38 34c20 0 37 -13 37 -34c0 -20 -17 -34 -37 -34zM232 0c-100 0 -182 82 -182 182l1 518h29l-1 -518c0 -84 69 -153 153 -153h136
c108 0 153 69 153 153v518h29v-519c0 -99 -63 -181 -182 -181h-136z" />
    <glyph glyph-name="Ugrave" unicode="&#xd9;" 
d="M324 757l-71 156h38l52 -156h-19zM232 0c-100 0 -182 82 -182 182l1 518h29l-1 -518c0 -84 69 -153 153 -153h136c108 0 153 69 153 153v518h29v-519c0 -99 -63 -181 -182 -181h-136z" />
    <glyph glyph-name="Uhungarumlaut" unicode="&#x170;" 
d="M257 757h-19l52 156h38zM332 757h-20l52 156h39zM232 0c-100 0 -182 82 -182 182l1 518h29l-1 -518c0 -84 69 -153 153 -153h136c108 0 153 69 153 153v518h29v-519c0 -99 -63 -181 -182 -181h-136z" />
    <glyph glyph-name="Umacron" unicode="&#x16a;" 
d="M165 780h269v-30h-269v30zM232 0c-100 0 -182 82 -182 182l1 518h29l-1 -518c0 -84 69 -153 153 -153h136c108 0 153 69 153 153v518h29v-519c0 -99 -63 -181 -182 -181h-136z" />
    <glyph glyph-name="Uogonek" unicode="&#x172;" 
d="M232 0c-100 0 -182 82 -182 182l1 518h29l-1 -518c0 -84 69 -153 153 -153h136c108 0 153 69 153 153v518h29v-519c0 -99 -63 -181 -182 -181h-136zM301 -44l71 -156h-38l-52 156h19z" />
    <glyph glyph-name="Uring" unicode="&#x16e;" 
d="M301 760c-45 0 -80 34 -80 79s35 80 80 80c44 0 79 -35 79 -80s-35 -79 -79 -79zM301 790c26 0 47 22 47 49s-21 49 -47 49c-30 0 -50 -22 -50 -49s20 -49 50 -49zM232 0c-100 0 -182 82 -182 182l1 518h29l-1 -518c0 -84 69 -153 153 -153h136c108 0 153 69 153 153v518
h29v-519c0 -99 -63 -181 -182 -181h-136z" />
    <glyph glyph-name="V" unicode="V" horiz-adv-x="510" 
d="M245 0l-248 700h33l225 -664l225 664h32l-247 -700h-20z" />
    <glyph glyph-name="W" unicode="W" horiz-adv-x="700" 
d="M50 700h29v-642l254 382h34l254 -381v641h29v-700h-18l-282 412l-281 -412h-19v700z" />
    <glyph glyph-name="Wacute" unicode="&#x1e82;" horiz-adv-x="700" 
d="M355 757h-19l52 156h38zM50 700h29v-642l254 382h34l254 -381v641h29v-700h-18l-282 412l-281 -412h-19v700z" />
    <glyph glyph-name="Wcircumflex" unicode="&#x174;" horiz-adv-x="700" 
d="M228 787l103 73h39l103 -73l-18 -26l-104 78l-105 -78zM50 700h29v-642l254 382h34l254 -381v641h29v-700h-18l-282 412l-281 -412h-19v700z" />
    <glyph glyph-name="Wdieresis" unicode="&#x1e84;" horiz-adv-x="700" 
d="M271 750c-21 0 -37 14 -37 34c0 21 16 34 37 34s38 -13 38 -34c0 -20 -17 -34 -38 -34zM429 750c-22 0 -38 14 -38 34c0 21 16 34 38 34c20 0 37 -13 37 -34c0 -20 -17 -34 -37 -34zM50 700h29v-642l254 382h34l254 -381v641h29v-700h-18l-282 412l-281 -412h-19v700z
" />
    <glyph glyph-name="Wgrave" unicode="&#x1e80;" horiz-adv-x="700" 
d="M335 757l-71 156h38l52 -156h-19zM50 700h29v-642l254 382h34l254 -381v641h29v-700h-18l-282 412l-281 -412h-19v700z" />
    <glyph glyph-name="X" unicode="X" horiz-adv-x="628" 
d="M50 0l247 350l-247 351l38 -1l227 -326l227 326h36l-244 -350l244 -350h-36l-227 326l-227 -326h-38z" />
    <glyph glyph-name="Y" unicode="Y" horiz-adv-x="648" 
d="M310 0l-1 347l-249 353h37l227 -326l227 326h37l-249 -353l1 -347h-30z" />
    <glyph glyph-name="Yacute" unicode="&#xdd;" horiz-adv-x="629" 
d="M321 757h-19l52 156h38zM310 0l-1 347l-249 353h37l227 -326l227 326h37l-249 -353l1 -347h-30z" />
    <glyph glyph-name="Ycircumflex" unicode="&#x176;" horiz-adv-x="629" 
d="M192 787l103 73h39l103 -73l-18 -26l-104 78l-105 -78zM310 0l-1 347l-249 353h37l227 -326l227 326h37l-249 -353l1 -347h-30z" />
    <glyph glyph-name="Ydieresis" unicode="&#x178;" horiz-adv-x="629" 
d="M235 750c-21 0 -37 14 -37 34c0 21 16 34 37 34s38 -13 38 -34c0 -20 -17 -34 -38 -34zM393 750c-22 0 -38 14 -38 34c0 21 16 34 38 34c20 0 37 -13 37 -34c0 -20 -17 -34 -37 -34zM310 0l-1 347l-249 353h37l227 -326l227 326h37l-249 -353l1 -347h-30z" />
    <glyph glyph-name="Ygrave" unicode="&#x1ef2;" horiz-adv-x="629" 
d="M307 757l-71 156h38l52 -156h-19zM310 0l-1 347l-249 353h37l227 -326l227 326h37l-249 -353l1 -347h-30z" />
    <glyph glyph-name="Z" unicode="Z" horiz-adv-x="571" 
d="M50 0v24l432 647h-432v29h471v-24l-432 -647h432v-29h-471z" />
    <glyph glyph-name="Zacute" unicode="&#x179;" horiz-adv-x="571" 
d="M302 757h-19l52 156h38zM50 0v24l432 647h-432v29h471v-24l-432 -647h432v-29h-471z" />
    <glyph glyph-name="Zcaron" unicode="&#x17d;" horiz-adv-x="571" 
d="M163 823l18 27l105 -81l104 81l18 -27l-103 -73h-39zM50 0v24l432 647h-432v29h471v-24l-432 -647h432v-29h-471z" />
    <glyph glyph-name="Zdotaccent" unicode="&#x17b;" horiz-adv-x="571" 
d="M285 750c-21 0 -38 14 -38 34c0 21 17 34 38 34s38 -13 38 -34c0 -20 -17 -34 -38 -34zM50 0v24l432 647h-432v29h471v-24l-432 -647h432v-29h-471z" />
    <glyph glyph-name="S.001" horiz-adv-x="513" 
d="M50 157h28c-10 -120 81 -128 174 -128c131 0 202 44 202 155c0 232 -398 99 -398 319c0 122 48 197 196 197c76 0 202 -9 192 -157h-29c10 115 -85 128 -163 128c-138 0 -167 -63 -167 -166c0 -199 398 -56 398 -321c0 -92 -48 -184 -231 -184c-112 0 -212 23 -202 157z
" />
    <glyph glyph-name="a" unicode="a" horiz-adv-x="601" 
d="M41 0h-31l283 700h16l282 -700h-32l-73 177h-373zM127 205h346l-173 435z" />
    <glyph glyph-name="aacute" unicode="&#xe1;" horiz-adv-x="601" 
d="M308 750h-19l52 156h38zM41 0h-31l283 700h16l282 -700h-32l-73 177h-373zM127 205h346l-173 435z" />
    <glyph glyph-name="abreve" unicode="&#x103;" horiz-adv-x="601" 
d="M300 750c-67 0 -120 53 -120 120h31c0 -48 41 -88 89 -88c47 0 89 40 89 88h31c0 -67 -54 -120 -120 -120zM41 0h-31l283 700h16l282 -700h-32l-73 177h-373zM127 205h346l-173 435z" />
    <glyph glyph-name="acircumflex" unicode="&#xe2;" horiz-adv-x="601" 
d="M178 787l103 73h39l103 -73l-18 -26l-104 78l-105 -78zM41 0h-31l283 700h16l282 -700h-32l-73 177h-373zM127 205h346l-173 435z" />
    <glyph glyph-name="adieresis" unicode="&#xe4;" horiz-adv-x="601" 
d="M223 750c-21 0 -37 14 -37 34c0 21 16 34 37 34s38 -13 38 -34c0 -20 -17 -34 -38 -34zM381 750c-22 0 -38 14 -38 34c0 21 16 34 38 34c20 0 37 -13 37 -34c0 -20 -17 -34 -37 -34zM41 0h-31l283 700h16l282 -700h-32l-73 177h-373zM127 205h346l-173 435z" />
    <glyph glyph-name="agrave" unicode="&#xe0;" horiz-adv-x="601" 
d="M290 757l-71 156h38l52 -156h-19zM41 0h-31l283 700h16l282 -700h-32l-73 177h-373zM127 205h346l-173 435z" />
    <glyph glyph-name="amacron" unicode="&#x101;" horiz-adv-x="601" 
d="M157 780h269v-30h-269v30zM41 0h-31l283 700h16l282 -700h-32l-73 177h-373zM127 205h346l-173 435z" />
    <glyph glyph-name="aogonek" unicode="&#x105;" horiz-adv-x="601" 
d="M41 0h-31l283 700h16l282 -700h-32l-73 177h-373zM127 205h346l-173 435zM326 -44l71 -156h-38l-52 156h19z" />
    <glyph glyph-name="aring" unicode="&#xe5;" horiz-adv-x="601" 
d="M301 790c-45 0 -80 34 -80 79s35 80 80 80c44 0 79 -35 79 -80s-35 -79 -79 -79zM301 820c26 0 47 22 47 49s-21 49 -47 49c-30 0 -50 -22 -50 -49s20 -49 50 -49zM41 0h-31l283 700h16l282 -700h-32l-73 177h-373zM127 205h346l-173 435z" />
    <glyph glyph-name="atilde" unicode="&#xe3;" horiz-adv-x="601" 
d="M136 770c0 61 41 102 94 102c79 0 99 -66 159 -66c33 0 40 36 40 66h33c0 -58 -32 -99 -80 -99c-83 0 -87 66 -157 66c-39 0 -56 -34 -56 -69h-33zM41 0h-31l283 700h16l282 -700h-32l-73 177h-373zM127 205h346l-173 435z" />
    <glyph glyph-name="ae" unicode="&#xe6;" horiz-adv-x="908" 
d="M50 0l283 700h525v-29h-455v-306h345v-30h-345v-306h455v-29h-484v177h-221l-72 -177h-31zM167 205l207 1v464l-21 1z" />
    <glyph glyph-name="b" unicode="b" 
d="M50 0v700h276c181 0 252 -237 97 -340c200 -60 153 -360 -55 -360h-318zM79 364h247c201 0 198 307 0 307h-247v-307zM79 29h289c201 0 202 307 0 307h-289v-307z" />
    <glyph glyph-name="c" unicode="c" 
d="M232 0c-99 0 -182 81 -182 182v336c0 101 82 182 182 182h136c99 0 182 -81 182 -182h-29c0 84 -69 153 -153 153h-136c-84 0 -153 -69 -153 -153v-336c0 -84 69 -153 153 -153h136c84 0 153 69 153 153h29c0 -101 -82 -182 -182 -182h-136z" />
    <glyph glyph-name="cacute" unicode="&#x107;" 
d="M302 757h-19l52 156h38zM232 0c-99 0 -182 81 -182 182v336c0 101 82 182 182 182h136c99 0 182 -81 182 -182h-29c0 84 -69 153 -153 153h-136c-84 0 -153 -69 -153 -153v-336c0 -84 69 -153 153 -153h136c84 0 153 69 153 153h29c0 -101 -82 -182 -182 -182h-136z" />
    <glyph glyph-name="ccaron" unicode="&#x10d;" 
d="M177 823l18 27l105 -81l104 81l18 -27l-103 -73h-39zM232 0c-99 0 -182 81 -182 182v336c0 101 82 182 182 182h136c99 0 182 -81 182 -182h-29c0 84 -69 153 -153 153h-136c-84 0 -153 -69 -153 -153v-336c0 -84 69 -153 153 -153h136c84 0 153 69 153 153h29
c0 -101 -82 -182 -182 -182h-136z" />
    <glyph glyph-name="ccedilla" unicode="&#xe7;" 
d="M232 0c-99 0 -182 81 -182 182v336c0 101 82 182 182 182h136c99 0 182 -81 182 -182h-29c0 84 -69 153 -153 153h-136c-84 0 -153 -69 -153 -153v-336c0 -84 69 -153 153 -153h136c84 0 153 69 153 153h29c0 -101 -82 -182 -182 -182h-136zM299 -45h19l-52 -156h-38z
" />
    <glyph glyph-name="cdotaccent" unicode="&#x10b;" 
d="M300 750c-21 0 -38 14 -38 34c0 21 17 34 38 34s38 -13 38 -34c0 -20 -17 -34 -38 -34zM232 0c-99 0 -182 81 -182 182v336c0 101 82 182 182 182h136c99 0 182 -81 182 -182h-29c0 84 -69 153 -153 153h-136c-84 0 -153 -69 -153 -153v-336c0 -84 69 -153 153 -153h136
c84 0 153 69 153 153h29c0 -101 -82 -182 -182 -182h-136z" />
    <glyph glyph-name="d" unicode="d" 
d="M50 0v700h318c99 0 181 -81 182 -180v-340c-1 -99 -83 -180 -182 -180h-318zM79 29h289c83 0 153 69 153 153v336c0 84 -70 153 -153 153h-289v-642z" />
    <glyph glyph-name="eth" unicode="&#xf0;" horiz-adv-x="735" 
d="M503 700c99 0 181 -81 182 -180v-340c-1 -99 -83 -180 -182 -180h-318v335h-134v30h134v335h318zM656 182v336c0 84 -70 153 -153 153h-289v-306h130v-30h-130v-306h289c83 0 153 69 153 153z" />
    <glyph glyph-name="dcaron" unicode="&#x10f;" 
d="M178 823l18 27l105 -81l104 81l18 -27l-103 -73h-39zM50 0v700h318c99 0 181 -81 182 -180v-340c-1 -99 -83 -180 -182 -180h-318zM79 29h289c83 0 153 69 153 153v336c0 84 -70 153 -153 153h-289v-642z" />
    <glyph glyph-name="dcroat" unicode="&#x111;" 
d="M368 700c99 0 181 -81 182 -180v-340c-1 -99 -83 -180 -182 -180h-318v335h-171v30h171v335h318zM521 182v336c0 84 -70 153 -153 153h-289v-306h248v-30h-248v-306h289c83 0 153 69 153 153z" />
    <glyph glyph-name="e" unicode="e" horiz-adv-x="585" 
d="M50 0v700h478v-29h-449v-306h339v-30h-339v-306h449v-29h-478z" />
    <glyph glyph-name="eacute" unicode="&#xe9;" horiz-adv-x="585" 
d="M302 757h-19l52 156h38zM50 0v700h478v-29h-449v-306h339v-30h-339v-306h449v-29h-478z" />
    <glyph glyph-name="ecaron" unicode="&#x11b;" 
d="M177 823l18 27l105 -81l104 81l18 -27l-103 -73h-39zM50 0v700h478v-29h-449v-306h339v-30h-339v-306h449v-29h-478z" />
    <glyph glyph-name="ecircumflex" unicode="&#xea;" horiz-adv-x="585" 
d="M170 787l103 73h39l103 -73l-18 -26l-104 78l-105 -78zM50 0v700h478v-29h-449v-306h339v-30h-339v-306h449v-29h-478z" />
    <glyph glyph-name="edieresis" unicode="&#xeb;" horiz-adv-x="585" 
d="M213 750c-21 0 -37 14 -37 34c0 21 16 34 37 34s38 -13 38 -34c0 -20 -17 -34 -38 -34zM371 750c-22 0 -38 14 -38 34c0 21 16 34 38 34c20 0 37 -13 37 -34c0 -20 -17 -34 -37 -34zM50 0v700h478v-29h-449v-306h339v-30h-339v-306h449v-29h-478z" />
    <glyph glyph-name="edotaccent" unicode="&#x117;" 
d="M300 750c-21 0 -38 14 -38 34c0 21 17 34 38 34s38 -13 38 -34c0 -20 -17 -34 -38 -34zM50 0v700h478v-29h-449v-306h339v-30h-339v-306h449v-29h-478z" />
    <glyph glyph-name="egrave" unicode="&#xe8;" horiz-adv-x="585" 
d="M324 757l-71 156h38l52 -156h-19zM50 0v700h478v-29h-449v-306h339v-30h-339v-306h449v-29h-478z" />
    <glyph glyph-name="emacron" unicode="&#x113;" 
d="M165 780h269v-30h-269v30zM50 0v700h478v-29h-449v-306h339v-30h-339v-306h449v-29h-478z" />
    <glyph glyph-name="eogonek" unicode="&#x119;" 
d="M50 0v700h478v-29h-449v-306h339v-30h-339v-306h449v-29h-478zM326 -44l71 -156h-38l-52 156h19z" />
    <glyph glyph-name="f" unicode="f" horiz-adv-x="585" 
d="M50 0v700h485v-29h-456v-306h346v-30h-346v-335h-29z" />
    <glyph glyph-name="g" unicode="g" 
d="M232 0c-99 0 -182 81 -182 182v336c0 101 82 182 182 182h136c99 0 182 -61 182 -162h-29c0 84 -69 133 -153 133h-136c-84 0 -153 -69 -153 -153v-336c0 -84 69 -153 153 -153h136c84 0 153 69 153 153v113h-202v30h231v-143c0 -101 -82 -182 -182 -182h-136z" />
    <glyph glyph-name="gbreve" unicode="&#x11f;" 
d="M298 750c-67 0 -120 53 -120 120h31c0 -48 41 -88 89 -88c47 0 89 40 89 88h31c0 -67 -54 -120 -120 -120zM232 0c-99 0 -182 81 -182 182v336c0 101 82 182 182 182h136c99 0 182 -61 182 -162h-29c0 84 -69 133 -153 133h-136c-84 0 -153 -69 -153 -153v-336
c0 -84 69 -153 153 -153h136c84 0 153 69 153 153v113h-202v30h231v-143c0 -101 -82 -182 -182 -182h-136z" />
    <glyph glyph-name="gcommaaccent" unicode="&#x123;" 
d="M300 750c-21 0 -38 14 -38 34c-1 23 3 41 12 55c16 24 38 29 60 29v-25c-25 0 -34 -12 -37 -25h3c21 0 38 -13 38 -34c0 -20 -17 -34 -38 -34zM319 295v30h231v-143c0 -101 -82 -182 -182 -182h-136c-99 0 -182 81 -182 182v336c0 101 82 182 182 182h136
c99 0 182 -61 182 -162h-29c0 84 -69 133 -153 133h-136c-84 0 -153 -69 -153 -153v-336c0 -84 69 -153 153 -153h136c84 0 153 69 153 153v113h-202z" />
    <glyph glyph-name="gdotaccent" unicode="&#x121;" 
d="M300 750c-21 0 -38 14 -38 34c0 21 17 34 38 34s38 -13 38 -34c0 -20 -17 -34 -38 -34zM232 0c-99 0 -182 81 -182 182v336c0 101 82 182 182 182h136c99 0 182 -61 182 -162h-29c0 84 -69 133 -153 133h-136c-84 0 -153 -69 -153 -153v-336c0 -84 69 -153 153 -153h136
c84 0 153 69 153 153v113h-202v30h231v-143c0 -101 -82 -182 -182 -182h-136z" />
    <glyph glyph-name="h" unicode="h" 
d="M50 0v700h29v-335h442v335h29v-700h-29v335h-442v-335h-29z" />
    <glyph glyph-name="hbar" unicode="&#x127;" horiz-adv-x="575" 
d="M615 541v-27h-78v-514h-29v335h-442v-335h-29v514h-81v27h81v159h29v-159h442v159h29v-159h78zM508 365v149h-442v-149h442z" />
    <glyph glyph-name="i" unicode="i" horiz-adv-x="179" 
d="M75 0v700h29v-700h-29z" />
    <glyph glyph-name="dotlessi" unicode="&#x131;" horiz-adv-x="179" 
d="M75 0v700h29v-700h-29z" />
    <glyph glyph-name="iacute" unicode="&#xed;" horiz-adv-x="129" 
d="M102 757h-19l52 156h38zM75 0v700h29v-700h-29z" />
    <glyph glyph-name="icircumflex" unicode="&#xee;" horiz-adv-x="117" 
d="M-25 787l103 73h39l103 -73l-18 -26l-104 78l-105 -78zM75 0v700h29v-700h-29z" />
    <glyph glyph-name="idieresis" unicode="&#xef;" horiz-adv-x="133" 
d="M5 750c-21 0 -37 14 -37 34c0 21 16 34 37 34s38 -13 38 -34c0 -20 -17 -34 -38 -34zM163 750c-22 0 -38 14 -38 34c0 21 16 34 38 34c20 0 37 -13 37 -34c0 -20 -17 -34 -37 -34zM75 0v700h29v-700h-29z" />
    <glyph glyph-name="i.loclTRK" horiz-adv-x="177" 
d="M89 750c-21 0 -38 14 -38 34c0 21 17 34 38 34s38 -13 38 -34c0 -20 -17 -34 -38 -34zM75 0v700h29v-700h-29z" />
    <glyph glyph-name="igrave" unicode="&#xec;" horiz-adv-x="190" 
d="M75 757l-71 156h38l52 -156h-19zM75 0v700h29v-700h-29z" />
    <glyph glyph-name="imacron" unicode="&#x12b;" horiz-adv-x="175" 
d="M-47 780h269v-30h-269v30zM75 0v700h29v-700h-29z" />
    <glyph glyph-name="iogonek" unicode="&#x12f;" horiz-adv-x="121" 
d="M42 0v700h29v-700h-29zM59 -24l39 -86h-21l-29 86h11z" />
    <glyph glyph-name="j" unicode="j" 
d="M232 0c-100 0 -182 81 -182 182h29c0 -84 69 -153 153 -153h136c84 0 153 69 153 153v518h29v-518c0 -101 -83 -182 -182 -182h-136z" />
    <glyph glyph-name="k" unicode="k" horiz-adv-x="624" 
d="M538 0l-321 388l-138 -128v-260h-29v700h29v-398l446 398h38l-327 -291l338 -409h-36z" />
    <glyph glyph-name="kcommaaccent" unicode="&#x137;" 
d="M538 0l-321 388l-138 -128v-260h-29v700h29v-398l446 398h38l-327 -291l338 -409h-36zM350 -186c0 -54 -39 -94 -106 -94l1 31c47 0 73 28 73 63c0 34 -27 63 -75 63l1 31c67 0 107 -41 106 -94z" />
    <glyph glyph-name="l" unicode="l" horiz-adv-x="539" 
d="M50 0v700h29v-671h410v-29h-439z" />
    <glyph glyph-name="lacute" unicode="&#x13a;" horiz-adv-x="454" 
d="M75 757h-19l52 156h38zM50 0v700h29v-671h410v-29h-439z" />
    <glyph glyph-name="lcaron" unicode="&#x13e;" horiz-adv-x="454" 
d="M365 613c0 -54 -39 -94 -106 -94l1 31c47 0 73 28 73 63c0 34 -27 63 -75 63l1 31c67 0 107 -41 106 -94zM50 0v700h29v-671h410v-29h-439z" />
    <glyph glyph-name="lcommaaccent" unicode="&#x13c;" 
d="M50 0v700h29v-671h410v-29h-439zM350 -186c0 -54 -39 -94 -106 -94l1 31c47 0 73 28 73 63c0 34 -27 63 -75 63l1 31c67 0 107 -41 106 -94z" />
    <glyph glyph-name="lslash" unicode="&#x142;" horiz-adv-x="539" 
d="M79 29h410v-29h-439v348l-162 -113l-17 25l179 125v315h29v-294l159 111l17 -25l-176 -123v-340z" />
    <glyph glyph-name="m" unicode="m" horiz-adv-x="700" 
d="M50 0v700h23l277 -405l278 405h22v-700h-29v644l-258 -378h-26l-258 379v-645h-29z" />
    <glyph glyph-name="n" unicode="n" 
d="M50 0v700h23l445 -640l3 640h29v-700h-25l-446 636v-636h-29z" />
    <glyph glyph-name="nacute" unicode="&#x144;" 
d="M302 757h-19l52 156h38zM50 0v700h23l445 -640l3 640h29v-700h-25l-446 636v-636h-29z" />
    <glyph glyph-name="ncaron" unicode="&#x148;" 
d="M177 823l18 27l105 -81l104 81l18 -27l-103 -73h-39zM50 0v700h23l445 -640l3 640h29v-700h-25l-446 636v-636h-29z" />
    <glyph glyph-name="ncommaaccent" unicode="&#x146;" 
d="M50 0v700h23l445 -640l3 640h29v-700h-25l-446 636v-636h-29zM350 -186c0 -54 -39 -94 -106 -94l1 31c47 0 73 28 73 63c0 34 -27 63 -75 63l1 31c67 0 107 -41 106 -94z" />
    <glyph glyph-name="eng" unicode="&#x14b;" 
d="M521 700h29v-783c0 -102 -83 -182 -182 -182c-109 0 -188 81 -188 182h29c0 -87 67 -153 159 -153c84 0 153 68 153 153v89l-442 630v-636h-29v700h23l445 -640z" />
    <glyph glyph-name="ntilde" unicode="&#xf1;" 
d="M137 744c0 61 41 102 94 102c79 0 99 -66 159 -66c33 0 40 36 40 66h33c0 -58 -32 -99 -80 -99c-83 0 -87 66 -157 66c-39 0 -56 -34 -56 -69h-33zM50 0v700h23l445 -640l3 640h29v-700h-25l-446 636v-636h-29z" />
    <glyph glyph-name="o" unicode="o" 
d="M232 0c-100 0 -182 82 -182 182l1 336c0 100 80 182 181 182h136c98 0 180 -80 182 -179v-340c-1 -100 -82 -181 -182 -181h-136zM232 29h136c84 0 153 69 153 153v334c0 89 -73 155 -153 155h-136c-83 0 -152 -70 -152 -153l-1 -336c0 -84 69 -153 153 -153z" />
    <glyph glyph-name="oacute" unicode="&#xf3;" 
d="M302 757h-19l52 156h38zM232 0c-100 0 -182 82 -182 182l1 336c0 100 80 182 181 182h136c98 0 180 -80 182 -179v-340c-1 -100 -82 -181 -182 -181h-136zM232 29h136c84 0 153 69 153 153v334c0 89 -73 155 -153 155h-136c-83 0 -152 -70 -152 -153l-1 -336
c0 -84 69 -153 153 -153z" />
    <glyph glyph-name="ocircumflex" unicode="&#xf4;" 
d="M178 787l103 73h39l103 -73l-18 -26l-104 78l-105 -78zM232 0c-100 0 -182 82 -182 182l1 336c0 100 80 182 181 182h136c98 0 180 -80 182 -179v-340c-1 -100 -82 -181 -182 -181h-136zM232 29h136c84 0 153 69 153 153v334c0 89 -73 155 -153 155h-136
c-83 0 -152 -70 -152 -153l-1 -336c0 -84 69 -153 153 -153z" />
    <glyph glyph-name="odieresis" unicode="&#xf6;" 
d="M221 750c-21 0 -37 14 -37 34c0 21 16 34 37 34s38 -13 38 -34c0 -20 -17 -34 -38 -34zM379 750c-22 0 -38 14 -38 34c0 21 16 34 38 34c20 0 37 -13 37 -34c0 -20 -17 -34 -37 -34zM232 0c-100 0 -182 82 -182 182l1 336c0 100 80 182 181 182h136
c98 0 180 -80 182 -179v-340c-1 -100 -82 -181 -182 -181h-136zM232 29h136c84 0 153 69 153 153v334c0 89 -73 155 -153 155h-136c-83 0 -152 -70 -152 -153l-1 -336c0 -84 69 -153 153 -153z" />
    <glyph glyph-name="ograve" unicode="&#xf2;" 
d="M324 757l-71 156h38l52 -156h-19zM232 0c-100 0 -182 82 -182 182l1 336c0 100 80 182 181 182h136c98 0 180 -80 182 -179v-340c-1 -100 -82 -181 -182 -181h-136zM232 29h136c84 0 153 69 153 153v334c0 89 -73 155 -153 155h-136c-83 0 -152 -70 -152 -153l-1 -336
c0 -84 69 -153 153 -153z" />
    <glyph glyph-name="ohungarumlaut" unicode="&#x151;" 
d="M273 757h-19l52 156h38zM348 757h-20l52 156h39zM232 0c-100 0 -182 82 -182 182l1 336c0 100 80 182 181 182h136c98 0 180 -80 182 -179v-340c-1 -100 -82 -181 -182 -181h-136zM232 29h136c84 0 153 69 153 153v334c0 89 -73 155 -153 155h-136
c-83 0 -152 -70 -152 -153l-1 -336c0 -84 69 -153 153 -153z" />
    <glyph glyph-name="omacron" unicode="&#x14d;" 
d="M165 780h269v-30h-269v30zM232 0c-100 0 -182 82 -182 182l1 336c0 100 80 182 181 182h136c98 0 180 -80 182 -179v-340c-1 -100 -82 -181 -182 -181h-136zM232 29h136c84 0 153 69 153 153v334c0 89 -73 155 -153 155h-136c-83 0 -152 -70 -152 -153l-1 -336
c0 -84 69 -153 153 -153z" />
    <glyph glyph-name="oslash" unicode="&#xf8;" 
d="M624 724l-96 -119c13 -25 21 -54 22 -84v-340c-1 -100 -82 -181 -182 -181h-136c-56 0 -106 26 -140 66l-61 -76h-30l77 95c-18 28 -28 62 -28 97l1 336c0 100 80 182 181 182h136c59 0 113 -29 146 -75l80 99h30zM79 182c0 -26 7 -51 18 -73l398 493
c-28 42 -76 69 -127 69h-136c-83 0 -152 -70 -152 -153zM521 516c0 23 -5 45 -14 64l-396 -491c28 -36 72 -60 121 -60h136c84 0 153 69 153 153v334z" />
    <glyph glyph-name="otilde" unicode="&#xf5;" 
d="M137 744c0 61 41 102 94 102c79 0 99 -66 159 -66c33 0 40 36 40 66h33c0 -58 -32 -99 -80 -99c-83 0 -87 66 -157 66c-39 0 -56 -34 -56 -69h-33zM232 0c-100 0 -182 82 -182 182l1 336c0 100 80 182 181 182h136c98 0 180 -80 182 -179v-340
c-1 -100 -82 -181 -182 -181h-136zM232 29h136c84 0 153 69 153 153v334c0 89 -73 155 -153 155h-136c-83 0 -152 -70 -152 -153l-1 -336c0 -84 69 -153 153 -153z" />
    <glyph glyph-name="oe" unicode="&#x153;" horiz-adv-x="901" 
d="M232 0c-100 0 -182 82 -182 182l1 336c0 100 80 182 181 182h619v-29h-456v-306h346v-30h-346v-306h456v-29h-619zM232 29h134v642h-134c-83 0 -152 -70 -152 -153l-1 -336c0 -84 69 -153 153 -153z" />
    <glyph glyph-name="p" unicode="p" 
d="M50 0v700h319c241 0 240 -405 0 -405h-290v-295h-29zM79 325h290c204 0 200 346 0 346h-290v-346z" />
    <glyph glyph-name="thorn" unicode="&#xfe;" 
d="M369 533c241 0 240 -365 0 -365h-290v-168h-29v182l-16 16h16v306h-16l16 16v180h29v-167h290zM369 198c204 0 200 306 0 306h-290v-306h290z" />
    <glyph glyph-name="q" unicode="q" 
d="M582 -2l-19 -19l-70 70c-33 -30 -77 -49 -125 -49h-136c-100 0 -182 82 -182 182l1 336c0 100 80 182 181 182h136c98 0 180 -80 182 -179v-340c0 -42 -15 -81 -39 -112zM368 29c40 0 77 16 104 41l-70 70l19 19l69 -69c19 26 31 58 31 92v334c0 89 -73 155 -153 155
h-136c-83 0 -152 -70 -152 -153l-1 -336c0 -84 69 -153 153 -153h136z" />
    <glyph glyph-name="r" unicode="r" horiz-adv-x="598" 
d="M50 0v700h317c235 0 243 -413 -29 -407l206 -293h-35l-207 295h-223v-295h-29zM79 325h265c226 0 223 346 23 346h-288v-346z" />
    <glyph glyph-name="racute" unicode="&#x155;" 
d="M302 757h-19l52 156h38zM50 0v700h317c235 0 243 -413 -29 -407l206 -293h-35l-207 295h-223v-295h-29zM79 325h265c226 0 223 346 23 346h-288v-346z" />
    <glyph glyph-name="rcaron" unicode="&#x159;" 
d="M177 823l18 27l105 -81l104 81l18 -27l-103 -73h-39zM50 0v700h317c235 0 243 -413 -29 -407l206 -293h-35l-207 295h-223v-295h-29zM79 325h265c226 0 223 346 23 346h-288v-346z" />
    <glyph glyph-name="rcommaaccent" unicode="&#x157;" 
d="M50 0v700h317c235 0 243 -413 -29 -407l206 -293h-35l-207 295h-223v-295h-29zM79 325h265c226 0 223 346 23 346h-288v-346zM350 -153c0 -54 -39 -94 -106 -94l1 31c47 0 73 28 73 63c0 34 -27 63 -75 63l1 31c67 0 107 -41 106 -94z" />
    <glyph glyph-name="s" unicode="s" horiz-adv-x="513" 
d="M44 157h27c-10 -120 78 -128 181 -128c138 0 208 43 208 155c0 229 -410 99 -410 319c0 122 51 197 202 197c86 0 208 -9 198 -157h-29c10 115 -90 125 -171 125c-144 0 -171 -62 -171 -163c0 -198 410 -56 410 -321c0 -92 -48 -184 -237 -184c-122 0 -218 23 -208 157z
" />
    <glyph glyph-name="sacute" unicode="&#x15b;" 
d="M302 757h-19l52 156h38zM44 157h27c-10 -120 78 -128 181 -128c138 0 208 43 208 155c0 229 -410 99 -410 319c0 122 51 197 202 197c86 0 208 -9 198 -157h-29c10 115 -90 125 -171 125c-144 0 -171 -62 -171 -163c0 -198 410 -56 410 -321c0 -92 -48 -184 -237 -184
c-122 0 -218 23 -208 157z" />
    <glyph glyph-name="scaron" unicode="&#x161;" 
d="M151 823l18 27l105 -81l104 81l18 -27l-103 -73h-39zM44 157h27c-10 -120 78 -128 181 -128c138 0 208 43 208 155c0 229 -410 99 -410 319c0 122 51 197 202 197c86 0 208 -9 198 -157h-29c10 115 -90 125 -171 125c-144 0 -171 -62 -171 -163c0 -198 410 -56 410 -321
c0 -92 -48 -184 -237 -184c-122 0 -218 23 -208 157z" />
    <glyph glyph-name="scedilla" unicode="&#x15f;" 
d="M44 157h27c-10 -120 78 -128 181 -128c138 0 208 43 208 155c0 229 -410 99 -410 319c0 122 51 197 202 197c86 0 208 -9 198 -157h-29c10 115 -90 125 -171 125c-144 0 -171 -62 -171 -163c0 -198 410 -56 410 -321c0 -92 -48 -184 -237 -184c-122 0 -218 23 -208 157z
M271 -44h19l-52 -156h-38z" />
    <glyph glyph-name="scommaaccent" unicode="&#x219;" 
d="M44 157h27c-10 -120 78 -128 181 -128c138 0 208 43 208 155c0 229 -410 99 -410 319c0 122 51 197 202 197c86 0 208 -9 198 -157h-29c10 115 -90 125 -171 125c-144 0 -171 -62 -171 -163c0 -198 410 -56 410 -321c0 -92 -48 -184 -237 -184c-122 0 -218 23 -208 157z
M350 -186c0 -54 -39 -94 -106 -94l1 31c47 0 73 28 73 63c0 34 -27 63 -75 63l1 31c67 0 107 -41 106 -94z" />
    <glyph glyph-name="germandbls" unicode="&#xdf;" 
d="M247 0l1 29h74c201 0 202 319 0 319h-76v30h34c201 0 197 298 0 298h-29c-73 0 -126 -52 -126 -126v-550h-29v551c0 88 66 154 154 154h30c180 0 252 -229 97 -332c200 -60 152 -373 -55 -373h-75z" />
    <glyph glyph-name="t" unicode="t" horiz-adv-x="603" 
d="M286 0v671h-236v29h503v-29h-236v-671h-31z" />
    <glyph glyph-name="tbar" unicode="&#x167;" 
d="M553 671h-236v-279h207v-30h-207v-362h-31v362h-210v30h210v279h-236v29h503v-29z" />
    <glyph glyph-name="tcaron" unicode="&#x165;" horiz-adv-x="603" 
d="M180 823l18 27l105 -81l104 81l18 -27l-103 -73h-39zM286 0v671h-236v29h503v-29h-236v-671h-31z" />
    <glyph glyph-name="uni0163" unicode="&#x163;" 
d="M286 0v671h-236v29h503v-29h-236v-671h-31zM290 -44h19l-52 -156h-38z" />
    <glyph glyph-name="uni021B" unicode="&#x21b;" 
d="M286 0v671h-236v29h503v-29h-236v-671h-31zM350 -186c0 -54 -39 -94 -106 -94l1 31c47 0 73 28 73 63c0 34 -27 63 -75 63l1 31c67 0 107 -41 106 -94z" />
    <glyph glyph-name="u" unicode="u" 
d="M232 0c-100 0 -182 82 -182 182l1 518h29l-1 -518c0 -84 69 -153 153 -153h136c108 0 153 69 153 153v518h29v-519c0 -99 -63 -181 -182 -181h-136z" />
    <glyph glyph-name="uacute" unicode="&#xfa;" 
d="M302 757h-19l52 156h38zM232 0c-100 0 -182 82 -182 182l1 518h29l-1 -518c0 -84 69 -153 153 -153h136c108 0 153 69 153 153v518h29v-519c0 -99 -63 -181 -182 -181h-136z" />
    <glyph glyph-name="ucircumflex" unicode="&#xfb;" 
d="M178 787l103 73h39l103 -73l-18 -26l-104 78l-105 -78zM232 0c-100 0 -182 82 -182 182l1 518h29l-1 -518c0 -84 69 -153 153 -153h136c108 0 153 69 153 153v518h29v-519c0 -99 -63 -181 -182 -181h-136z" />
    <glyph glyph-name="udieresis" unicode="&#xfc;" 
d="M221 750c-21 0 -37 14 -37 34c0 21 16 34 37 34s38 -13 38 -34c0 -20 -17 -34 -38 -34zM379 750c-22 0 -38 14 -38 34c0 21 16 34 38 34c20 0 37 -13 37 -34c0 -20 -17 -34 -37 -34zM232 0c-100 0 -182 82 -182 182l1 518h29l-1 -518c0 -84 69 -153 153 -153h136
c108 0 153 69 153 153v518h29v-519c0 -99 -63 -181 -182 -181h-136z" />
    <glyph glyph-name="ugrave" unicode="&#xf9;" 
d="M324 757l-71 156h38l52 -156h-19zM232 0c-100 0 -182 82 -182 182l1 518h29l-1 -518c0 -84 69 -153 153 -153h136c108 0 153 69 153 153v518h29v-519c0 -99 -63 -181 -182 -181h-136z" />
    <glyph glyph-name="uhungarumlaut" unicode="&#x171;" 
d="M283 757h-19l52 156h38zM358 757h-20l52 156h39zM232 0c-100 0 -182 82 -182 182l1 518h29l-1 -518c0 -84 69 -153 153 -153h136c108 0 153 69 153 153v518h29v-519c0 -99 -63 -181 -182 -181h-136z" />
    <glyph glyph-name="umacron" unicode="&#x16b;" 
d="M165 780h269v-30h-269v30zM232 0c-100 0 -182 82 -182 182l1 518h29l-1 -518c0 -84 69 -153 153 -153h136c108 0 153 69 153 153v518h29v-519c0 -99 -63 -181 -182 -181h-136z" />
    <glyph glyph-name="uogonek" unicode="&#x173;" 
d="M232 0c-100 0 -182 82 -182 182l1 518h29l-1 -518c0 -84 69 -153 153 -153h136c108 0 153 69 153 153v518h29v-519c0 -99 -63 -181 -182 -181h-136zM326 -44l71 -156h-38l-52 156h19z" />
    <glyph glyph-name="uring" unicode="&#x16f;" 
d="M311 757c-45 0 -80 34 -80 79s35 80 80 80c44 0 79 -35 79 -80s-35 -79 -79 -79zM311 787c26 0 47 22 47 49s-21 49 -47 49c-30 0 -50 -22 -50 -49s20 -49 50 -49zM232 0c-100 0 -182 82 -182 182l1 518h29l-1 -518c0 -84 69 -153 153 -153h136c108 0 153 69 153 153v518
h29v-519c0 -99 -63 -181 -182 -181h-136z" />
    <glyph glyph-name="v" unicode="v" horiz-adv-x="510" 
d="M245 0l-248 700h33l225 -664l225 664h32l-247 -700h-20z" />
    <glyph glyph-name="w" unicode="w" horiz-adv-x="700" 
d="M50 700h29v-642l254 382h34l254 -381v641h29v-700h-18l-282 412l-281 -412h-19v700z" />
    <glyph glyph-name="wacute" unicode="&#x1e83;" horiz-adv-x="700" 
d="M355 757h-19l52 156h38zM50 700h29v-642l254 382h34l254 -381v641h29v-700h-18l-282 412l-281 -412h-19v700z" />
    <glyph glyph-name="wcircumflex" unicode="&#x175;" horiz-adv-x="700" 
d="M228 787l103 73h39l103 -73l-18 -26l-104 78l-105 -78zM50 700h29v-642l254 382h34l254 -381v641h29v-700h-18l-282 412l-281 -412h-19v700z" />
    <glyph glyph-name="wdieresis" unicode="&#x1e85;" horiz-adv-x="700" 
d="M271 750c-21 0 -37 14 -37 34c0 21 16 34 37 34s38 -13 38 -34c0 -20 -17 -34 -38 -34zM429 750c-22 0 -38 14 -38 34c0 21 16 34 38 34c20 0 37 -13 37 -34c0 -20 -17 -34 -37 -34zM50 700h29v-642l254 382h34l254 -381v641h29v-700h-18l-282 412l-281 -412h-19v700z
" />
    <glyph glyph-name="wgrave" unicode="&#x1e81;" horiz-adv-x="700" 
d="M335 757l-71 156h38l52 -156h-19zM50 700h29v-642l254 382h34l254 -381v641h29v-700h-18l-282 412l-281 -412h-19v700z" />
    <glyph glyph-name="x" unicode="x" horiz-adv-x="628" 
d="M50 0l247 350l-247 351l38 -1l227 -326l227 326h36l-244 -350l244 -350h-36l-227 326l-227 -326h-38z" />
    <glyph glyph-name="y" unicode="y" horiz-adv-x="648" 
d="M310 0l-1 347l-249 353h37l227 -326l227 326h37l-249 -353l1 -347h-30z" />
    <glyph glyph-name="yacute" unicode="&#xfd;" horiz-adv-x="629" 
d="M321 757h-19l52 156h38zM310 0l-1 347l-249 353h37l227 -326l227 326h37l-249 -353l1 -347h-30z" />
    <glyph glyph-name="ycircumflex" unicode="&#x177;" horiz-adv-x="629" 
d="M192 787l103 73h39l103 -73l-18 -26l-104 78l-105 -78zM310 0l-1 347l-249 353h37l227 -326l227 326h37l-249 -353l1 -347h-30z" />
    <glyph glyph-name="ydieresis" unicode="&#xff;" horiz-adv-x="629" 
d="M235 750c-21 0 -37 14 -37 34c0 21 16 34 37 34s38 -13 38 -34c0 -20 -17 -34 -38 -34zM393 750c-22 0 -38 14 -38 34c0 21 16 34 38 34c20 0 37 -13 37 -34c0 -20 -17 -34 -37 -34zM310 0l-1 347l-249 353h37l227 -326l227 326h37l-249 -353l1 -347h-30z" />
    <glyph glyph-name="ygrave" unicode="&#x1ef3;" horiz-adv-x="629" 
d="M307 757l-71 156h38l52 -156h-19zM310 0l-1 347l-249 353h37l227 -326l227 326h37l-249 -353l1 -347h-30z" />
    <glyph glyph-name="z" unicode="z" horiz-adv-x="571" 
d="M50 0v24l432 647h-432v29h471v-24l-432 -647h432v-29h-471z" />
    <glyph glyph-name="zacute" unicode="&#x17a;" 
d="M302 757h-19l52 156h38zM50 0v24l432 647h-432v29h471v-24l-432 -647h432v-29h-471z" />
    <glyph glyph-name="zcaron" unicode="&#x17e;" 
d="M177 823l18 27l105 -81l104 81l18 -27l-103 -73h-39zM50 0v24l432 647h-432v29h471v-24l-432 -647h432v-29h-471z" />
    <glyph glyph-name="zdotaccent" unicode="&#x17c;" 
d="M340 750c-21 0 -38 14 -38 34c0 21 17 34 38 34s38 -13 38 -34c0 -20 -17 -34 -38 -34zM50 0v24l432 647h-432v29h471v-24l-432 -647h432v-29h-471z" />
    <glyph glyph-name="zero" unicode="0" horiz-adv-x="601" 
d="M297 -5c-135 0 -247 91 -247 247v216c0 158 111 247 254 247c138 0 247 -91 247 -247v-216c0 -157 -109 -247 -247 -247h-7zM297 24h7c120 0 219 78 219 218v216c0 140 -99 218 -219 218c-130 0 -225 -79 -225 -218v-216c0 -140 98 -218 218 -218z" />
    <glyph glyph-name="one" unicode="1" horiz-adv-x="280" 
d="M201 0v661l-124 -83l-16 24l148 98h21v-700h-29z" />
    <glyph glyph-name="two" unicode="2" horiz-adv-x="569" 
d="M50 0v14c0 264 436 324 436 523c0 94 -68 134 -176 134c-152 0 -202 -66 -192 -148h-28c-10 97 53 177 217 177c140 0 206 -51 206 -163c0 -212 -435 -292 -435 -508h444v-29h-472z" />
    <glyph glyph-name="three" unicode="3" horiz-adv-x="594" 
d="M192 0c-78 0 -142 63 -142 139h29c0 -58 50 -110 113 -110h171c201 0 203 307 0 307h-118v28h94c204 0 204 307 0 307h-126c-63 0 -114 -51 -114 -112h-28c0 78 64 141 142 141h126c187 0 257 -247 88 -345c192 -70 137 -355 -64 -355h-171z" />
    <glyph glyph-name="four" unicode="4" horiz-adv-x="575" 
d="M428 0v148l-378 1v22l384 529h22v-524h69v-28h-69v-148h-28zM428 176v468l-340 -467z" />
    <glyph glyph-name="five" unicode="5" horiz-adv-x="593" 
d="M191 0c-76 0 -141 60 -141 148h29c0 -70 49 -119 112 -119h171c92 0 152 64 152 190c0 75 -70 144 -152 144h-297l45 337h366v-29l-341 -1l-38 -278h265c93 0 181 -81 181 -173c0 -139 -70 -219 -181 -219h-171z" />
    <glyph glyph-name="six" unicode="6" horiz-adv-x="594" 
d="M227 0c-97 0 -177 80 -177 177v346c0 97 80 177 177 177h119c98 0 177 -80 177 -177h-29c0 82 -66 148 -148 148h-119c-82 0 -148 -66 -148 -148v-211c27 47 85 75 141 75h154c94 0 170 -76 170 -170v-40c0 -97 -80 -177 -177 -177h-140zM227 29h140c82 0 148 66 148 148
v40c0 78 -63 141 -141 141h-154c-78 0 -141 -62 -141 -141v-40c0 -82 66 -148 148 -148z" />
    <glyph glyph-name="seven" unicode="7" horiz-adv-x="571" 
d="M201 0h-34l317 670l-434 1v29l471 -1v-21z" />
    <glyph glyph-name="eight" unicode="8" horiz-adv-x="594" 
d="M232 0c-100 0 -181 82 -182 182v1c0 83 56 154 130 176c-53 33 -87 93 -88 159v1c2 101 83 181 183 181h44c100 0 182 -81 182 -181v-1c0 -66 -35 -126 -88 -159c77 -26 130 -92 131 -176c-1 -92 -83 -183 -162 -183h-150zM275 364h44c84 0 153 69 153 155
c0 84 -68 152 -153 152h-44c-84 0 -153 -68 -154 -152c1 -85 70 -155 154 -155zM232 29h130c84 0 152 69 154 154c-2 84 -70 153 -154 153h-130c-84 0 -153 -69 -153 -153c0 -85 69 -154 153 -154z" />
    <glyph glyph-name="nine" unicode="9" horiz-adv-x="594" 
d="M227 0c-97 0 -177 80 -177 177h29c0 -82 66 -148 148 -148h140c82 0 148 66 148 148v214c-25 -55 -86 -79 -141 -79h-154c-95 0 -170 77 -170 171v40c0 97 80 177 177 177h140c97 0 177 -80 177 -177v-346c0 -96 -79 -177 -177 -177h-140zM220 342h154
c79 0 141 62 141 141v40c0 82 -66 148 -148 148h-140c-82 0 -148 -66 -148 -148v-40c0 -78 63 -141 141 -141z" />
    <glyph glyph-name="fraction" unicode="&#x2044;" 
d="M1 -10l593 734h30l-593 -734h-30z" />
    <glyph glyph-name="asterisk" unicode="*" 
d="M478 646l-137 -96l137 -95l-23 -28l-134 91v-144h-35v144l-134 -91l-23 28l137 95l-137 96l23 27l134 -90v142h35v-143l134 91z" />
    <glyph glyph-name="backslash" unicode="\" 
d="M442 -177l-340 882l23 13l341 -885z" />
    <glyph glyph-name="periodcentered" unicode="&#xb7;" 
d="M295 290c-19 0 -34 15 -34 34s15 34 34 34h8c19 0 36 -15 36 -34s-17 -34 -36 -34h-8z" />
    <glyph glyph-name="bullet" unicode="&#x2022;" 
d="M296 247c-26 0 -47 20 -47 46s21 46 47 46h8c26 0 48 -20 48 -46s-22 -46 -48 -46h-8z" />
    <glyph glyph-name="colon" unicode=":" horiz-adv-x="276" 
d="M88 394c-21 0 -38 13 -38 33c0 22 17 34 38 34c20 0 38 -12 38 -34c0 -20 -18 -33 -38 -33zM88 2c-21 0 -38 13 -38 33c0 22 17 34 38 34c20 0 38 -12 38 -34c0 -20 -18 -33 -38 -33z" />
    <glyph glyph-name="comma" unicode="," horiz-adv-x="264" 
d="M69 -108h-19l76 207h38z" />
    <glyph glyph-name="ellipsis" unicode="&#x2026;" 
d="M88 69c20 0 38 -12 38 -34c0 -20 -18 -33 -38 -33c-21 0 -38 13 -38 33c0 22 17 34 38 34z" />
    <glyph glyph-name="exclam" unicode="!" horiz-adv-x="147" 
d="M89 700v-556h-29v556h29zM75 41c14 0 27 -8 27 -24c0 -14 -13 -23 -27 -23s-26 9 -26 23c0 16 12 24 26 24z" />
    <glyph glyph-name="exclamdown" unicode="&#xa1;" horiz-adv-x="247" 
d="M75 542c14 0 27 -9 27 -23c0 -16 -13 -24 -27 -24s-26 8 -26 24c0 14 12 23 26 23zM60 -164v556h29v-556h-29z" />
    <glyph glyph-name="numbersign" unicode="#" 
d="M356 21l-27 6l39 184h-205l-41 -189l-27 6l39 183h-98v28h105l47 222h-117v28h123l40 190l27 -5l-38 -185h205l41 190l26 -6l-37 -184h96v-28h-103l-47 -222h114v-28h-120zM170 239h205l47 222h-205z" />
    <glyph glyph-name="period" unicode="." horiz-adv-x="176" 
d="M88 2c-21 0 -38 13 -38 33c0 22 17 34 38 34c20 0 38 -12 38 -34c0 -20 -18 -33 -38 -33z" />
    <glyph glyph-name="question" unicode="?" horiz-adv-x="501" 
d="M209 184c6 276 213 118 213 321c0 101 -27 163 -171 163c-81 0 -181 -10 -171 -125h-29c-10 148 113 157 198 157c152 0 202 -68 202 -191c0 -233 -210 -91 -213 -325h-29zM221 3c-20 0 -36 16 -36 36s16 36 36 36h9c20 0 38 -16 38 -36s-18 -36 -38 -36h-9z" />
    <glyph glyph-name="questiondown" unicode="&#xbf;" horiz-adv-x="501" 
d="M280 532c20 0 36 -16 36 -36s-16 -36 -36 -36h-9c-20 0 -38 16 -38 36s18 36 38 36h9zM292 351c-6 -276 -213 -118 -213 -321c0 -101 27 -163 171 -163c81 0 181 10 171 125h29c10 -148 -113 -157 -198 -157c-152 0 -202 68 -202 191c0 233 210 91 213 325h29z" />
    <glyph glyph-name="quotedbl" unicode="&#x22;" horiz-adv-x="239" 
d="M60 524l-10 176h38l-9 -176h-19zM161 524l-10 176h38l-9 -176h-19z" />
    <glyph glyph-name="quotesingle" unicode="'" horiz-adv-x="238" 
d="M110 524l-10 176h38l-9 -176h-19z" />
    <glyph glyph-name="semicolon" unicode=";" 
d="M295 284c-19 0 -34 15 -34 34s15 34 34 34h8c19 0 36 -15 36 -34s-17 -34 -36 -34h-8zM224 -101h-19l76 207h38z" />
    <glyph glyph-name="slash" unicode="/" 
d="M128 -177l-24 10l341 885l23 -13z" />
    <glyph glyph-name="underscore" unicode="_" horiz-adv-x="585" 
d="M68 -50h448v-30h-448v30z" />
    <glyph glyph-name="braceleft" unicode="{" horiz-adv-x="511" 
d="M329 -187c-64 0 -116 53 -116 116v209c0 43 -19 136 -113 136v28c93 0 113 93 113 135v210c0 64 52 116 116 116h82v-27h-89c-42 0 -81 -40 -81 -82v-217c0 -57 -23 -116 -72 -149c55 -43 72 -93 72 -150v-215c0 -42 39 -82 81 -82h89v-28h-82z" />
    <glyph glyph-name="braceright" unicode="}" horiz-adv-x="511" 
d="M182 -166h-82v28h89c42 0 81 40 81 82v215c0 57 17 107 72 150c-49 33 -72 92 -72 149v217c0 42 -39 82 -81 82h-89v27h82c64 0 116 -52 116 -116v-210c0 -42 20 -135 113 -135v-28c-94 0 -113 -93 -113 -136v-209c0 -63 -52 -116 -116 -116z" />
    <glyph glyph-name="bracketleft" unicode="[" horiz-adv-x="344" 
d="M100 -34v770h143v-28h-115v-713h116v-29h-144z" />
    <glyph glyph-name="bracketright" unicode="]" horiz-adv-x="344" 
d="M244 -34h-144v29h116v713h-115v28h143v-770z" />
    <glyph glyph-name="parenleft" unicode="(" horiz-adv-x="331" 
d="M100 361c0 116 30 311 101 454l25 -13c-33 -72 -98 -180 -98 -441c0 -205 41 -308 100 -446l-25 -13c-63 125 -103 313 -103 459z" />
    <glyph glyph-name="parenright" unicode=")" horiz-adv-x="331" 
d="M228 361c0 -146 -40 -334 -103 -459l-25 13c59 138 100 241 100 446c0 261 -65 369 -98 441l25 13c71 -143 101 -338 101 -454z" />
    <glyph glyph-name="emdash" unicode="&#x2014;" 
d="M-148 299h896v-30h-896v30z" />
    <glyph glyph-name="endash" unicode="&#x2013;" horiz-adv-x="597" 
d="M75 306h448v-30h-448v30z" />
    <glyph glyph-name="hyphen" unicode="-" horiz-adv-x="493" 
d="M90 290h313v-30h-313v30z" />
    <glyph glyph-name="guillemotleft" unicode="&#xab;" horiz-adv-x="495" 
d="M223 49l-123 199v39l123 204l28 -21l-128 -202l127 -198zM367 49l-123 199v39l123 204l28 -21l-128 -202l127 -198z" />
    <glyph glyph-name="guillemotright" unicode="&#xbb;" horiz-adv-x="495" 
d="M128 49l-27 21l127 198l-128 202l28 21l123 -204v-39zM272 49l-27 21l127 198l-128 202l28 21l123 -204v-39z" />
    <glyph glyph-name="guilsinglleft" unicode="&#x2039;" horiz-adv-x="351" 
d="M223 49l-123 199v39l123 204l28 -21l-128 -202l127 -198z" />
    <glyph glyph-name="guilsinglright" unicode="&#x203a;" horiz-adv-x="351" 
d="M128 49l-27 21l127 198l-128 202l28 21l123 -204v-39z" />
    <glyph glyph-name="quotedblbase" unicode="&#x201e;" 
d="M126 99h38l-95 -207h-19z" />
    <glyph glyph-name="quotedblleft" unicode="&#x201c;" horiz-adv-x="613" 
d="M171 501l95 207h19l-76 -207h-38zM434 708h19l-76 -207h-38z" />
    <glyph glyph-name="quotedblright" unicode="&#x201d;" horiz-adv-x="482" 
d="M100 499l76 207h38l-95 -207h-19zM344 706h38l-95 -207h-19z" />
    <glyph glyph-name="quoteleft" unicode="&#x2018;" horiz-adv-x="214" 
d="M145 703h19l-76 -207h-38z" />
    <glyph glyph-name="quoteright" unicode="&#x2019;" horiz-adv-x="214" 
d="M69 494h-19l76 207h38z" />
    <glyph glyph-name="quotesinglbase" unicode="&#x201a;" 
d="M69 -108h-19l76 207h38z" />
    <glyph glyph-name="space" unicode=" " horiz-adv-x="450" 
 />
    <glyph glyph-name="cent" unicode="&#xa2;" 
d="M534 170c-49 -46 -116 -70 -197 -73c1 -1 1 -3 1 -4v-92l-30 -1v93c0 1 0 3 1 4c-164 6 -270 102 -270 255c0 155 113 248 271 254c-1 2 -2 4 -2 7v87h30v-86c0 -3 -1 -6 -2 -8c81 -2 149 -26 197 -70l-20 -23c-46 42 -110 63 -189 63c-154 0 -255 -86 -255 -224
c0 -144 107 -225 255 -225c78 0 145 19 190 64z" />
    <glyph glyph-name="currency" unicode="&#xa4;" horiz-adv-x="605" 
d="M445 213l54 -52l-23 -23l-54 52c-73 -57 -167 -57 -239 0l-54 -52l-22 23l53 52c-59 71 -57 168 0 242l-53 53l22 23l54 -54c69 57 170 57 239 0l54 54l23 -23l-54 -53c60 -76 56 -173 0 -242zM148 334c0 -84 70 -154 154 -154c85 0 155 70 155 154
c0 85 -70 153 -155 153c-84 0 -154 -68 -154 -153z" />
    <glyph glyph-name="dollar" unicode="$" horiz-adv-x="513" 
d="M489 184c0 -87 -43 -174 -208 -183v-86l-30 -1v86c-122 0 -217 23 -207 157h27c-10 -120 78 -128 181 -128c138 0 208 43 208 155c0 229 -410 99 -410 319c0 122 51 197 201 197v86l30 -1v-85c82 -4 178 -25 169 -157h-29c10 115 -90 125 -171 125
c-144 0 -171 -62 -171 -163c0 -198 410 -56 410 -321z" />
    <glyph glyph-name="Euro" unicode="&#x20ac;" horiz-adv-x="733" 
d="M514 29c40 0 77 16 104 41l15 -26c-32 -27 -73 -44 -119 -44h-136c-100 0 -182 81 -182 182v86h-96v30h96v106h-96v30h96v84c0 101 82 182 182 182h136c46 0 87 -17 119 -44l-15 -26c-27 25 -64 41 -104 41h-136c-85 0 -153 -69 -153 -153v-84h323v-30h-323v-106h323v-30
h-323v-86c0 -84 68 -153 153 -153h136z" />
    <glyph glyph-name="sterling" unicode="&#xa3;" horiz-adv-x="548" 
d="M100 29h54c72 8 104 49 104 116v217h-129v29h129v197c0 103 131 153 190 80l-22 -21c-42 49 -139 22 -139 -59v-197h129v-29h-129v-217c0 -49 -15 -86 -37 -116h192v-29h-342v29z" />
    <glyph glyph-name="yen" unicode="&#xa5;" horiz-adv-x="648" 
d="M588 700l-247 -350h107v-30h-109v-127h109v-30h-108v-163h-30v163h-102v30h101v127h-101v30h99l-247 350h37l227 -326l227 326h37z" />
    <glyph glyph-name="plus" unicode="+" horiz-adv-x="648" 
d="M548 291v-30h-209v-209h-30v209h-209v30h209v209h30v-209h209z" />
    <glyph glyph-name="minus" unicode="&#x2212;" horiz-adv-x="648" 
d="M100 294h448v-30h-448v30z" />
    <glyph glyph-name="multiply" unicode="&#xd7;" horiz-adv-x="540" 
d="M440 419l-149 -149l147 -147l-21 -21l-147 147l-147 -147l-21 21l147 147l-149 149l22 21l148 -148l148 148z" />
    <glyph glyph-name="divide" unicode="&#xf7;" horiz-adv-x="648" 
d="M320 388c-15 0 -27 12 -27 27s12 27 27 27h6c16 0 29 -12 29 -27s-13 -27 -29 -27h-6zM100 293h448v-30h-448v30zM320 114c-15 0 -27 12 -27 27s12 27 27 27h6c16 0 29 -12 29 -27s-13 -27 -29 -27h-6z" />
    <glyph glyph-name="equal" unicode="=" horiz-adv-x="648" 
d="M100 364h448v-30h-448v30zM100 220h448v-30h-448v30z" />
    <glyph glyph-name="asciitilde" unicode="~" 
d="M123 266c0 61 41 102 94 102c79 0 99 -66 159 -66c33 0 40 36 40 66h33c0 -58 -32 -99 -80 -99c-83 0 -87 66 -157 66c-39 0 -56 -34 -56 -69h-33z" />
    <glyph glyph-name="percent" unicode="%" 
d="M-35 -10l593 734h30l-593 -734h-30zM66 531c-36 0 -64 27 -64 63s28 64 64 64s64 -28 64 -64s-28 -63 -64 -63zM66 555c21 0 38 18 38 39c0 22 -17 39 -38 39c-24 0 -40 -17 -40 -39c0 -21 16 -39 40 -39zM495 56c-36 0 -64 27 -64 63s28 64 64 64s64 -28 64 -64
s-28 -63 -64 -63zM495 80c21 0 38 18 38 39c0 22 -17 39 -38 39c-24 0 -40 -17 -40 -39c0 -21 16 -39 40 -39z" />
    <glyph glyph-name="at" unicode="@" horiz-adv-x="888" 
d="M441 -137c-212 0 -331 187 -331 426s116 435 334 435c216 0 334 -203 334 -435c0 -120 -8 -256 -95 -256c-63 0 -96 39 -105 100c-38 -48 -83 -74 -148 -74c-118 0 -183 100 -183 229c0 131 66 230 183 230c70 0 121 -29 158 -90c7 18 17 38 28 58l32 -23
c-24 -33 -34 -69 -34 -110v-175c0 -75 15 -117 69 -116c56 0 67 124 67 227c0 221 -110 406 -306 406c-202 0 -306 -184 -306 -406c0 -224 109 -398 303 -398c38 0 74 6 107 19l10 -27c-36 -13 -75 -20 -117 -20zM430 88c106 0 152 97 152 200c0 109 -49 201 -152 201
c-105 0 -152 -93 -152 -201c0 -111 49 -200 152 -200z" />
    <glyph glyph-name="ampersand" unicode="&#x26;" 
d="M91 71c-76 113 -9 219 122 306c-62 71 -108 121 -108 190c0 82 66 138 153 138c95 0 154 -54 154 -140c0 -90 -91 -154 -150 -193c37 -39 128 -132 220 -223c73 92 73 217 73 203h32c0 -5 -1 -125 -83 -225l95 -95l-23 -23l-93 95c-115 -117 -312 -150 -392 -33zM240 395
c70 48 142 102 142 170c0 74 -54 108 -124 108c-73 0 -121 -42 -121 -106c0 -55 52 -121 103 -172zM460 125c-27 28 -206 208 -226 229c-116 -80 -183 -169 -117 -265c77 -112 247 -58 343 36z" />
    <glyph glyph-name="trademark" unicode="&#x2122;" horiz-adv-x="1303" 
d="M286 0v671h-236v29h503v-29h-236v-671h-31zM653 0v700h23l277 -405l278 405h22v-700h-29v644l-258 -378h-26l-258 379v-645h-29z" />
    <glyph glyph-name="degree" unicode="&#xb0;" 
d="M298 413c-78 0 -139 61 -139 139c0 76 61 137 139 137c76 0 137 -61 137 -137c0 -78 -61 -139 -137 -139zM299 450c54 0 99 46 99 104c0 55 -45 99 -99 99c-62 0 -103 -44 -103 -99c0 -58 41 -104 103 -104z" />
    <glyph glyph-name="bar" unicode="|" horiz-adv-x="330" 
d="M180 724v-896h-30v896h30z" />
    <glyph glyph-name="brokenbar" unicode="&#xa6;" horiz-adv-x="330" 
d="M180 699v-313h-30v313h30zM180 162v-313h-30v313h30z" />
    <glyph glyph-name="dagger" unicode="&#x2020;" horiz-adv-x="613" 
d="M463 584v-30h-142v-272h-30v272h-141v30h141v146h30v-146h142z" />
    <glyph glyph-name="daggerdbl" unicode="&#x2021;" 
d="M447 596h-142v-141h142v-30h-142v-130h-30v130h-141v30h141v141h-141v30h141v117h30v-117h142v-30z" />
    <glyph glyph-name="asciicircum" unicode="^" 
d="M167 560l113 140h39l113 -140l-28 -23l-104 141l-105 -141z" />
    <glyph glyph-name="uni0308" unicode="&#x308;" horiz-adv-x="0" 
d="M-379 750c-21 0 -37 14 -37 34c0 21 16 34 37 34s38 -13 38 -34c0 -20 -17 -34 -38 -34zM-221 750c-22 0 -38 14 -38 34c0 21 16 34 38 34c20 0 37 -13 37 -34c0 -20 -17 -34 -37 -34z" />
    <glyph glyph-name="uni0307" unicode="&#x307;" horiz-adv-x="0" 
d="M-300 750c-21 0 -38 14 -38 34c0 21 17 34 38 34s38 -13 38 -34c0 -20 -17 -34 -38 -34z" />
    <glyph glyph-name="gravecomb" unicode="&#x300;" horiz-adv-x="0" 
d="M-276 757l-71 156h38l52 -156h-19z" />
    <glyph glyph-name="acutecomb" unicode="&#x301;" horiz-adv-x="0" 
d="M-298 757h-19l52 156h38z" />
    <glyph glyph-name="uni030B" unicode="&#x30b;" horiz-adv-x="0" 
d="M-298 757h-19l52 156h38zM-223 757h-20l52 156h39z" />
    <glyph glyph-name="uni0302" unicode="&#x302;" horiz-adv-x="0" 
d="M-423 787l103 73h39l103 -73l-18 -26l-104 78l-105 -78z" />
    <glyph glyph-name="uni030C" unicode="&#x30c;" horiz-adv-x="0" 
d="M-423 823l18 27l105 -81l104 81l18 -27l-103 -73h-39z" />
    <glyph glyph-name="uni0306" unicode="&#x306;" horiz-adv-x="0" 
d="M-302 750c-67 0 -120 53 -120 120h31c0 -48 41 -88 89 -88c47 0 89 40 89 88h31c0 -67 -54 -120 -120 -120z" />
    <glyph glyph-name="uni030A" unicode="&#x30a;" horiz-adv-x="0" 
d="M-292 760c-45 0 -80 34 -80 79s35 80 80 80c44 0 79 -35 79 -80s-35 -79 -79 -79zM-292 790c26 0 47 22 47 49s-21 49 -47 49c-30 0 -50 -22 -50 -49s20 -49 50 -49z" />
    <glyph glyph-name="tildecomb" unicode="&#x303;" horiz-adv-x="0" 
d="M-477 744c0 61 41 102 94 102c79 0 99 -66 159 -66c33 0 40 36 40 66h33c0 -58 -32 -99 -80 -99c-83 0 -87 66 -157 66c-39 0 -56 -34 -56 -69h-33z" />
    <glyph glyph-name="uni0304" unicode="&#x304;" horiz-adv-x="0" 
d="M-435 780h269v-30h-269v30z" />
    <glyph glyph-name="uni0312" unicode="&#x312;" horiz-adv-x="0" 
d="M-300 818c21 0 38 -13 38 -34c0 -20 -17 -34 -38 -34s-38 14 -38 34c-1 23 3 41 12 55c16 24 38 29 60 29v-25c-25 0 -34 -12 -37 -25h3z" />
    <glyph glyph-name="uni0326" unicode="&#x326;" horiz-adv-x="0" 
d="M-250 -186c0 -54 -39 -94 -106 -94l1 31c47 0 73 28 73 63c0 34 -27 63 -75 63l1 31c67 0 107 -41 106 -94z" />
    <glyph glyph-name="uni0327" unicode="&#x327;" horiz-adv-x="0" 
d="M-269 -44h19l-52 -156h-38z" />
    <glyph glyph-name="uni0328" unicode="&#x328;" horiz-adv-x="0" 
d="M-274 -44l71 -156h-38l-52 156h19z" />
    <glyph glyph-name="uni0335" unicode="&#x335;" horiz-adv-x="0" 
d="M-509 245h448v-30h-448v30z" />
    <glyph glyph-name="uni0336" unicode="&#x336;" horiz-adv-x="0" 
d="M-674 252h673v-30h-673v30z" />
    <glyph glyph-name="uni0337" unicode="&#x337;" horiz-adv-x="0" 
d="M-529 -10l437 541h30l-437 -541h-30z" />
    <glyph glyph-name="uni0338" unicode="&#x338;" horiz-adv-x="0" 
d="M-599 -10l593 734h30l-593 -734h-30z" />
    <glyph glyph-name="_q_tail" 
d="M370 -11l-168 168l19 19l168 -168z" />
    </font>
</defs>
</svg>
