<?xml version="1.0" standalone="no"?>
<!DOCTYPE svg PUBLIC "-//W3C//DTD SVG 1.1//EN" "http://www.w3.org/Graphics/SVG/1.1/DTD/svg11.dtd" >
<svg xmlns="http://www.w3.org/2000/svg" xmlns:xlink="http://www.w3.org/1999/xlink" version="1.1">
<metadata>
Created by FontForge 20190801 at Thu Jun 30 12:09:33 2016
 By Jimmy Wärting
copyright missing
</metadata>
<defs>
<font id="Frank-Regular" horiz-adv-x="600" >
  <font-face 
    font-family="Frank"
    font-weight="400"
    font-stretch="normal"
    units-per-em="1000"
    panose-1="0 0 5 0 0 0 0 0 0 0"
    ascent="800"
    descent="-200"
    x-height="700"
    cap-height="700"
    bbox="-672 -332 1243 986"
    underline-thickness="50"
    underline-position="-100"
    unicode-range="U+0020-2212"
  />
<missing-glyph horiz-adv-x="525" 
d="M431 800v-1050h-333v1050h333zM350 730h-174v-35h69v-39h-70v-34h175v34h-70v39h70v35zM280 594h-105v-109h175v36h-70v73zM245 559v-38h-35v38h35zM350 457h-175v-35h70v-39h-70v-34h105v73h70v35zM350 394h-35v-70h-140v-35h175v105zM350 266h-105v-59h35v24h35v-49
h-105v84h-35v-119h175v119zM350 84h-175v-119h175v119zM315 49v-49h-105v49h105zM350 -59h-175v-35h74l-74 -49v-35h175v35h-107l73 49h34v35z" />
    <glyph glyph-name=".notdef" horiz-adv-x="525" 
d="M431 800v-1050h-333v1050h333zM350 730h-174v-35h69v-39h-70v-34h175v34h-70v39h70v35zM280 594h-105v-109h175v36h-70v73zM245 559v-38h-35v38h35zM350 457h-175v-35h70v-39h-70v-34h105v73h70v35zM350 394h-35v-70h-140v-35h175v105zM350 266h-105v-59h35v24h35v-49
h-105v84h-35v-119h175v119zM350 84h-175v-119h175v119zM315 49v-49h-105v49h105zM350 -59h-175v-35h74l-74 -49v-35h175v35h-107l73 49h34v35z" />
    <glyph glyph-name="A" unicode="A" horiz-adv-x="635" 
d="M106 0h-96l278 700h60l277 -700h-95l-63 160h-300zM195 249h245l-123 313z" />
    <glyph glyph-name="Aacute" unicode="&#xc1;" horiz-adv-x="635" 
d="M359 750h-67l52 156h86zM106 0h-96l278 700h60l277 -700h-95l-63 160h-300zM195 249h245l-123 313z" />
    <glyph glyph-name="Abreve" unicode="&#x102;" horiz-adv-x="635" 
d="M318 750c-73 0 -132 59 -132 132h82c0 -31 21 -53 50 -53s49 22 49 53h82c0 -73 -59 -132 -131 -132zM106 0h-96l278 700h60l277 -700h-95l-63 160h-300zM195 249h245l-123 313z" />
    <glyph glyph-name="Acircumflex" unicode="&#xc2;" horiz-adv-x="635" 
d="M176 816l122 73h39l122 -73l-46 -63l-95 66l-96 -66zM106 0h-96l278 700h60l277 -700h-95l-63 160h-300zM195 249h245l-123 313z" />
    <glyph glyph-name="Adieresis" unicode="&#xc4;" horiz-adv-x="635" 
d="M220 750c-38 0 -68 24 -68 61c0 39 30 61 68 61c37 0 69 -22 69 -61c0 -37 -32 -61 -69 -61zM416 750c-39 0 -69 24 -69 61c0 39 30 61 69 61c36 0 68 -22 68 -61c0 -37 -32 -61 -68 -61zM106 0h-96l278 700h60l277 -700h-95l-63 160h-300zM195 249h245l-123 313z" />
    <glyph glyph-name="Agrave" unicode="&#xc0;" horiz-adv-x="635" 
d="M283 757l-71 156h86l52 -156h-67zM106 0h-96l278 700h60l277 -700h-95l-63 160h-300zM195 249h245l-123 313z" />
    <glyph glyph-name="Amacron" unicode="&#x100;" horiz-adv-x="635" 
d="M183 828h269v-78h-269v78zM106 0h-96l278 700h60l277 -700h-95l-63 160h-300zM195 249h245l-123 313z" />
    <glyph glyph-name="Aogonek" unicode="&#x104;" horiz-adv-x="635" 
d="M662 -60l48 -37c-57 -67 -161 -64 -192 11c-7 18 -11 51 12 87l-63 159h-300l-61 -160h-96l278 700h60l277 -700h-1c-19 -7 -52 -41 -41 -63c13 -25 51 -26 79 3zM195 249h245l-123 313z" />
    <glyph glyph-name="Aring" unicode="&#xc5;" horiz-adv-x="635" 
d="M317 761c-63 0 -112 50 -112 113c0 62 49 112 112 112s113 -50 113 -112c0 -63 -50 -113 -113 -113zM317 832c24 0 41 19 41 42s-17 40 -41 40s-41 -17 -41 -40s17 -42 41 -42zM106 0h-96l278 700h60l277 -700h-95l-63 160h-300zM195 249h245l-123 313z" />
    <glyph glyph-name="Atilde" unicode="&#xc3;" horiz-adv-x="635" 
d="M143 768c0 74 45 125 111 125c62 0 81 -51 128 -51c29 0 38 29 38 51h73c0 -72 -38 -124 -97 -124c-62 0 -79 50 -131 50c-36 0 -49 -25 -49 -51h-73zM106 0h-96l278 700h60l277 -700h-95l-63 160h-300zM195 249h245l-123 313z" />
    <glyph glyph-name="AE" unicode="&#xc6;" horiz-adv-x="916" 
d="M50 0l278 700h538v-89h-366v-216h265v-90h-265v-216h366v-89h-456v160h-203l-61 -160h-96zM235 249h175v362h-33z" />
    <glyph glyph-name="B" unicode="B" 
d="M50 0l-1 700h267c176 0 261 -213 140 -334c166 -113 97 -366 -101 -366h-305zM139 394h177c139 0 146 217 0 217h-177v-217zM139 89h216c139 0 145 217 0 217h-216v-217z" />
    <glyph glyph-name="C" unicode="C" 
d="M247 0c-110 0 -197 91 -197 197v306c0 108 88 197 197 197h106c110 0 197 -91 197 -197h-89c0 59 -49 108 -108 108h-106c-59 0 -108 -49 -108 -108v-306c0 -59 49 -108 108 -108h106c59 0 108 49 108 108h89c0 -108 -88 -197 -197 -197h-106z" />
    <glyph glyph-name="Cacute" unicode="&#x106;" 
d="M331 757h-67l52 156h86zM247 0c-110 0 -197 91 -197 197v306c0 108 88 197 197 197h106c110 0 197 -91 197 -197h-89c0 59 -49 108 -108 108h-106c-59 0 -108 -49 -108 -108v-306c0 -59 49 -108 108 -108h106c59 0 108 49 108 108h89c0 -108 -88 -197 -197 -197h-106z
" />
    <glyph glyph-name="Ccaron" unicode="&#x10c;" 
d="M159 823l46 63l96 -66l95 66l46 -63l-122 -73h-39zM247 0c-110 0 -197 91 -197 197v306c0 108 88 197 197 197h106c110 0 197 -91 197 -197h-89c0 59 -49 108 -108 108h-106c-59 0 -108 -49 -108 -108v-306c0 -59 49 -108 108 -108h106c59 0 108 49 108 108h89
c0 -108 -88 -197 -197 -197h-106z" />
    <glyph glyph-name="Ccedilla" unicode="&#xc7;" 
d="M247 0c-110 0 -197 91 -197 197v306c0 108 88 197 197 197h106c110 0 197 -91 197 -197h-89c0 59 -49 108 -108 108h-106c-59 0 -108 -49 -108 -108v-306c0 -59 49 -108 108 -108h106c59 0 108 49 108 108h89c0 -108 -88 -197 -197 -197h-106zM285 -43h66l-52 -156h-85z
" />
    <glyph glyph-name="Cdotaccent" unicode="&#x10a;" 
d="M300 750c-38 0 -68 24 -68 61c0 39 30 61 68 61c37 0 68 -22 68 -61c0 -37 -31 -61 -68 -61zM247 0c-110 0 -197 91 -197 197v306c0 108 88 197 197 197h106c110 0 197 -91 197 -197h-89c0 59 -49 108 -108 108h-106c-59 0 -108 -49 -108 -108v-306
c0 -59 49 -108 108 -108h106c59 0 108 49 108 108h89c0 -108 -88 -197 -197 -197h-106z" />
    <glyph glyph-name="D" unicode="D" 
d="M50 0v700h303c108 0 195 -87 197 -195v-310c-2 -108 -89 -195 -197 -195h-303zM139 89h214c59 0 108 49 108 108v306c0 59 -49 108 -108 108h-214v-522z" />
    <glyph glyph-name="Eth" unicode="&#xd0;" horiz-adv-x="716" 
d="M469 700c108 0 195 -87 197 -195v-310c-2 -108 -89 -195 -197 -195h-303v311h-118v78h118v311h303zM577 197v306c0 59 -49 108 -108 108h-214v-222h120v-78h-120v-222h214c59 0 108 49 108 108z" />
    <glyph glyph-name="Dcaron" unicode="&#x10e;" 
d="M159 823l46 63l96 -66l95 66l46 -63l-122 -73h-39zM50 0v700h303c108 0 195 -87 197 -195v-310c-2 -108 -89 -195 -197 -195h-303zM139 89h214c59 0 108 49 108 108v306c0 59 -49 108 -108 108h-214v-522z" />
    <glyph glyph-name="Dcroat" unicode="&#x110;" horiz-adv-x="716" 
d="M469 700c108 0 195 -87 197 -195v-310c-2 -108 -89 -195 -197 -195h-303v311h-118v78h118v311h303zM577 197v306c0 59 -49 108 -108 108h-214v-222h120v-78h-120v-222h214c59 0 108 49 108 108z" />
    <glyph glyph-name="E" unicode="E" horiz-adv-x="555" 
d="M49 0l1 700h468v-89h-379v-216h278v-90h-278v-216h379v-89h-469z" />
    <glyph glyph-name="Eacute" unicode="&#xc9;" horiz-adv-x="555" 
d="M331 757h-67l52 156h86zM49 0l1 700h468v-89h-379v-216h278v-90h-278v-216h379v-89h-469z" />
    <glyph glyph-name="Ecaron" unicode="&#x11a;" horiz-adv-x="555" 
d="M136 823l46 63l96 -66l95 66l46 -63l-122 -73h-39zM49 0l1 700h468v-89h-379v-216h278v-90h-278v-216h379v-89h-469z" />
    <glyph glyph-name="Ecircumflex" unicode="&#xca;" horiz-adv-x="555" 
d="M136 816l122 73h39l122 -73l-46 -63l-95 66l-96 -66zM49 0l1 700h468v-89h-379v-216h278v-90h-278v-216h379v-89h-469z" />
    <glyph glyph-name="Edieresis" unicode="&#xcb;" horiz-adv-x="555" 
d="M179 750c-38 0 -68 24 -68 61c0 39 30 61 68 61c37 0 69 -22 69 -61c0 -37 -32 -61 -69 -61zM375 750c-39 0 -69 24 -69 61c0 39 30 61 69 61c36 0 68 -22 68 -61c0 -37 -32 -61 -68 -61zM49 0l1 700h468v-89h-379v-216h278v-90h-278v-216h379v-89h-469z" />
    <glyph glyph-name="Edotaccent" unicode="&#x116;" horiz-adv-x="555" 
d="M277 750c-38 0 -68 24 -68 61c0 39 30 61 68 61c37 0 68 -22 68 -61c0 -37 -31 -61 -68 -61zM49 0l1 700h468v-89h-379v-216h278v-90h-278v-216h379v-89h-469z" />
    <glyph glyph-name="Egrave" unicode="&#xc8;" horiz-adv-x="555" 
d="M276 757l-71 156h86l52 -156h-67zM49 0l1 700h468v-89h-379v-216h278v-90h-278v-216h379v-89h-469z" />
    <glyph glyph-name="Emacron" unicode="&#x112;" horiz-adv-x="555" 
d="M143 828h269v-78h-269v78zM49 0l1 700h468v-89h-379v-216h278v-90h-278v-216h379v-89h-469z" />
    <glyph glyph-name="Eogonek" unicode="&#x118;" horiz-adv-x="555" 
d="M49 0l1 700h468v-89h-379v-216h278v-90h-278v-216h379v-89h-469zM431 -44l71 -156h-85l-52 156h66z" />
    <glyph glyph-name="F" unicode="F" horiz-adv-x="555" 
d="M50 0v700h455v-89h-366v-216h266v-90h-266v-305h-89z" />
    <glyph glyph-name="G" unicode="G" 
d="M247 0c-110 0 -197 91 -197 197v306c0 108 88 197 197 197h106c110 0 197 -71 197 -177h-89c0 59 -49 88 -108 88h-106c-59 0 -108 -49 -108 -108v-306c0 -59 49 -108 108 -108h106c59 0 108 49 108 108v68h-143v90h232v-158c0 -108 -88 -197 -197 -197h-106z" />
    <glyph glyph-name="Gbreve" unicode="&#x11e;" 
d="M304 750c-73 0 -132 59 -132 132h82c0 -31 21 -53 50 -53s49 22 49 53h82c0 -73 -59 -132 -131 -132zM247 0c-110 0 -197 91 -197 197v306c0 108 88 197 197 197h106c110 0 197 -71 197 -177h-89c0 59 -49 88 -108 88h-106c-59 0 -108 -49 -108 -108v-306
c0 -59 49 -108 108 -108h106c59 0 108 49 108 108v68h-143v90h232v-158c0 -108 -88 -197 -197 -197h-106z" />
    <glyph glyph-name="Gcommaaccent" unicode="&#x122;" 
d="M247 0c-110 0 -197 91 -197 197v306c0 108 88 197 197 197h106c110 0 197 -71 197 -177h-89c0 59 -49 88 -108 88h-106c-59 0 -108 -49 -108 -108v-306c0 -59 49 -108 108 -108h106c59 0 108 49 108 108v68h-143v90h232v-158c0 -108 -88 -197 -197 -197h-106zM370 -207
c1 -69 -54 -124 -127 -125v82c30 0 48 17 48 42c0 26 -18 42 -49 42v83c73 0 128 -55 128 -124z" />
    <glyph glyph-name="Gdotaccent" unicode="&#x120;" 
d="M300 750c-38 0 -68 24 -68 61c0 39 30 61 68 61c37 0 68 -22 68 -61c0 -37 -31 -61 -68 -61zM247 0c-110 0 -197 91 -197 197v306c0 108 88 197 197 197h106c110 0 197 -71 197 -177h-89c0 59 -49 88 -108 88h-106c-59 0 -108 -49 -108 -108v-306c0 -59 49 -108 108 -108
h106c59 0 108 49 108 108v68h-143v90h232v-158c0 -108 -88 -197 -197 -197h-106z" />
    <glyph glyph-name="H" unicode="H" 
d="M50 0v700h89v-305h322v305h89v-700h-89v305h-322v-305h-89z" />
    <glyph glyph-name="Hbar" unicode="&#x126;" horiz-adv-x="650" 
d="M654 588v-84h-78v-504h-89v305h-322v-305h-89v504h-81v84h81v112h89v-112h322v112h89v-112h78zM487 395v109h-322v-109h322z" />
    <glyph glyph-name="I" unicode="I" horiz-adv-x="236" 
d="M75 0v700h86v-700h-86z" />
    <glyph glyph-name="Iacute" unicode="&#xcd;" horiz-adv-x="186" 
d="M155 757h-67l52 156h86zM75 0v700h86v-700h-86z" />
    <glyph glyph-name="Icircumflex" unicode="&#xce;" horiz-adv-x="232" 
d="M-25 816l122 73h39l122 -73l-46 -63l-95 66l-96 -66zM75 0v700h86v-700h-86z" />
    <glyph glyph-name="Idieresis" unicode="&#xcf;" horiz-adv-x="232" 
d="M23 750c-38 0 -68 24 -68 61c0 39 30 61 68 61c37 0 69 -22 69 -61c0 -37 -32 -61 -69 -61zM219 750c-39 0 -69 24 -69 61c0 39 30 61 69 61c36 0 68 -22 68 -61c0 -37 -32 -61 -68 -61zM75 0v700h86v-700h-86z" />
    <glyph glyph-name="Idotaccent" unicode="&#x130;" horiz-adv-x="237" 
d="M118 750c-38 0 -68 24 -68 61c0 39 30 61 68 61c37 0 68 -22 68 -61c0 -37 -31 -61 -68 -61zM75 0v700h86v-700h-86z" />
    <glyph glyph-name="Igrave" unicode="&#xcc;" horiz-adv-x="238" 
d="M81 757l-71 156h86l52 -156h-67zM75 0v700h86v-700h-86z" />
    <glyph glyph-name="Imacron" unicode="&#x12a;" horiz-adv-x="230" 
d="M-20 828h269v-78h-269v78zM75 0v700h86v-700h-86z" />
    <glyph glyph-name="Iogonek" unicode="&#x12e;" horiz-adv-x="202" 
d="M66 0v700h86v-700h-86zM133 -35l56 -123h-67l-41 123h52z" />
    <glyph glyph-name="J" unicode="J" 
d="M247 0c-109 0 -197 89 -197 197h89c0 -59 49 -108 108 -108h106c59 0 108 49 108 108v503h89v-503c0 -106 -87 -197 -197 -197h-106z" />
    <glyph glyph-name="K" unicode="K" horiz-adv-x="669" 
d="M503 0l-280 340l-84 -81v-259h-89v700h89v-332l351 332h123l-318 -303l324 -397h-116z" />
    <glyph glyph-name="Kcommaaccent" unicode="&#x136;" horiz-adv-x="669" 
d="M503 0l-280 340l-84 -81v-259h-89v700h89v-332l351 332h123l-318 -303l324 -397h-116zM370 -207c1 -69 -54 -124 -127 -125v82c30 0 48 17 48 42c0 26 -18 42 -49 42v83c73 0 128 -55 128 -124z" />
    <glyph glyph-name="L" unicode="L" horiz-adv-x="529" 
d="M50 0v700h89v-611h340v-89h-429z" />
    <glyph glyph-name="Lacute" unicode="&#x139;" horiz-adv-x="520" 
d="M129 757h-67l52 156h86zM50 0v700h89v-611h340v-89h-429z" />
    <glyph glyph-name="Lcaron" unicode="&#x13d;" horiz-adv-x="520" 
d="M409 598c1 -69 -54 -124 -127 -125v82c30 0 48 17 48 42c0 26 -18 42 -49 42v83c73 0 128 -55 128 -124zM50 0v700h89v-611h340v-89h-429z" />
    <glyph glyph-name="Lcommaaccent" unicode="&#x13b;" horiz-adv-x="520" 
d="M50 0v700h89v-611h340v-89h-429zM370 -207c1 -69 -54 -124 -127 -125v82c30 0 48 17 48 42c0 26 -18 42 -49 42v83c73 0 128 -55 128 -124z" />
    <glyph glyph-name="Lslash" unicode="&#x141;" horiz-adv-x="556" 
d="M139 89h340v-89h-429v280l-54 -62h-79l133 153v329h89v-227l51 59h79l-130 -150v-293z" />
    <glyph glyph-name="M" unicode="M" horiz-adv-x="700" 
d="M50 0v700h68l232 -341l233 341h67v-700h-89v512l-173 -259h-74l-175 260v-513h-89z" />
    <glyph glyph-name="N" unicode="N" 
d="M50 0v700h68l342 -505l1 505h89v-700h-70l-341 504v-504h-89z" />
    <glyph glyph-name="Nacute" unicode="&#x143;" 
d="M298 757h-67l52 156h86zM50 0v700h68l342 -505l1 505h89v-700h-70l-341 504v-504h-89z" />
    <glyph glyph-name="Ncaron" unicode="&#x147;" 
d="M159 823l46 63l96 -66l95 66l46 -63l-122 -73h-39zM50 0v700h68l342 -505l1 505h89v-700h-70l-341 504v-504h-89z" />
    <glyph glyph-name="Ncommaaccent" unicode="&#x145;" 
d="M50 0v700h68l342 -505l1 505h89v-700h-70l-341 504v-504h-89zM370 -207c1 -69 -54 -124 -127 -125v82c30 0 48 17 48 42c0 26 -18 42 -49 42v83c73 0 128 -55 128 -124z" />
    <glyph glyph-name="Eng" unicode="&#x14a;" 
d="M461 700h89v-767c0 -106 -87 -197 -197 -197c-117 0 -203 89 -203 197h89c0 -62 49 -108 114 -108c59 0 108 48 108 108v95l-322 476v-504h-89v700h68l342 -505z" />
    <glyph glyph-name="Ntilde" unicode="&#xd1;" 
d="M126 761c0 74 45 125 111 125c62 0 81 -51 128 -51c29 0 38 29 38 51h73c0 -72 -38 -124 -97 -124c-62 0 -79 50 -131 50c-36 0 -49 -25 -49 -51h-73zM50 0v700h68l342 -505l1 505h89v-700h-70l-341 504v-504h-89z" />
    <glyph glyph-name="O" unicode="O" 
d="M247 0c-109 0 -197 88 -197 197l1 306c0 109 86 197 196 197h106c107 0 194 -86 197 -194v-310c-1 -109 -88 -196 -197 -196h-106zM247 89h106c60 0 109 48 109 108v304c0 61 -50 110 -109 110h-106c-59 0 -108 -48 -108 -108v-306c0 -60 48 -108 108 -108z" />
    <glyph glyph-name="Oacute" unicode="&#xd3;" 
d="M331 757h-67l52 156h86zM247 0c-109 0 -197 88 -197 197l1 306c0 109 86 197 196 197h106c107 0 194 -86 197 -194v-310c-1 -109 -88 -196 -197 -196h-106zM247 89h106c60 0 109 48 109 108v304c0 61 -50 110 -109 110h-106c-59 0 -108 -48 -108 -108v-306
c0 -60 48 -108 108 -108z" />
    <glyph glyph-name="Ocircumflex" unicode="&#xd4;" 
d="M159 816l122 73h39l122 -73l-46 -63l-95 66l-96 -66zM247 0c-109 0 -197 88 -197 197l1 306c0 109 86 197 196 197h106c107 0 194 -86 197 -194v-310c-1 -109 -88 -196 -197 -196h-106zM247 89h106c60 0 109 48 109 108v304c0 61 -50 110 -109 110h-106
c-59 0 -108 -48 -108 -108v-306c0 -60 48 -108 108 -108z" />
    <glyph glyph-name="Odieresis" unicode="&#xd6;" 
d="M202 750c-38 0 -68 24 -68 61c0 39 30 61 68 61c37 0 69 -22 69 -61c0 -37 -32 -61 -69 -61zM398 750c-39 0 -69 24 -69 61c0 39 30 61 69 61c36 0 68 -22 68 -61c0 -37 -32 -61 -68 -61zM247 0c-109 0 -197 88 -197 197l1 306c0 109 86 197 196 197h106
c107 0 194 -86 197 -194v-310c-1 -109 -88 -196 -197 -196h-106zM247 89h106c60 0 109 48 109 108v304c0 61 -50 110 -109 110h-106c-59 0 -108 -48 -108 -108v-306c0 -60 48 -108 108 -108z" />
    <glyph glyph-name="Ograve" unicode="&#xd2;" 
d="M276 757l-71 156h86l52 -156h-67zM247 0c-109 0 -197 88 -197 197l1 306c0 109 86 197 196 197h106c107 0 194 -86 197 -194v-310c-1 -109 -88 -196 -197 -196h-106zM247 89h106c60 0 109 48 109 108v304c0 61 -50 110 -109 110h-106c-59 0 -108 -48 -108 -108v-306
c0 -60 48 -108 108 -108z" />
    <glyph glyph-name="Ohungarumlaut" unicode="&#x150;" 
d="M273 757h-67l52 156h86zM395 757h-67l52 156h86zM247 0c-109 0 -197 88 -197 197l1 306c0 109 86 197 196 197h106c107 0 194 -86 197 -194v-310c-1 -109 -88 -196 -197 -196h-106zM247 89h106c60 0 109 48 109 108v304c0 61 -50 110 -109 110h-106
c-59 0 -108 -48 -108 -108v-306c0 -60 48 -108 108 -108z" />
    <glyph glyph-name="Omacron" unicode="&#x14c;" 
d="M166 833h269v-78h-269v78zM247 0c-109 0 -197 88 -197 197l1 306c0 109 86 197 196 197h106c107 0 194 -86 197 -194v-310c-1 -109 -88 -196 -197 -196h-106zM247 89h106c60 0 109 48 109 108v304c0 61 -50 110 -109 110h-106c-59 0 -108 -48 -108 -108v-306
c0 -60 48 -108 108 -108z" />
    <glyph glyph-name="Oslash" unicode="&#xd8;" 
d="M625 724l-101 -125c16 -27 25 -59 26 -93v-310c-1 -109 -88 -196 -197 -196h-106c-60 0 -114 27 -151 70l-64 -80h-79l110 136c-8 22 -13 46 -13 71l1 306c0 109 86 197 196 197h106c51 0 97 -19 132 -51l61 75h79zM139 503v-283l290 359c-20 20 -47 32 -76 32h-106
c-59 0 -108 -48 -108 -108zM462 501c0 7 -1 13 -2 19l-306 -379c19 -31 53 -52 93 -52h106c60 0 109 48 109 108v304z" />
    <glyph glyph-name="Otilde" unicode="&#xd5;" 
d="M126 761c0 74 45 125 111 125c62 0 81 -51 128 -51c29 0 38 29 38 51h73c0 -72 -38 -124 -97 -124c-62 0 -79 50 -131 50c-36 0 -49 -25 -49 -51h-73zM247 0c-109 0 -197 88 -197 197l1 306c0 109 86 197 196 197h106c107 0 194 -86 197 -194v-310
c-1 -109 -88 -196 -197 -196h-106zM247 89h106c60 0 109 48 109 108v304c0 61 -50 110 -109 110h-106c-59 0 -108 -48 -108 -108v-306c0 -60 48 -108 108 -108z" />
    <glyph glyph-name="OE" unicode="&#x152;" horiz-adv-x="856" 
d="M247 0c-109 0 -197 88 -197 197l1 306c0 109 86 197 196 197h559v-89h-366v-216h266v-90h-266v-216h366v-89h-559zM247 89h103l1 522h-104c-59 0 -108 -48 -108 -108v-306c0 -60 48 -108 108 -108z" />
    <glyph glyph-name="P" unicode="P" 
d="M50 0v700h306c259 0 258 -435 0 -435h-217v-265h-89zM139 355h217c139 0 147 256 0 256h-217v-256z" />
    <glyph glyph-name="Thorn" unicode="&#xde;" 
d="M356 548c259 0 258 -395 0 -395h-217v-153h-89v700h89v-152h217zM356 242c139 0 147 217 0 217h-217v-217h217z" />
    <glyph glyph-name="Q" unicode="Q" 
d="M585 37l-67 -67l-60 60c-30 -19 -66 -30 -105 -30h-106c-109 0 -197 88 -197 197l1 306c0 109 86 197 196 197h106c107 0 194 -86 197 -194v-310c0 -36 -10 -69 -26 -98zM353 89c14 0 27 3 39 7l-70 71l66 67l69 -69c3 10 5 21 5 32v304c0 61 -50 110 -109 110h-106
c-59 0 -108 -48 -108 -108v-306c0 -60 48 -108 108 -108h106z" />
    <glyph glyph-name="R" unicode="R" horiz-adv-x="604" 
d="M50 0v700h301c275 0 268 -418 28 -431l188 -269h-103l-179 265h-146v-265h-89zM139 355h199c167 0 159 256 13 256h-212v-256z" />
    <glyph glyph-name="Racute" unicode="&#x154;" horiz-adv-x="604" 
d="M300 757h-67l52 156h86zM50 0v700h301c275 0 268 -418 28 -431l188 -269h-103l-179 265h-146v-265h-89zM139 355h199c167 0 159 256 13 256h-212v-256z" />
    <glyph glyph-name="Rcaron" unicode="&#x158;" horiz-adv-x="604" 
d="M161 823l46 63l96 -66l95 66l46 -63l-122 -73h-39zM50 0v700h301c275 0 268 -418 28 -431l188 -269h-103l-179 265h-146v-265h-89zM139 355h199c167 0 159 256 13 256h-212v-256z" />
    <glyph glyph-name="Rcommaaccent" unicode="&#x156;" horiz-adv-x="604" 
d="M50 0v700h301c275 0 268 -418 28 -431l188 -269h-103l-179 265h-146v-265h-89zM139 355h199c167 0 159 256 13 256h-212v-256zM370 -207c1 -69 -54 -124 -127 -125v82c30 0 48 17 48 42c0 26 -18 42 -49 42v83c73 0 128 -55 128 -124z" />
    <glyph glyph-name="S" unicode="S" horiz-adv-x="576" 
d="M63 186h88c-10 -91 63 -98 134 -98c90 0 159 22 159 105c0 184 -372 60 -372 308c0 141 63 199 213 199c126 0 226 -49 216 -188h-89c10 91 -58 105 -124 105c-79 0 -127 -28 -127 -116c0 -158 372 -43 372 -308c0 -124 -80 -193 -248 -193c-110 0 -232 33 -222 186z" />
    <glyph glyph-name="Sacute" unicode="&#x15a;" horiz-adv-x="576" 
d="M323 757h-67l52 156h86zM63 186h88c-10 -91 63 -98 134 -98c90 0 159 22 159 105c0 184 -372 60 -372 308c0 141 63 199 213 199c126 0 226 -49 216 -188h-89c10 91 -58 105 -124 105c-79 0 -127 -28 -127 -116c0 -158 372 -43 372 -308c0 -124 -80 -193 -248 -193
c-110 0 -232 33 -222 186z" />
    <glyph glyph-name="Scaron" unicode="&#x160;" horiz-adv-x="576" 
d="M150 823l46 63l96 -66l95 66l46 -63l-122 -73h-39zM63 186h88c-10 -91 63 -98 134 -98c90 0 159 22 159 105c0 184 -372 60 -372 308c0 141 63 199 213 199c126 0 226 -49 216 -188h-89c10 91 -58 105 -124 105c-79 0 -127 -28 -127 -116c0 -158 372 -43 372 -308
c0 -124 -80 -193 -248 -193c-110 0 -232 33 -222 186z" />
    <glyph glyph-name="Scedilla" unicode="&#x15e;" horiz-adv-x="576" 
d="M63 186h88c-10 -91 63 -98 134 -98c90 0 159 22 159 105c0 184 -372 60 -372 308c0 141 63 199 213 199c126 0 226 -49 216 -188h-89c10 91 -58 105 -124 105c-79 0 -127 -28 -127 -116c0 -158 372 -43 372 -308c0 -124 -80 -193 -248 -193c-110 0 -232 33 -222 186z
M292 -37h66l-52 -156h-85z" />
    <glyph glyph-name="Scommaaccent" unicode="&#x218;" horiz-adv-x="576" 
d="M63 186h88c-10 -91 63 -98 134 -98c90 0 159 22 159 105c0 184 -372 60 -372 308c0 141 63 199 213 199c126 0 226 -49 216 -188h-89c10 91 -58 105 -124 105c-79 0 -127 -28 -127 -116c0 -158 372 -43 372 -308c0 -124 -80 -193 -248 -193c-110 0 -232 33 -222 186z
M370 -207c1 -69 -54 -124 -127 -125v82c30 0 48 17 48 42c0 26 -18 42 -49 42v83c73 0 128 -55 128 -124z" />
    <glyph glyph-name="T" unicode="T" horiz-adv-x="593" 
d="M252 0v611h-202v89h493v-89h-202v-611h-89z" />
    <glyph glyph-name="Tbar" unicode="&#x166;" horiz-adv-x="593" 
d="M543 611h-202v-230h155v-78h-155v-303h-89v303h-152v78h152v230h-202v89h493v-89z" />
    <glyph glyph-name="Tcaron" unicode="&#x164;" horiz-adv-x="593" 
d="M155 823l46 63l96 -66l95 66l46 -63l-122 -73h-39zM252 0v611h-202v89h493v-89h-202v-611h-89z" />
    <glyph glyph-name="uni0162" unicode="&#x162;" horiz-adv-x="593" 
d="M252 0v611h-202v89h493v-89h-202v-611h-89zM263 -44h66l-52 -156h-85z" />
    <glyph glyph-name="uni021A" unicode="&#x21a;" horiz-adv-x="593" 
d="M252 0v611h-202v89h493v-89h-202v-611h-89zM370 -207c1 -69 -54 -124 -127 -125v82c30 0 48 17 48 42c0 26 -18 42 -49 42v83c73 0 128 -55 128 -124z" />
    <glyph glyph-name="U" unicode="U" 
d="M247 0c-109 0 -197 88 -197 197l1 503h89l-1 -503c0 -59 49 -108 108 -108h106c66 0 108 49 108 108v503h89v-504c0 -108 -65 -196 -197 -196h-106z" />
    <glyph glyph-name="Uacute" unicode="&#xda;" 
d="M331 757h-67l52 156h86zM247 0c-109 0 -197 88 -197 197l1 503h89l-1 -503c0 -59 49 -108 108 -108h106c66 0 108 49 108 108v503h89v-504c0 -108 -65 -196 -197 -196h-106z" />
    <glyph glyph-name="Ucircumflex" unicode="&#xdb;" 
d="M159 816l122 73h39l122 -73l-46 -63l-95 66l-96 -66zM247 0c-109 0 -197 88 -197 197l1 503h89l-1 -503c0 -59 49 -108 108 -108h106c66 0 108 49 108 108v503h89v-504c0 -108 -65 -196 -197 -196h-106z" />
    <glyph glyph-name="Udieresis" unicode="&#xdc;" 
d="M202 750c-38 0 -68 24 -68 61c0 39 30 61 68 61c37 0 69 -22 69 -61c0 -37 -32 -61 -69 -61zM398 750c-39 0 -69 24 -69 61c0 39 30 61 69 61c36 0 68 -22 68 -61c0 -37 -32 -61 -68 -61zM247 0c-109 0 -197 88 -197 197l1 503h89l-1 -503c0 -59 49 -108 108 -108h106
c66 0 108 49 108 108v503h89v-504c0 -108 -65 -196 -197 -196h-106z" />
    <glyph glyph-name="Ugrave" unicode="&#xd9;" 
d="M276 757l-71 156h86l52 -156h-67zM247 0c-109 0 -197 88 -197 197l1 503h89l-1 -503c0 -59 49 -108 108 -108h106c66 0 108 49 108 108v503h89v-504c0 -108 -65 -196 -197 -196h-106z" />
    <glyph glyph-name="Uhungarumlaut" unicode="&#x170;" 
d="M319 757h-67l52 156h86zM441 757h-67l52 156h86zM247 0c-109 0 -197 88 -197 197l1 503h89l-1 -503c0 -59 49 -108 108 -108h106c66 0 108 49 108 108v503h89v-504c0 -108 -65 -196 -197 -196h-106z" />
    <glyph glyph-name="Umacron" unicode="&#x16a;" 
d="M165 828h269v-78h-269v78zM247 0c-109 0 -197 88 -197 197l1 503h89l-1 -503c0 -59 49 -108 108 -108h106c66 0 108 49 108 108v503h89v-504c0 -108 -65 -196 -197 -196h-106z" />
    <glyph glyph-name="Uogonek" unicode="&#x172;" 
d="M247 0c-109 0 -197 88 -197 197l1 503h89l-1 -503c0 -59 49 -108 108 -108h106c66 0 108 49 108 108v503h89v-504c0 -108 -65 -196 -197 -196h-106zM325 -44l71 -156h-85l-52 156h66z" />
    <glyph glyph-name="Uring" unicode="&#x16e;" 
d="M300 731c-63 0 -112 50 -112 113c0 62 49 112 112 112s113 -50 113 -112c0 -63 -50 -113 -113 -113zM300 802c24 0 41 19 41 42s-17 40 -41 40s-41 -17 -41 -40s17 -42 41 -42zM247 0c-109 0 -197 88 -197 197l1 503h89l-1 -503c0 -59 49 -108 108 -108h106
c66 0 108 49 108 108v503h89v-504c0 -108 -65 -196 -197 -196h-106z" />
    <glyph glyph-name="V" unicode="V" horiz-adv-x="607" 
d="M272 0l-237 700h95l173 -526l174 526h94l-236 -700h-63z" />
    <glyph glyph-name="W" unicode="W" horiz-adv-x="700" 
d="M50 700h89v-512l174 261h76l172 -261v512h89v-700h-66l-234 343l-233 -343h-67v700z" />
    <glyph glyph-name="Wacute" unicode="&#x1e82;" horiz-adv-x="700" 
d="M390 757h-67l52 156h86zM50 700h89v-512l174 261h76l172 -261v512h89v-700h-66l-234 343l-233 -343h-67v700z" />
    <glyph glyph-name="Wcircumflex" unicode="&#x174;" horiz-adv-x="700" 
d="M209 816l122 73h39l122 -73l-46 -63l-95 66l-96 -66zM50 700h89v-512l174 261h76l172 -261v512h89v-700h-66l-234 343l-233 -343h-67v700z" />
    <glyph glyph-name="Wdieresis" unicode="&#x1e84;" horiz-adv-x="700" 
d="M252 750c-38 0 -68 24 -68 61c0 39 30 61 68 61c37 0 69 -22 69 -61c0 -37 -32 -61 -69 -61zM448 750c-39 0 -69 24 -69 61c0 39 30 61 69 61c36 0 68 -22 68 -61c0 -37 -32 -61 -68 -61zM50 700h89v-512l174 261h76l172 -261v512h89v-700h-66l-234 343l-233 -343h-67
v700z" />
    <glyph glyph-name="Wgrave" unicode="&#x1e80;" horiz-adv-x="700" 
d="M314 757l-71 156h86l52 -156h-67zM50 700h89v-512l174 261h76l172 -261v512h89v-700h-66l-234 343l-233 -343h-67v700z" />
    <glyph glyph-name="X" unicode="X" horiz-adv-x="678" 
d="M50 0l232 350l-232 350h107l183 -278l181 278h107l-232 -350l232 -350h-107l-181 278l-183 -278h-107z" />
    <glyph glyph-name="Y" unicode="Y" horiz-adv-x="643" 
d="M277 0l-1 335l-245 365h107l183 -271l183 271h108l-247 -365l1 -335h-89z" />
    <glyph glyph-name="Yacute" unicode="&#xdd;" horiz-adv-x="681" 
d="M377 757h-67l52 156h86zM277 0l-1 335l-245 365h107l183 -271l183 271h108l-247 -365l1 -335h-89z" />
    <glyph glyph-name="Ycircumflex" unicode="&#x176;" horiz-adv-x="681" 
d="M199 816l122 73h39l122 -73l-46 -63l-95 66l-96 -66zM277 0l-1 335l-245 365h107l183 -271l183 271h108l-247 -365l1 -335h-89z" />
    <glyph glyph-name="Ydieresis" unicode="&#x178;" horiz-adv-x="681" 
d="M243 750c-38 0 -68 24 -68 61c0 39 30 61 68 61c37 0 69 -22 69 -61c0 -37 -32 -61 -69 -61zM439 750c-39 0 -69 24 -69 61c0 39 30 61 69 61c36 0 68 -22 68 -61c0 -37 -32 -61 -68 -61zM277 0l-1 335l-245 365h107l183 -271l183 271h108l-247 -365l1 -335h-89z" />
    <glyph glyph-name="Ygrave" unicode="&#x1ef2;" horiz-adv-x="681" 
d="M311 757l-71 156h86l52 -156h-67zM277 0l-1 335l-245 365h107l183 -271l183 271h108l-247 -365l1 -335h-89z" />
    <glyph glyph-name="Z" unicode="Z" horiz-adv-x="630" 
d="M50 0v72l405 539h-405v89h530v-72l-404 -539h404v-89h-530z" />
    <glyph glyph-name="Zacute" unicode="&#x179;" horiz-adv-x="630" 
d="M331 757h-67l52 156h86zM50 0v72l405 539h-405v89h530v-72l-404 -539h404v-89h-530z" />
    <glyph glyph-name="Zcaron" unicode="&#x17d;" horiz-adv-x="630" 
d="M174 823l46 63l96 -66l95 66l46 -63l-122 -73h-39zM50 0v72l405 539h-405v89h530v-72l-404 -539h404v-89h-530z" />
    <glyph glyph-name="Zdotaccent" unicode="&#x17b;" horiz-adv-x="630" 
d="M315 750c-38 0 -68 24 -68 61c0 39 30 61 68 61c37 0 68 -22 68 -61c0 -37 -31 -61 -68 -61zM50 0v72l405 539h-405v89h530v-72l-404 -539h404v-89h-530z" />
    <glyph glyph-name="S.001" horiz-adv-x="576" 
d="M50 186h89c-10 -91 56 -98 146 -98c103 0 172 22 172 105c0 178 -398 60 -398 308c0 141 70 199 226 199c145 0 238 -49 228 -188h-88c10 91 -68 99 -140 99c-92 0 -137 -26 -137 -110c0 -155 398 -43 398 -308c0 -124 -81 -193 -261 -193c-129 0 -245 33 -235 186z" />
    <glyph glyph-name="a" unicode="a" horiz-adv-x="635" 
d="M106 0h-96l278 700h60l277 -700h-95l-63 160h-300zM195 249h245l-123 313z" />
    <glyph glyph-name="aacute" unicode="&#xe1;" horiz-adv-x="635" 
d="M359 750h-67l52 156h86zM106 0h-96l278 700h60l277 -700h-95l-63 160h-300zM195 249h245l-123 313z" />
    <glyph glyph-name="abreve" unicode="&#x103;" horiz-adv-x="635" 
d="M318 750c-73 0 -132 59 -132 132h82c0 -31 21 -53 50 -53s49 22 49 53h82c0 -73 -59 -132 -131 -132zM106 0h-96l278 700h60l277 -700h-95l-63 160h-300zM195 249h245l-123 313z" />
    <glyph glyph-name="acircumflex" unicode="&#xe2;" horiz-adv-x="635" 
d="M176 816l122 73h39l122 -73l-46 -63l-95 66l-96 -66zM106 0h-96l278 700h60l277 -700h-95l-63 160h-300zM195 249h245l-123 313z" />
    <glyph glyph-name="adieresis" unicode="&#xe4;" horiz-adv-x="635" 
d="M220 750c-38 0 -68 24 -68 61c0 39 30 61 68 61c37 0 69 -22 69 -61c0 -37 -32 -61 -69 -61zM416 750c-39 0 -69 24 -69 61c0 39 30 61 69 61c36 0 68 -22 68 -61c0 -37 -32 -61 -68 -61zM106 0h-96l278 700h60l277 -700h-95l-63 160h-300zM195 249h245l-123 313z" />
    <glyph glyph-name="agrave" unicode="&#xe0;" horiz-adv-x="635" 
d="M283 757l-71 156h86l52 -156h-67zM106 0h-96l278 700h60l277 -700h-95l-63 160h-300zM195 249h245l-123 313z" />
    <glyph glyph-name="amacron" unicode="&#x101;" horiz-adv-x="635" 
d="M181 828h269v-78h-269v78zM106 0h-96l278 700h60l277 -700h-95l-63 160h-300zM195 249h245l-123 313z" />
    <glyph glyph-name="aogonek" unicode="&#x105;" horiz-adv-x="635" 
d="M106 0h-96l278 700h60l277 -700h-95l-63 160h-300zM195 249h245l-123 313zM344 -44l71 -156h-85l-52 156h66z" />
    <glyph glyph-name="aring" unicode="&#xe5;" horiz-adv-x="635" 
d="M317 761c-63 0 -112 50 -112 113c0 62 49 112 112 112s113 -50 113 -112c0 -63 -50 -113 -113 -113zM317 832c24 0 41 19 41 42s-17 40 -41 40s-41 -17 -41 -40s17 -42 41 -42zM106 0h-96l278 700h60l277 -700h-95l-63 160h-300zM195 249h245l-123 313z" />
    <glyph glyph-name="atilde" unicode="&#xe3;" horiz-adv-x="635" 
d="M143 768c0 74 45 125 111 125c62 0 81 -51 128 -51c29 0 38 29 38 51h73c0 -72 -38 -124 -97 -124c-62 0 -79 50 -131 50c-36 0 -49 -25 -49 -51h-73zM106 0h-96l278 700h60l277 -700h-95l-63 160h-300zM195 249h245l-123 313z" />
    <glyph glyph-name="ae" unicode="&#xe6;" horiz-adv-x="916" 
d="M50 0l278 700h538v-89h-366v-216h265v-90h-265v-216h366v-89h-456v160h-203l-61 -160h-96zM235 249h175v362h-33z" />
    <glyph glyph-name="b" unicode="b" 
d="M50 0l-1 700h267c176 0 261 -213 140 -334c166 -113 97 -366 -101 -366h-305zM139 394h177c139 0 146 217 0 217h-177v-217zM139 89h216c139 0 145 217 0 217h-216v-217z" />
    <glyph glyph-name="c" unicode="c" 
d="M247 0c-110 0 -197 91 -197 197v306c0 108 88 197 197 197h106c110 0 197 -91 197 -197h-89c0 59 -49 108 -108 108h-106c-59 0 -108 -49 -108 -108v-306c0 -59 49 -108 108 -108h106c59 0 108 49 108 108h89c0 -108 -88 -197 -197 -197h-106z" />
    <glyph glyph-name="cacute" unicode="&#x107;" 
d="M331 757h-67l52 156h86zM247 0c-110 0 -197 91 -197 197v306c0 108 88 197 197 197h106c110 0 197 -91 197 -197h-89c0 59 -49 108 -108 108h-106c-59 0 -108 -49 -108 -108v-306c0 -59 49 -108 108 -108h106c59 0 108 49 108 108h89c0 -108 -88 -197 -197 -197h-106z
" />
    <glyph glyph-name="ccaron" unicode="&#x10d;" 
d="M158 823l46 63l96 -66l95 66l46 -63l-122 -73h-39zM247 0c-110 0 -197 91 -197 197v306c0 108 88 197 197 197h106c110 0 197 -91 197 -197h-89c0 59 -49 108 -108 108h-106c-59 0 -108 -49 -108 -108v-306c0 -59 49 -108 108 -108h106c59 0 108 49 108 108h89
c0 -108 -88 -197 -197 -197h-106z" />
    <glyph glyph-name="ccedilla" unicode="&#xe7;" 
d="M247 0c-110 0 -197 91 -197 197v306c0 108 88 197 197 197h106c110 0 197 -91 197 -197h-89c0 59 -49 108 -108 108h-106c-59 0 -108 -49 -108 -108v-306c0 -59 49 -108 108 -108h106c59 0 108 49 108 108h89c0 -108 -88 -197 -197 -197h-106zM285 -43h66l-52 -156h-85z
" />
    <glyph glyph-name="cdotaccent" unicode="&#x10b;" 
d="M300 750c-38 0 -68 24 -68 61c0 39 30 61 68 61c37 0 68 -22 68 -61c0 -37 -31 -61 -68 -61zM247 0c-110 0 -197 91 -197 197v306c0 108 88 197 197 197h106c110 0 197 -91 197 -197h-89c0 59 -49 108 -108 108h-106c-59 0 -108 -49 -108 -108v-306
c0 -59 49 -108 108 -108h106c59 0 108 49 108 108h89c0 -108 -88 -197 -197 -197h-106z" />
    <glyph glyph-name="d" unicode="d" 
d="M50 0v700h303c108 0 195 -87 197 -195v-310c-2 -108 -89 -195 -197 -195h-303zM139 89h214c59 0 108 49 108 108v306c0 59 -49 108 -108 108h-214v-522z" />
    <glyph glyph-name="eth" unicode="&#xf0;" horiz-adv-x="716" 
d="M469 700c108 0 195 -87 197 -195v-310c-2 -108 -89 -195 -197 -195h-303v311h-118v78h118v311h303zM577 197v306c0 59 -49 108 -108 108h-214v-222h120v-78h-120v-222h214c59 0 108 49 108 108z" />
    <glyph glyph-name="dcaron" unicode="&#x10f;" 
d="M159 823l46 63l96 -66l95 66l46 -63l-122 -73h-39zM50 0v700h303c108 0 195 -87 197 -195v-310c-2 -108 -89 -195 -197 -195h-303zM139 89h214c59 0 108 49 108 108v306c0 59 -49 108 -108 108h-214v-522z" />
    <glyph glyph-name="dcroat" unicode="&#x111;" 
d="M353 700c108 0 195 -87 197 -195v-310c-2 -108 -89 -195 -197 -195h-303v311h-172v78h172v311h303zM461 197v306c0 59 -49 108 -108 108h-214v-222h187v-78h-187v-222h214c59 0 108 49 108 108z" />
    <glyph glyph-name="e" unicode="e" horiz-adv-x="555" 
d="M49 0l1 700h468v-89h-379v-216h278v-90h-278v-216h379v-89h-469z" />
    <glyph glyph-name="eacute" unicode="&#xe9;" horiz-adv-x="555" 
d="M331 757h-67l52 156h86zM49 0l1 700h468v-89h-379v-216h278v-90h-278v-216h379v-89h-469z" />
    <glyph glyph-name="ecaron" unicode="&#x11b;" 
d="M158 823l46 63l96 -66l95 66l46 -63l-122 -73h-39zM49 0l1 700h468v-89h-379v-216h278v-90h-278v-216h379v-89h-469z" />
    <glyph glyph-name="ecircumflex" unicode="&#xea;" horiz-adv-x="555" 
d="M136 816l122 73h39l122 -73l-46 -63l-95 66l-96 -66zM49 0l1 700h468v-89h-379v-216h278v-90h-278v-216h379v-89h-469z" />
    <glyph glyph-name="edieresis" unicode="&#xeb;" horiz-adv-x="555" 
d="M179 750c-38 0 -68 24 -68 61c0 39 30 61 68 61c37 0 69 -22 69 -61c0 -37 -32 -61 -69 -61zM375 750c-39 0 -69 24 -69 61c0 39 30 61 69 61c36 0 68 -22 68 -61c0 -37 -32 -61 -68 -61zM49 0l1 700h468v-89h-379v-216h278v-90h-278v-216h379v-89h-469z" />
    <glyph glyph-name="edotaccent" unicode="&#x117;" 
d="M300 750c-38 0 -68 24 -68 61c0 39 30 61 68 61c37 0 68 -22 68 -61c0 -37 -31 -61 -68 -61zM49 0l1 700h468v-89h-379v-216h278v-90h-278v-216h379v-89h-469z" />
    <glyph glyph-name="egrave" unicode="&#xe8;" horiz-adv-x="555" 
d="M276 757l-71 156h86l52 -156h-67zM49 0l1 700h468v-89h-379v-216h278v-90h-278v-216h379v-89h-469z" />
    <glyph glyph-name="emacron" unicode="&#x113;" 
d="M165 828h269v-78h-269v78zM49 0l1 700h468v-89h-379v-216h278v-90h-278v-216h379v-89h-469z" />
    <glyph glyph-name="eogonek" unicode="&#x119;" 
d="M49 0l1 700h468v-89h-379v-216h278v-90h-278v-216h379v-89h-469zM344 -44l71 -156h-85l-52 156h66z" />
    <glyph glyph-name="f" unicode="f" horiz-adv-x="555" 
d="M50 0v700h455v-89h-366v-216h266v-90h-266v-305h-89z" />
    <glyph glyph-name="g" unicode="g" 
d="M247 0c-110 0 -197 91 -197 197v306c0 108 88 197 197 197h106c110 0 197 -71 197 -177h-89c0 59 -49 88 -108 88h-106c-59 0 -108 -49 -108 -108v-306c0 -59 49 -108 108 -108h106c59 0 108 49 108 108v68h-143v90h232v-158c0 -108 -88 -197 -197 -197h-106z" />
    <glyph glyph-name="gbreve" unicode="&#x11f;" 
d="M304 750c-73 0 -132 59 -132 132h82c0 -31 21 -53 50 -53s49 22 49 53h82c0 -73 -59 -132 -131 -132zM247 0c-110 0 -197 91 -197 197v306c0 108 88 197 197 197h106c110 0 197 -71 197 -177h-89c0 59 -49 88 -108 88h-106c-59 0 -108 -49 -108 -108v-306
c0 -59 49 -108 108 -108h106c59 0 108 49 108 108v68h-143v90h232v-158c0 -108 -88 -197 -197 -197h-106z" />
    <glyph glyph-name="gcommaaccent" unicode="&#x123;" 
d="M300 750c-38 0 -68 24 -68 61c-2 40 4 78 20 103c28 39 65 47 102 47v-42c-42 0 -57 -23 -62 -47h8c37 0 68 -22 68 -61c0 -37 -31 -61 -68 -61zM318 265v90h232v-158c0 -108 -88 -197 -197 -197h-106c-110 0 -197 91 -197 197v306c0 108 88 197 197 197h106
c110 0 197 -71 197 -177h-89c0 59 -49 88 -108 88h-106c-59 0 -108 -49 -108 -108v-306c0 -59 49 -108 108 -108h106c59 0 108 49 108 108v68h-143z" />
    <glyph glyph-name="gdotaccent" unicode="&#x121;" 
d="M300 750c-38 0 -68 24 -68 61c0 39 30 61 68 61c37 0 68 -22 68 -61c0 -37 -31 -61 -68 -61zM247 0c-110 0 -197 91 -197 197v306c0 108 88 197 197 197h106c110 0 197 -71 197 -177h-89c0 59 -49 88 -108 88h-106c-59 0 -108 -49 -108 -108v-306c0 -59 49 -108 108 -108
h106c59 0 108 49 108 108v68h-143v90h232v-158c0 -108 -88 -197 -197 -197h-106z" />
    <glyph glyph-name="h" unicode="h" 
d="M50 0v700h89v-305h322v305h89v-700h-89v305h-322v-305h-89z" />
    <glyph glyph-name="hbar" unicode="&#x127;" horiz-adv-x="650" 
d="M654 588v-84h-78v-504h-89v305h-322v-305h-89v504h-81v84h81v112h89v-112h322v112h89v-112h78zM487 395v109h-322v-109h322z" />
    <glyph glyph-name="i" unicode="i" horiz-adv-x="236" 
d="M75 0v700h86v-700h-86z" />
    <glyph glyph-name="dotlessi" unicode="&#x131;" horiz-adv-x="236" 
d="M75 0v700h86v-700h-86z" />
    <glyph glyph-name="iacute" unicode="&#xed;" horiz-adv-x="186" 
d="M155 757h-67l52 156h86zM75 0v700h86v-700h-86z" />
    <glyph glyph-name="icircumflex" unicode="&#xee;" horiz-adv-x="211" 
d="M-25 816l122 73h39l122 -73l-46 -63l-95 66l-96 -66zM75 0v700h86v-700h-86z" />
    <glyph glyph-name="idieresis" unicode="&#xef;" horiz-adv-x="232" 
d="M23 750c-38 0 -68 24 -68 61c0 39 30 61 68 61c37 0 69 -22 69 -61c0 -37 -32 -61 -69 -61zM219 750c-39 0 -69 24 -69 61c0 39 30 61 69 61c36 0 68 -22 68 -61c0 -37 -32 -61 -68 -61zM75 0v700h86v-700h-86z" />
    <glyph glyph-name="i.loclTRK" horiz-adv-x="237" 
d="M119 750c-38 0 -68 24 -68 61c0 39 30 61 68 61c37 0 68 -22 68 -61c0 -37 -31 -61 -68 -61zM75 0v700h86v-700h-86z" />
    <glyph glyph-name="igrave" unicode="&#xec;" horiz-adv-x="238" 
d="M81 757l-71 156h86l52 -156h-67zM75 0v700h86v-700h-86z" />
    <glyph glyph-name="imacron" unicode="&#x12b;" horiz-adv-x="230" 
d="M-20 828h269v-78h-269v78zM75 0v700h86v-700h-86z" />
    <glyph glyph-name="iogonek" unicode="&#x12f;" horiz-adv-x="202" 
d="M66 0v700h86v-700h-86zM133 -35l56 -123h-67l-41 123h52z" />
    <glyph glyph-name="j" unicode="j" 
d="M247 0c-109 0 -197 89 -197 197h89c0 -59 49 -108 108 -108h106c59 0 108 49 108 108v503h89v-503c0 -106 -87 -197 -197 -197h-106z" />
    <glyph glyph-name="k" unicode="k" horiz-adv-x="669" 
d="M503 0l-280 340l-84 -81v-259h-89v700h89v-332l351 332h123l-318 -303l324 -397h-116z" />
    <glyph glyph-name="kcommaaccent" unicode="&#x137;" 
d="M503 0l-280 340l-84 -81v-259h-89v700h89v-332l351 332h123l-318 -303l324 -397h-116zM370 -207c1 -69 -54 -124 -127 -125v82c30 0 48 17 48 42c0 26 -18 42 -49 42v83c73 0 128 -55 128 -124z" />
    <glyph glyph-name="l" unicode="l" horiz-adv-x="529" 
d="M50 0v700h89v-611h340v-89h-429z" />
    <glyph glyph-name="lacute" unicode="&#x13a;" horiz-adv-x="520" 
d="M129 757h-67l52 156h86zM50 0v700h89v-611h340v-89h-429z" />
    <glyph glyph-name="lcaron" unicode="&#x13e;" horiz-adv-x="520" 
d="M409 598c1 -69 -54 -124 -127 -125v82c30 0 48 17 48 42c0 26 -18 42 -49 42v83c73 0 128 -55 128 -124zM50 0v700h89v-611h340v-89h-429z" />
    <glyph glyph-name="lcommaaccent" unicode="&#x13c;" 
d="M50 0v700h89v-611h340v-89h-429zM370 -207c1 -69 -54 -124 -127 -125v82c30 0 48 17 48 42c0 26 -18 42 -49 42v83c73 0 128 -55 128 -124z" />
    <glyph glyph-name="lslash" unicode="&#x142;" horiz-adv-x="529" 
d="M139 89h340v-89h-429v306l-118 -83l-45 64l163 114v299h89v-237l115 81l45 -64l-160 -112v-279z" />
    <glyph glyph-name="m" unicode="m" horiz-adv-x="700" 
d="M50 0v700h68l232 -341l233 341h67v-700h-89v512l-173 -259h-74l-175 260v-513h-89z" />
    <glyph glyph-name="n" unicode="n" 
d="M50 0v700h68l342 -505l1 505h89v-700h-70l-341 504v-504h-89z" />
    <glyph glyph-name="nacute" unicode="&#x144;" 
d="M331 757h-67l52 156h86zM50 0v700h68l342 -505l1 505h89v-700h-70l-341 504v-504h-89z" />
    <glyph glyph-name="ncaron" unicode="&#x148;" 
d="M158 823l46 63l96 -66l95 66l46 -63l-122 -73h-39zM50 0v700h68l342 -505l1 505h89v-700h-70l-341 504v-504h-89z" />
    <glyph glyph-name="ncommaaccent" unicode="&#x146;" 
d="M50 0v700h68l342 -505l1 505h89v-700h-70l-341 504v-504h-89zM370 -207c1 -69 -54 -124 -127 -125v82c30 0 48 17 48 42c0 26 -18 42 -49 42v83c73 0 128 -55 128 -124z" />
    <glyph glyph-name="eng" unicode="&#x14b;" 
d="M461 700h89v-767c0 -106 -87 -197 -197 -197c-117 0 -203 89 -203 197h89c0 -62 49 -108 114 -108c59 0 108 48 108 108v95l-322 476v-504h-89v700h68l342 -505z" />
    <glyph glyph-name="ntilde" unicode="&#xf1;" 
d="M126 761c0 74 45 125 111 125c62 0 81 -51 128 -51c29 0 38 29 38 51h73c0 -72 -38 -124 -97 -124c-62 0 -79 50 -131 50c-36 0 -49 -25 -49 -51h-73zM50 0v700h68l342 -505l1 505h89v-700h-70l-341 504v-504h-89z" />
    <glyph glyph-name="o" unicode="o" 
d="M247 0c-109 0 -197 88 -197 197l1 306c0 109 86 197 196 197h106c107 0 194 -86 197 -194v-310c-1 -109 -88 -196 -197 -196h-106zM247 89h106c60 0 109 48 109 108v304c0 61 -50 110 -109 110h-106c-59 0 -108 -48 -108 -108v-306c0 -60 48 -108 108 -108z" />
    <glyph glyph-name="oacute" unicode="&#xf3;" 
d="M331 757h-67l52 156h86zM247 0c-109 0 -197 88 -197 197l1 306c0 109 86 197 196 197h106c107 0 194 -86 197 -194v-310c-1 -109 -88 -196 -197 -196h-106zM247 89h106c60 0 109 48 109 108v304c0 61 -50 110 -109 110h-106c-59 0 -108 -48 -108 -108v-306
c0 -60 48 -108 108 -108z" />
    <glyph glyph-name="ocircumflex" unicode="&#xf4;" 
d="M159 816l122 73h39l122 -73l-46 -63l-95 66l-96 -66zM247 0c-109 0 -197 88 -197 197l1 306c0 109 86 197 196 197h106c107 0 194 -86 197 -194v-310c-1 -109 -88 -196 -197 -196h-106zM247 89h106c60 0 109 48 109 108v304c0 61 -50 110 -109 110h-106
c-59 0 -108 -48 -108 -108v-306c0 -60 48 -108 108 -108z" />
    <glyph glyph-name="odieresis" unicode="&#xf6;" 
d="M202 750c-38 0 -68 24 -68 61c0 39 30 61 68 61c37 0 69 -22 69 -61c0 -37 -32 -61 -69 -61zM398 750c-39 0 -69 24 -69 61c0 39 30 61 69 61c36 0 68 -22 68 -61c0 -37 -32 -61 -68 -61zM247 0c-109 0 -197 88 -197 197l1 306c0 109 86 197 196 197h106
c107 0 194 -86 197 -194v-310c-1 -109 -88 -196 -197 -196h-106zM247 89h106c60 0 109 48 109 108v304c0 61 -50 110 -109 110h-106c-59 0 -108 -48 -108 -108v-306c0 -60 48 -108 108 -108z" />
    <glyph glyph-name="ograve" unicode="&#xf2;" 
d="M276 757l-71 156h86l52 -156h-67zM247 0c-109 0 -197 88 -197 197l1 306c0 109 86 197 196 197h106c107 0 194 -86 197 -194v-310c-1 -109 -88 -196 -197 -196h-106zM247 89h106c60 0 109 48 109 108v304c0 61 -50 110 -109 110h-106c-59 0 -108 -48 -108 -108v-306
c0 -60 48 -108 108 -108z" />
    <glyph glyph-name="ohungarumlaut" unicode="&#x151;" 
d="M275 757h-67l52 156h86zM397 757h-67l52 156h86zM247 0c-109 0 -197 88 -197 197l1 306c0 109 86 197 196 197h106c107 0 194 -86 197 -194v-310c-1 -109 -88 -196 -197 -196h-106zM247 89h106c60 0 109 48 109 108v304c0 61 -50 110 -109 110h-106
c-59 0 -108 -48 -108 -108v-306c0 -60 48 -108 108 -108z" />
    <glyph glyph-name="omacron" unicode="&#x14d;" 
d="M165 828h269v-78h-269v78zM247 0c-109 0 -197 88 -197 197l1 306c0 109 86 197 196 197h106c107 0 194 -86 197 -194v-310c-1 -109 -88 -196 -197 -196h-106zM247 89h106c60 0 109 48 109 108v304c0 61 -50 110 -109 110h-106c-59 0 -108 -48 -108 -108v-306
c0 -60 48 -108 108 -108z" />
    <glyph glyph-name="oslash" unicode="&#xf8;" 
d="M625 724l-101 -125c16 -27 25 -59 26 -93v-310c-1 -109 -88 -196 -197 -196h-106c-60 0 -114 27 -151 70l-64 -80h-79l110 136c-8 22 -13 46 -13 71l1 306c0 109 86 197 196 197h106c51 0 97 -19 132 -51l61 75h79zM139 503v-283l290 359c-20 20 -47 32 -76 32h-106
c-59 0 -108 -48 -108 -108zM462 501c0 7 -1 13 -2 19l-306 -379c19 -31 53 -52 93 -52h106c60 0 109 48 109 108v304z" />
    <glyph glyph-name="otilde" unicode="&#xf5;" 
d="M126 761c0 74 45 125 111 125c62 0 81 -51 128 -51c29 0 38 29 38 51h73c0 -72 -38 -124 -97 -124c-62 0 -79 50 -131 50c-36 0 -49 -25 -49 -51h-73zM247 0c-109 0 -197 88 -197 197l1 306c0 109 86 197 196 197h106c107 0 194 -86 197 -194v-310
c-1 -109 -88 -196 -197 -196h-106zM247 89h106c60 0 109 48 109 108v304c0 61 -50 110 -109 110h-106c-59 0 -108 -48 -108 -108v-306c0 -60 48 -108 108 -108z" />
    <glyph glyph-name="oe" unicode="&#x153;" horiz-adv-x="856" 
d="M247 0c-109 0 -197 88 -197 197l1 306c0 109 86 197 196 197h559v-89h-366v-216h266v-90h-266v-216h366v-89h-559zM247 89h103l1 522h-104c-59 0 -108 -48 -108 -108v-306c0 -60 48 -108 108 -108z" />
    <glyph glyph-name="p" unicode="p" 
d="M50 0v700h306c259 0 258 -435 0 -435h-217v-265h-89zM139 355h217c139 0 147 256 0 256h-217v-256z" />
    <glyph glyph-name="thorn" unicode="&#xfe;" 
d="M356 548c259 0 258 -395 0 -395h-217v-153h-89v700h89v-152h217zM356 242c139 0 147 217 0 217h-217v-217h217z" />
    <glyph glyph-name="q" unicode="q" 
d="M585 37l-67 -67l-60 60c-30 -19 -66 -30 -105 -30h-106c-109 0 -197 88 -197 197l1 306c0 109 86 197 196 197h106c107 0 194 -86 197 -194v-310c0 -36 -10 -69 -26 -98zM353 89c14 0 27 3 39 7l-70 71l66 67l69 -69c3 10 5 21 5 32v304c0 61 -50 110 -109 110h-106
c-59 0 -108 -48 -108 -108v-306c0 -60 48 -108 108 -108h106z" />
    <glyph glyph-name="r" unicode="r" horiz-adv-x="604" 
d="M50 0v700h301c275 0 268 -418 28 -431l188 -269h-103l-179 265h-146v-265h-89zM139 355h199c167 0 159 256 13 256h-212v-256z" />
    <glyph glyph-name="racute" unicode="&#x155;" 
d="M331 757h-67l52 156h86zM50 0v700h301c275 0 268 -418 28 -431l188 -269h-103l-179 265h-146v-265h-89zM139 355h199c167 0 159 256 13 256h-212v-256z" />
    <glyph glyph-name="rcaron" unicode="&#x159;" 
d="M158 823l46 63l96 -66l95 66l46 -63l-122 -73h-39zM50 0v700h301c275 0 268 -418 28 -431l188 -269h-103l-179 265h-146v-265h-89zM139 355h199c167 0 159 256 13 256h-212v-256z" />
    <glyph glyph-name="rcommaaccent" unicode="&#x157;" 
d="M50 0v700h301c275 0 268 -418 28 -431l188 -269h-103l-179 265h-146v-265h-89zM139 355h199c167 0 159 256 13 256h-212v-256zM370 -183c1 -69 -54 -124 -127 -125v82c30 0 48 17 48 42c0 26 -18 42 -49 42v83c73 0 128 -55 128 -124z" />
    <glyph glyph-name="s" unicode="s" horiz-adv-x="576" 
d="M63 186h88c-10 -91 63 -98 134 -98c90 0 159 22 159 105c0 184 -372 60 -372 308c0 141 63 199 213 199c126 0 226 -49 216 -188h-89c10 91 -58 105 -124 105c-79 0 -127 -28 -127 -116c0 -158 372 -43 372 -308c0 -124 -80 -193 -248 -193c-110 0 -232 33 -222 186z" />
    <glyph glyph-name="sacute" unicode="&#x15b;" 
d="M331 757h-67l52 156h86zM63 186h88c-10 -91 63 -98 134 -98c90 0 159 22 159 105c0 184 -372 60 -372 308c0 141 63 199 213 199c126 0 226 -49 216 -188h-89c10 91 -58 105 -124 105c-79 0 -127 -28 -127 -116c0 -158 372 -43 372 -308c0 -124 -80 -193 -248 -193
c-110 0 -232 33 -222 186z" />
    <glyph glyph-name="scaron" unicode="&#x161;" 
d="M150 823l46 63l96 -66l95 66l46 -63l-122 -73h-39zM63 186h88c-10 -91 63 -98 134 -98c90 0 159 22 159 105c0 184 -372 60 -372 308c0 141 63 199 213 199c126 0 226 -49 216 -188h-89c10 91 -58 105 -124 105c-79 0 -127 -28 -127 -116c0 -158 372 -43 372 -308
c0 -124 -80 -193 -248 -193c-110 0 -232 33 -222 186z" />
    <glyph glyph-name="scedilla" unicode="&#x15f;" 
d="M63 186h88c-10 -91 63 -98 134 -98c90 0 159 22 159 105c0 184 -372 60 -372 308c0 141 63 199 213 199c126 0 226 -49 216 -188h-89c10 91 -58 105 -124 105c-79 0 -127 -28 -127 -116c0 -158 372 -43 372 -308c0 -124 -80 -193 -248 -193c-110 0 -232 33 -222 186z
M274 -44h66l-52 -156h-85z" />
    <glyph glyph-name="scommaaccent" unicode="&#x219;" 
d="M63 186h88c-10 -91 63 -98 134 -98c90 0 159 22 159 105c0 184 -372 60 -372 308c0 141 63 199 213 199c126 0 226 -49 216 -188h-89c10 91 -58 105 -124 105c-79 0 -127 -28 -127 -116c0 -158 372 -43 372 -308c0 -124 -80 -193 -248 -193c-110 0 -232 33 -222 186z
M370 -207c1 -69 -54 -124 -127 -125v82c30 0 48 17 48 42c0 26 -18 42 -49 42v83c73 0 128 -55 128 -124z" />
    <glyph glyph-name="germandbls" unicode="&#xdf;" 
d="M253 0v89h75c139 0 145 220 0 220h-76v89h37c138 0 145 218 0 218h-23c-57 0 -99 -42 -99 -99v-517h-89v518c0 108 79 187 187 187h24c176 0 261 -214 139 -336c167 -112 97 -369 -100 -369h-75z" />
    <glyph glyph-name="t" unicode="t" horiz-adv-x="593" 
d="M252 0v611h-202v89h493v-89h-202v-611h-89z" />
    <glyph glyph-name="tbar" unicode="&#x167;" 
d="M543 611h-202v-193h183v-78h-183v-340h-89v340h-176v78h176v193h-202v89h493v-89z" />
    <glyph glyph-name="tcaron" unicode="&#x165;" horiz-adv-x="593" 
d="M155 823l46 63l96 -66l95 66l46 -63l-122 -73h-39zM252 0v611h-202v89h493v-89h-202v-611h-89z" />
    <glyph glyph-name="uni0163" unicode="&#x163;" 
d="M252 0v611h-202v89h493v-89h-202v-611h-89zM262 -44h66l-52 -156h-85z" />
    <glyph glyph-name="uni021B" unicode="&#x21b;" 
d="M252 0v611h-202v89h493v-89h-202v-611h-89zM370 -207c1 -69 -54 -124 -127 -125v82c30 0 48 17 48 42c0 26 -18 42 -49 42v83c73 0 128 -55 128 -124z" />
    <glyph glyph-name="u" unicode="u" 
d="M247 0c-109 0 -197 88 -197 197l1 503h89l-1 -503c0 -59 49 -108 108 -108h106c66 0 108 49 108 108v503h89v-504c0 -108 -65 -196 -197 -196h-106z" />
    <glyph glyph-name="uacute" unicode="&#xfa;" 
d="M331 757h-67l52 156h86zM247 0c-109 0 -197 88 -197 197l1 503h89l-1 -503c0 -59 49 -108 108 -108h106c66 0 108 49 108 108v503h89v-504c0 -108 -65 -196 -197 -196h-106z" />
    <glyph glyph-name="ucircumflex" unicode="&#xfb;" 
d="M159 816l122 73h39l122 -73l-46 -63l-95 66l-96 -66zM247 0c-109 0 -197 88 -197 197l1 503h89l-1 -503c0 -59 49 -108 108 -108h106c66 0 108 49 108 108v503h89v-504c0 -108 -65 -196 -197 -196h-106z" />
    <glyph glyph-name="udieresis" unicode="&#xfc;" 
d="M202 750c-38 0 -68 24 -68 61c0 39 30 61 68 61c37 0 69 -22 69 -61c0 -37 -32 -61 -69 -61zM398 750c-39 0 -69 24 -69 61c0 39 30 61 69 61c36 0 68 -22 68 -61c0 -37 -32 -61 -68 -61zM247 0c-109 0 -197 88 -197 197l1 503h89l-1 -503c0 -59 49 -108 108 -108h106
c66 0 108 49 108 108v503h89v-504c0 -108 -65 -196 -197 -196h-106z" />
    <glyph glyph-name="ugrave" unicode="&#xf9;" 
d="M276 757l-71 156h86l52 -156h-67zM247 0c-109 0 -197 88 -197 197l1 503h89l-1 -503c0 -59 49 -108 108 -108h106c66 0 108 49 108 108v503h89v-504c0 -108 -65 -196 -197 -196h-106z" />
    <glyph glyph-name="uhungarumlaut" unicode="&#x171;" 
d="M276 757h-67l52 156h86zM398 757h-67l52 156h86zM247 0c-109 0 -197 88 -197 197l1 503h89l-1 -503c0 -59 49 -108 108 -108h106c66 0 108 49 108 108v503h89v-504c0 -108 -65 -196 -197 -196h-106z" />
    <glyph glyph-name="umacron" unicode="&#x16b;" 
d="M165 828h269v-78h-269v78zM247 0c-109 0 -197 88 -197 197l1 503h89l-1 -503c0 -59 49 -108 108 -108h106c66 0 108 49 108 108v503h89v-504c0 -108 -65 -196 -197 -196h-106z" />
    <glyph glyph-name="uogonek" unicode="&#x173;" 
d="M247 0c-109 0 -197 88 -197 197l1 503h89l-1 -503c0 -59 49 -108 108 -108h106c66 0 108 49 108 108v503h89v-504c0 -108 -65 -196 -197 -196h-106zM344 -44l71 -156h-85l-52 156h66z" />
    <glyph glyph-name="uring" unicode="&#x16f;" 
d="M306 737c-63 0 -112 50 -112 113c0 62 49 112 112 112s113 -50 113 -112c0 -63 -50 -113 -113 -113zM306 808c24 0 41 19 41 42s-17 40 -41 40s-41 -17 -41 -40s17 -42 41 -42zM247 0c-109 0 -197 88 -197 197l1 503h89l-1 -503c0 -59 49 -108 108 -108h106
c66 0 108 49 108 108v503h89v-504c0 -108 -65 -196 -197 -196h-106z" />
    <glyph glyph-name="v" unicode="v" horiz-adv-x="607" 
d="M272 0l-237 700h95l173 -526l174 526h94l-236 -700h-63z" />
    <glyph glyph-name="w" unicode="w" horiz-adv-x="700" 
d="M50 700h89v-512l174 261h76l172 -261v512h89v-700h-66l-234 343l-233 -343h-67v700z" />
    <glyph glyph-name="wacute" unicode="&#x1e83;" horiz-adv-x="700" 
d="M390 757h-67l52 156h86zM50 700h89v-512l174 261h76l172 -261v512h89v-700h-66l-234 343l-233 -343h-67v700z" />
    <glyph glyph-name="wcircumflex" unicode="&#x175;" horiz-adv-x="700" 
d="M209 816l122 73h39l122 -73l-46 -63l-95 66l-96 -66zM50 700h89v-512l174 261h76l172 -261v512h89v-700h-66l-234 343l-233 -343h-67v700z" />
    <glyph glyph-name="wdieresis" unicode="&#x1e85;" horiz-adv-x="700" 
d="M252 750c-38 0 -68 24 -68 61c0 39 30 61 68 61c37 0 69 -22 69 -61c0 -37 -32 -61 -69 -61zM448 750c-39 0 -69 24 -69 61c0 39 30 61 69 61c36 0 68 -22 68 -61c0 -37 -32 -61 -68 -61zM50 700h89v-512l174 261h76l172 -261v512h89v-700h-66l-234 343l-233 -343h-67
v700z" />
    <glyph glyph-name="wgrave" unicode="&#x1e81;" horiz-adv-x="700" 
d="M314 757l-71 156h86l52 -156h-67zM50 700h89v-512l174 261h76l172 -261v512h89v-700h-66l-234 343l-233 -343h-67v700z" />
    <glyph glyph-name="x" unicode="x" horiz-adv-x="678" 
d="M50 0l232 350l-232 350h107l183 -278l181 278h107l-232 -350l232 -350h-107l-181 278l-183 -278h-107z" />
    <glyph glyph-name="y" unicode="y" horiz-adv-x="643" 
d="M277 0l-1 335l-245 365h107l183 -271l183 271h108l-247 -365l1 -335h-89z" />
    <glyph glyph-name="yacute" unicode="&#xfd;" horiz-adv-x="681" 
d="M377 757h-67l52 156h86zM277 0l-1 335l-245 365h107l183 -271l183 271h108l-247 -365l1 -335h-89z" />
    <glyph glyph-name="ycircumflex" unicode="&#x177;" horiz-adv-x="681" 
d="M199 816l122 73h39l122 -73l-46 -63l-95 66l-96 -66zM277 0l-1 335l-245 365h107l183 -271l183 271h108l-247 -365l1 -335h-89z" />
    <glyph glyph-name="ydieresis" unicode="&#xff;" horiz-adv-x="681" 
d="M243 750c-38 0 -68 24 -68 61c0 39 30 61 68 61c37 0 69 -22 69 -61c0 -37 -32 -61 -69 -61zM439 750c-39 0 -69 24 -69 61c0 39 30 61 69 61c36 0 68 -22 68 -61c0 -37 -32 -61 -68 -61zM277 0l-1 335l-245 365h107l183 -271l183 271h108l-247 -365l1 -335h-89z" />
    <glyph glyph-name="ygrave" unicode="&#x1ef3;" horiz-adv-x="681" 
d="M311 757l-71 156h86l52 -156h-67zM277 0l-1 335l-245 365h107l183 -271l183 271h108l-247 -365l1 -335h-89z" />
    <glyph glyph-name="z" unicode="z" horiz-adv-x="630" 
d="M50 0v72l405 539h-405v89h530v-72l-404 -539h404v-89h-530z" />
    <glyph glyph-name="zacute" unicode="&#x17a;" 
d="M331 757h-67l52 156h86zM50 0v72l405 539h-405v89h530v-72l-404 -539h404v-89h-530z" />
    <glyph glyph-name="zcaron" unicode="&#x17e;" 
d="M158 823l46 63l96 -66l95 66l46 -63l-122 -73h-39zM50 0v72l405 539h-405v89h530v-72l-404 -539h404v-89h-530z" />
    <glyph glyph-name="zdotaccent" unicode="&#x17c;" 
d="M340 750c-38 0 -68 24 -68 61c0 39 30 61 68 61c37 0 68 -22 68 -61c0 -37 -31 -61 -68 -61zM50 0v72l405 539h-405v89h530v-72l-404 -539h404v-89h-530z" />
    <glyph glyph-name="zero" unicode="0" horiz-adv-x="618" 
d="M306 -5c-141 0 -256 95 -256 256v198c0 163 114 256 263 256c141 0 255 -95 255 -256v-198c0 -164 -116 -256 -255 -256h-7zM306 82h7c93 0 169 56 169 169v198c0 113 -76 169 -169 169c-103 0 -176 -56 -176 -169v-198c0 -113 76 -169 169 -169z" />
    <glyph glyph-name="one" unicode="1" horiz-adv-x="311" 
d="M174 0v578l-99 -66l-48 71l176 117h58v-700h-87z" />
    <glyph glyph-name="two" unicode="2" horiz-adv-x="590" 
d="M50 0v44c0 276 400 303 400 471c0 71 -62 98 -136 98c-100 0 -148 -47 -140 -105h-86c-10 106 79 192 232 192c147 0 213 -63 213 -185c0 -217 -372 -255 -372 -428h373v-87h-484z" />
    <glyph glyph-name="three" unicode="3" horiz-adv-x="612" 
d="M210 0c-90 0 -160 72 -160 163h87c0 -45 33 -76 73 -76h156c144 0 146 219 0 219h-108v88h87c146 0 144 219 0 219h-116c-41 0 -74 -33 -74 -73h-86c0 88 72 160 160 160h116c182 0 263 -224 130 -342c160 -107 83 -358 -109 -358h-156z" />
    <glyph glyph-name="four" unicode="4" horiz-adv-x="592" 
d="M388 0v130l-338 1v70l360 499h67v-481h65v-89h-65v-130h-89zM388 219v300l-216 -300h216z" />
    <glyph glyph-name="five" unicode="5" horiz-adv-x="612" 
d="M210 0c-89 0 -160 70 -160 166h87c0 -49 32 -79 73 -79h156c62 0 109 49 109 120c0 79 -46 126 -109 126h-303l51 367l392 -4v-86l-317 4l-27 -195h204c116 0 196 -89 196 -212c0 -118 -85 -207 -196 -207h-156z" />
    <glyph glyph-name="six" unicode="6" horiz-adv-x="613" 
d="M242 0c-106 0 -192 86 -192 192v316c0 106 86 192 192 192h110c105 0 192 -86 192 -192h-87c0 58 -47 105 -105 105h-110c-58 0 -105 -47 -105 -105v-135c20 26 62 41 99 41h141c103 0 186 -83 186 -185v-37c0 -106 -87 -192 -192 -192h-129zM242 87h129
c58 0 105 47 105 105v37c0 54 -44 99 -99 99h-141c-54 0 -99 -44 -99 -99v-37c0 -58 47 -105 105 -105z" />
    <glyph glyph-name="seven" unicode="7" horiz-adv-x="577" 
d="M232 0h-99l282 612l-365 1v86l477 1v-66z" />
    <glyph glyph-name="eight" unicode="8" horiz-adv-x="611" 
d="M247 0c-109 0 -196 88 -197 197v1c0 70 38 131 97 167c-35 35 -58 84 -59 138v1c1 107 89 196 197 196h40c109 0 196 -87 198 -196h-1v-1c0 -54 -23 -103 -59 -138c57 -29 98 -97 98 -167c-1 -99 -87 -198 -177 -198h-137zM285 393h40c63 0 111 52 111 111
c-1 60 -49 109 -111 109h-40c-60 0 -109 -49 -110 -109c1 -60 50 -111 110 -111zM247 87h118c60 0 109 49 110 111c-1 60 -50 109 -110 109h-118c-61 0 -110 -49 -110 -109c0 -62 49 -111 110 -111z" />
    <glyph glyph-name="nine" unicode="9" horiz-adv-x="612" 
d="M242 0c-106 0 -192 86 -192 192h87c0 -58 47 -105 105 -105h128c58 0 105 47 105 105v129c-25 -25 -62 -36 -98 -36h-142c-102 0 -185 84 -185 186v37c0 106 86 192 192 192h128c106 0 192 -86 192 -192v-316c0 -108 -88 -192 -192 -192h-128zM235 372h142
c54 0 98 44 98 99v37c0 58 -47 105 -105 105h-128c-58 0 -105 -47 -105 -105v-37c0 -54 44 -99 98 -99z" />
    <glyph glyph-name="fraction" unicode="&#x2044;" 
d="M-47 -10l593 734h79l-593 -734h-79z" />
    <glyph glyph-name="asterisk" unicode="*" 
d="M472 623l-122 -67l122 -67l-32 -66l-110 65v-118h-75v118l-109 -65l-33 66l122 67l-122 67l33 65l109 -65v117h75v-117l110 65z" />
    <glyph glyph-name="backslash" unicode="\" 
d="M409 -186l-336 885l87 28l336 -885z" />
    <glyph glyph-name="periodcentered" unicode="&#xb7;" 
d="M294 257c-37 0 -67 30 -67 67s30 67 67 67h11c37 0 68 -30 68 -67s-31 -67 -68 -67h-11z" />
    <glyph glyph-name="bullet" unicode="&#x2022;" 
d="M288 184c-62 0 -111 49 -111 111c0 61 49 110 111 110h21c62 0 113 -49 113 -110c0 -62 -51 -111 -113 -111h-21z" />
    <glyph glyph-name="colon" unicode=":" horiz-adv-x="337" 
d="M118 363c-38 0 -68 24 -68 61c0 39 30 61 68 61c37 0 69 -22 69 -61c0 -37 -32 -61 -69 -61zM118 -3c-38 0 -68 24 -68 61c0 39 30 61 68 61c37 0 69 -22 69 -61c0 -37 -32 -61 -69 -61z" />
    <glyph glyph-name="comma" unicode="," horiz-adv-x="311" 
d="M117 -107h-67l75 207h86z" />
    <glyph glyph-name="ellipsis" unicode="&#x2026;" 
d="M118 119c37 0 69 -22 69 -61c0 -37 -32 -61 -69 -61c-38 0 -68 24 -68 61c0 39 30 61 68 61z" />
    <glyph glyph-name="exclam" unicode="!" horiz-adv-x="229" 
d="M159 700v-490h-89v490h89zM112 107c34 0 63 -20 63 -56c0 -34 -29 -56 -63 -56c-35 0 -62 22 -62 56c0 36 27 56 62 56z" />
    <glyph glyph-name="exclamdown" unicode="&#xa1;" horiz-adv-x="329" 
d="M112 541c34 0 63 -22 63 -56c0 -36 -29 -56 -63 -56c-35 0 -62 20 -62 56c0 34 27 56 62 56zM70 -164v490h89v-490h-89z" />
    <glyph glyph-name="numbersign" unicode="#" 
d="M383 15l-84 18l31 148h-148l-35 -165l-85 18l31 147h-80v87h99l35 163h-97v87h115l38 169l85 -18l-34 -151h148l37 167l85 -18l-33 -149h88v-87h-107l-35 -163h104v-87h-122zM200 268h149l35 163h-149z" />
    <glyph glyph-name="period" unicode="." horiz-adv-x="237" 
d="M118 -3c-38 0 -68 24 -68 61c0 39 30 61 68 61c37 0 69 -22 69 -61c0 -37 -32 -61 -69 -61z" />
    <glyph glyph-name="question" unicode="?" horiz-adv-x="530" 
d="M201 193c-12 242 190 159 190 308c0 88 -48 116 -128 116c-66 0 -134 -14 -124 -105h-88c-10 139 90 188 215 188c151 0 214 -70 214 -212c0 -191 -198 -92 -190 -295h-89zM247 -1c-33 0 -60 26 -60 59s27 60 60 60h9c33 0 61 -27 61 -60s-28 -59 -61 -59h-9z" />
    <glyph glyph-name="questiondown" unicode="&#xbf;" horiz-adv-x="530" 
d="M283 536c33 0 60 -26 60 -59s-27 -60 -60 -60h-9c-33 0 -61 27 -61 60s28 59 61 59h9zM329 342c12 -242 -190 -159 -190 -308c0 -88 48 -116 128 -116c66 0 134 14 124 105h88c10 -139 -90 -188 -215 -188c-151 0 -214 70 -214 212c0 191 198 92 190 295h89z" />
    <glyph glyph-name="quotedbl" unicode="&#x22;" horiz-adv-x="329" 
d="M60 524l-10 176h86l-9 -176h-67zM203 524l-10 176h86l-9 -176h-67z" />
    <glyph glyph-name="quotesingle" unicode="'" horiz-adv-x="286" 
d="M110 524l-10 176h86l-9 -176h-67z" />
    <glyph glyph-name="semicolon" unicode=";" 
d="M294 270c-37 0 -67 30 -67 67s30 67 67 67h11c37 0 68 -30 68 -67s-31 -67 -68 -67h-11zM253 -100h-67l75 207h86z" />
    <glyph glyph-name="slash" unicode="/" 
d="M161 -186l-87 28l336 885l87 -28z" />
    <glyph glyph-name="underscore" unicode="_" horiz-adv-x="630" 
d="M91 -49h448v-78h-448v78z" />
    <glyph glyph-name="braceleft" unicode="{" horiz-adv-x="509" 
d="M333 -172c-77 0 -140 63 -140 139v196c0 42 -29 95 -93 95v89c66 0 93 54 93 95v196c0 77 63 140 140 140h76v-89h-64c-41 0 -64 -23 -64 -64v-183c0 -57 -32 -119 -70 -139c40 -21 70 -88 70 -140v-183c0 -41 23 -64 64 -64h64v-88h-76z" />
    <glyph glyph-name="braceright" unicode="}" horiz-adv-x="509" 
d="M176 -166h-76v88h64c41 0 64 23 64 64v183c0 52 30 119 70 140c-38 20 -70 82 -70 139v183c0 41 -23 64 -64 64h-64v89h76c77 0 140 -63 140 -140v-196c0 -41 27 -95 93 -95v-89c-64 0 -93 -53 -93 -95v-196c0 -76 -63 -139 -140 -139z" />
    <glyph glyph-name="bracketleft" unicode="[" horiz-adv-x="410" 
d="M100 -95v888h209v-87h-122v-713h123v-88h-210z" />
    <glyph glyph-name="bracketright" unicode="]" horiz-adv-x="410" 
d="M310 -95h-210v88h123v713h-122v87h209v-888z" />
    <glyph glyph-name="parenleft" unicode="(" horiz-adv-x="386" 
d="M100 358c0 206 67 394 104 469l79 -40c-21 -49 -94 -196 -94 -429c0 -211 78 -389 95 -428l-79 -40c-60 120 -105 325 -105 468z" />
    <glyph glyph-name="parenright" unicode=")" horiz-adv-x="385" 
d="M284 358c0 -143 -45 -348 -105 -468l-79 40c17 39 95 217 95 428c0 233 -73 380 -94 429l79 40c37 -75 104 -263 104 -469z" />
    <glyph glyph-name="emdash" unicode="&#x2014;" 
d="M-148 323h896v-78h-896v78z" />
    <glyph glyph-name="endash" unicode="&#x2013;" horiz-adv-x="605" 
d="M79 330h448v-78h-448v78z" />
    <glyph glyph-name="hyphen" unicode="-" horiz-adv-x="493" 
d="M90 316h313v-78h-313v78z" />
    <glyph glyph-name="guillemotleft" unicode="&#xab;" horiz-adv-x="578" 
d="M223 49l-123 199v39l123 204l63 -47l-115 -176l115 -172zM415 49l-123 199v39l123 204l63 -47l-115 -176l115 -172z" />
    <glyph glyph-name="guillemotright" unicode="&#xbb;" horiz-adv-x="578" 
d="M163 49l-63 47l115 172l-115 176l63 47l123 -204v-39zM355 49l-63 47l115 172l-115 176l63 47l123 -204v-39z" />
    <glyph glyph-name="guilsinglleft" unicode="&#x2039;" horiz-adv-x="386" 
d="M223 49l-123 199v39l123 204l63 -47l-115 -176l115 -172z" />
    <glyph glyph-name="guilsinglright" unicode="&#x203a;" horiz-adv-x="386" 
d="M163 49l-63 47l115 172l-115 176l63 47l123 -204v-39z" />
    <glyph glyph-name="quotedblbase" unicode="&#x201e;" 
d="M125 100h86l-94 -207h-67z" />
    <glyph glyph-name="quotedblleft" unicode="&#x201c;" horiz-adv-x="574" 
d="M105 500l94 207h67l-75 -207h-86zM405 707h67l-75 -207h-86z" />
    <glyph glyph-name="quotedblright" unicode="&#x201d;" horiz-adv-x="567" 
d="M100 500l75 207h86l-94 -207h-67zM381 707h86l-94 -207h-67z" />
    <glyph glyph-name="quoteleft" unicode="&#x2018;" horiz-adv-x="261" 
d="M144 702h67l-75 -207h-86z" />
    <glyph glyph-name="quoteright" unicode="&#x2019;" horiz-adv-x="261" 
d="M117 495h-67l75 207h86z" />
    <glyph glyph-name="quotesinglbase" unicode="&#x201a;" 
d="M117 -107h-67l75 207h86z" />
    <glyph glyph-name="space" unicode=" " horiz-adv-x="450" 
 />
    <glyph glyph-name="cent" unicode="&#xa2;" 
d="M529 168c-42 -39 -96 -62 -161 -70v-98h-87v98c-143 16 -238 109 -238 253c0 142 97 236 238 252v97h87v-97c64 -7 119 -30 160 -68l-57 -62c-34 31 -85 48 -147 48c-114 0 -197 -58 -197 -170c0 -110 79 -170 197 -170c62 0 114 15 148 48z" />
    <glyph glyph-name="currency" unicode="&#xa4;" horiz-adv-x="601" 
d="M454 236l60 -60l-57 -57l-59 61c-59 -38 -135 -38 -193 0l-61 -61l-57 57l61 60c-39 60 -39 135 0 195l-61 59l57 56l61 -59c57 38 135 38 193 0l59 59l57 -56l-60 -59c39 -61 38 -136 0 -195zM199 333c0 -56 46 -102 102 -102s102 46 102 102c0 57 -46 103 -102 103
s-102 -46 -102 -103z" />
    <glyph glyph-name="dollar" unicode="$" horiz-adv-x="576" 
d="M533 193c0 -109 -62 -176 -192 -190v-89h-87v87c-101 6 -200 46 -191 185h88c-10 -91 63 -98 134 -98c90 0 159 22 159 105c0 184 -372 60 -372 308c0 131 54 190 182 198v87h87v-90c98 -13 168 -66 160 -184h-89c10 91 -58 105 -124 105c-79 0 -127 -28 -127 -116
c0 -158 372 -43 372 -308z" />
    <glyph glyph-name="Euro" unicode="&#x20ac;" horiz-adv-x="742" 
d="M508 89c31 0 59 13 79 35l55 -72c-35 -32 -82 -52 -134 -52h-105c-110 0 -198 89 -198 197v41h-105v78h105v68h-105v78h105v41c0 108 88 197 198 197h105c52 0 99 -20 134 -52l-55 -72c-20 22 -48 35 -79 35h-105c-60 0 -109 -49 -109 -108v-41h254v-78h-254v-68h254v-78
h-254v-41c0 -59 49 -108 109 -108h105z" />
    <glyph glyph-name="sterling" unicode="&#xa3;" horiz-adv-x="599" 
d="M100 86h72c45 2 69 37 69 75v167h-106v86h106v149c0 122 151 205 258 102l-61 -60c-53 46 -111 4 -111 -42v-149h105v-86h-105v-167c0 -30 -8 -57 -32 -75h170v-86h-365v86z" />
    <glyph glyph-name="yen" unicode="&#xa5;" horiz-adv-x="643" 
d="M612 700l-227 -335h97v-78h-117v-88h117v-78h-116v-121h-89v121h-121v78h120v88h-120v78h100l-225 335h107l183 -271l183 271h108z" />
    <glyph glyph-name="plus" unicode="+" horiz-adv-x="648" 
d="M548 315v-78h-185v-185h-78v185h-185v78h185v185h78v-185h185z" />
    <glyph glyph-name="minus" unicode="&#x2212;" horiz-adv-x="648" 
d="M100 315h448v-78h-448v78z" />
    <glyph glyph-name="multiply" unicode="&#xd7;" horiz-adv-x="573" 
d="M473 401l-131 -131l130 -131l-55 -55l-130 131l-131 -131l-55 55l130 131l-131 131l56 55l131 -131l130 131z" />
    <glyph glyph-name="divide" unicode="&#xf7;" horiz-adv-x="648" 
d="M319 391c-29 0 -53 24 -53 53c0 30 24 54 53 54h9c30 0 54 -24 54 -54c0 -29 -24 -53 -54 -53h-9zM100 318h448v-78h-448v78zM319 59c-29 0 -53 24 -53 53c0 30 24 54 53 54h9c30 0 54 -24 54 -54c0 -29 -24 -53 -54 -53h-9z" />
    <glyph glyph-name="equal" unicode="=" horiz-adv-x="648" 
d="M100 412h448v-78h-448v78zM100 220h448v-78h-448v78z" />
    <glyph glyph-name="asciitilde" unicode="~" 
d="M114 260c0 74 45 125 111 125c62 0 81 -51 128 -51c29 0 38 29 38 51h73c0 -72 -38 -124 -97 -124c-62 0 -79 50 -131 50c-36 0 -49 -25 -49 -51h-73z" />
    <glyph glyph-name="percent" unicode="%" 
d="M-57 -10l593 734h79l-593 -734h-79zM65 504c-50 0 -89 40 -89 90s39 90 89 90c51 0 91 -40 91 -90s-40 -90 -91 -90zM65 561c20 0 33 15 33 33c0 19 -13 32 -33 32c-19 0 -32 -13 -32 -32c0 -18 13 -33 32 -33zM494 29c-50 0 -89 40 -89 90s39 90 89 90
c51 0 91 -40 91 -90s-40 -90 -91 -90zM494 86c20 0 33 15 33 33c0 19 -13 32 -33 32c-19 0 -32 -13 -32 -32c0 -18 13 -33 32 -33z" />
    <glyph glyph-name="at" unicode="@" horiz-adv-x="888" 
d="M450 -146c-266 0 -369 211 -369 444c0 254 137 426 363 426c242 0 363 -176 363 -426c0 -138 -34 -264 -145 -264c-62 0 -110 58 -114 104c-23 -36 -72 -56 -112 -56c-109 0 -171 92 -171 208c0 119 65 208 171 208c49 0 98 -26 119 -67c7 20 17 34 31 46l50 -41
c-14 -18 -28 -52 -28 -75v-164c0 -40 17 -75 54 -77c50 0 58 100 58 178c0 185 -74 340 -276 340c-181 0 -276 -142 -276 -340c0 -188 67 -357 282 -357c32 0 61 4 88 14l30 -81c-37 -13 -76 -20 -118 -20zM436 169c60 0 91 51 91 121c0 71 -31 121 -91 121
c-61 0 -89 -59 -89 -121c0 -65 27 -121 89 -121z" />
    <glyph glyph-name="ampersand" unicode="&#x26;" 
d="M96 77c-75 109 -20 216 97 302c-51 61 -88 109 -88 173c0 91 72 153 168 153c101 0 168 -62 168 -155c0 -79 -65 -140 -127 -183c18 -19 84 -86 162 -164c45 68 45 118 46 148h80c0 -4 0 -111 -68 -206c22 -22 53 -54 87 -87l-57 -55l-84 84
c-125 -108 -301 -131 -384 -10zM259 425c49 34 103 77 103 125c0 52 -37 75 -89 75c-55 0 -88 -27 -88 -73c0 -35 27 -76 74 -127zM423 143c-24 25 -160 161 -176 178c-89 -65 -133 -127 -85 -199c55 -83 181 -46 261 21z" />
    <glyph glyph-name="trademark" unicode="&#x2122;" horiz-adv-x="1293" 
d="M252 0v611h-202v89h493v-89h-202v-611h-89zM643 0v700h68l232 -341l233 341h67v-700h-89v512l-173 -259h-74l-175 260v-513h-89z" />
    <glyph glyph-name="degree" unicode="&#xb0;" 
d="M298 413c-78 0 -139 61 -139 139c0 76 61 137 139 137c76 0 137 -61 137 -137c0 -78 -61 -139 -137 -139zM298 487c35 0 63 29 63 66c0 35 -28 63 -63 63c-39 0 -65 -28 -65 -63c0 -37 26 -66 65 -66z" />
    <glyph glyph-name="bar" unicode="|" horiz-adv-x="378" 
d="M228 724v-896h-78v896h78z" />
    <glyph glyph-name="brokenbar" unicode="&#xa6;" horiz-adv-x="378" 
d="M228 699v-313h-78v313h78zM228 162v-313h-78v313h78z" />
    <glyph glyph-name="dagger" unicode="&#x2020;" horiz-adv-x="613" 
d="M463 606v-78h-118v-246h-78v246h-117v78h117v124h78v-124h118z" />
    <glyph glyph-name="daggerdbl" unicode="&#x2021;" 
d="M447 569h-118v-92h118v-78h-118v-104h-78v104h-117v78h117v92h-117v78h117v96h78v-96h118v-78z" />
    <glyph glyph-name="asciicircum" unicode="^" 
d="M148 551l132 149h39l132 -149l-56 -41l-95 120l-96 -120z" />
    <glyph glyph-name="uni0308" unicode="&#x308;" horiz-adv-x="0" 
d="M-398 750c-38 0 -68 24 -68 61c0 39 30 61 68 61c37 0 69 -22 69 -61c0 -37 -32 -61 -69 -61zM-202 750c-39 0 -69 24 -69 61c0 39 30 61 69 61c36 0 68 -22 68 -61c0 -37 -32 -61 -68 -61z" />
    <glyph glyph-name="uni0307" unicode="&#x307;" horiz-adv-x="0" 
d="M-300 750c-38 0 -68 24 -68 61c0 39 30 61 68 61c37 0 68 -22 68 -61c0 -37 -31 -61 -68 -61z" />
    <glyph glyph-name="gravecomb" unicode="&#x300;" horiz-adv-x="0" 
d="M-324 757l-71 156h86l52 -156h-67z" />
    <glyph glyph-name="acutecomb" unicode="&#x301;" horiz-adv-x="0" 
d="M-269 757h-67l52 156h86z" />
    <glyph glyph-name="uni030B" unicode="&#x30b;" horiz-adv-x="0" 
d="M-269 757h-67l52 156h86zM-147 757h-67l52 156h86z" />
    <glyph glyph-name="uni0302" unicode="&#x302;" horiz-adv-x="0" 
d="M-442 816l122 73h39l122 -73l-46 -63l-95 66l-96 -66z" />
    <glyph glyph-name="uni030C" unicode="&#x30c;" horiz-adv-x="0" 
d="M-442 823l46 63l96 -66l95 66l46 -63l-122 -73h-39z" />
    <glyph glyph-name="uni0306" unicode="&#x306;" horiz-adv-x="0" 
d="M-296 750c-73 0 -132 59 -132 132h82c0 -31 21 -53 50 -53s49 22 49 53h82c0 -73 -59 -132 -131 -132z" />
    <glyph glyph-name="uni030A" unicode="&#x30a;" horiz-adv-x="0" 
d="M-317 731c-63 0 -112 50 -112 113c0 62 49 112 112 112s113 -50 113 -112c0 -63 -50 -113 -113 -113zM-317 802c24 0 41 19 41 42s-17 40 -41 40s-41 -17 -41 -40s17 -42 41 -42z" />
    <glyph glyph-name="tildecomb" unicode="&#x303;" horiz-adv-x="0" 
d="M-486 761c0 74 45 125 111 125c62 0 81 -51 128 -51c29 0 38 29 38 51h73c0 -72 -38 -124 -97 -124c-62 0 -79 50 -131 50c-36 0 -49 -25 -49 -51h-73z" />
    <glyph glyph-name="uni0304" unicode="&#x304;" horiz-adv-x="0" 
d="M-435 828h269v-78h-269v78z" />
    <glyph glyph-name="uni0312" unicode="&#x312;" horiz-adv-x="0" 
d="M-300 872c37 0 68 -22 68 -61c0 -37 -31 -61 -68 -61c-38 0 -68 24 -68 61c-2 40 4 78 20 103c28 39 65 47 102 47v-42c-42 0 -57 -23 -62 -47h8z" />
    <glyph glyph-name="uni0326" unicode="&#x326;" horiz-adv-x="0" 
d="M-230 -207c1 -69 -54 -124 -127 -125v82c30 0 48 17 48 42c0 26 -18 42 -49 42v83c73 0 128 -55 128 -124z" />
    <glyph glyph-name="uni0327" unicode="&#x327;" horiz-adv-x="0" 
d="M-296 -44h66l-52 -156h-85z" />
    <glyph glyph-name="uni0328" unicode="&#x328;" horiz-adv-x="0" 
d="M-256 -44l71 -156h-85l-52 156h66z" />
    <glyph glyph-name="uni0335" unicode="&#x335;" horiz-adv-x="0" 
d="M-509 293h448v-78h-448v78z" />
    <glyph glyph-name="uni0336" unicode="&#x336;" horiz-adv-x="0" 
d="M-672 278h672v-78h-672v78z" />
    <glyph glyph-name="uni0337" unicode="&#x337;" horiz-adv-x="0" 
d="M-562 -10l437 541h78l-437 -541h-78z" />
    <glyph glyph-name="uni0338" unicode="&#x338;" horiz-adv-x="0" 
d="M-647 -10l593 734h79l-593 -734h-79z" />
    <glyph glyph-name="_q_tail" 
d="M365 -50l-184 184l67 67l184 -184z" />
    </font>
</defs>
</svg>
