<?xml version="1.0" standalone="no"?>
<!DOCTYPE svg PUBLIC "-//W3C//DTD SVG 1.1//EN" "http://www.w3.org/Graphics/SVG/1.1/DTD/svg11.dtd" >
<svg xmlns="http://www.w3.org/2000/svg" xmlns:xlink="http://www.w3.org/1999/xlink" version="1.1">
<metadata>
Created by FontForge 20190801 at Mon Feb 22 12:35:41 2010
 By Jimmy Wärting
Copyright (c) 2010 Miles Newlyn. All rights reserved.
</metadata>
<defs>
<font id="Frank-Medium" horiz-adv-x="577" >
  <font-face 
    font-family="Frank Medium"
    font-weight="500"
    font-stretch="normal"
    units-per-em="1000"
    panose-1="2 0 0 0 0 0 0 0 0 0"
    ascent="750"
    descent="-250"
    x-height="547"
    cap-height="732"
    bbox="-35.75 -328.971 1081 965"
    underline-thickness="50"
    underline-position="-100"
    unicode-range="U+0020-FB02"
  />
<missing-glyph horiz-adv-x="1000" 
 />
    <glyph glyph-name="fi" unicode="fi" horiz-adv-x="587" 
d="M506 0h-88c-8 0 -13 5 -13 14v420h-185v-421c0 -8 -5 -13 -12 -13h-91c-6 0 -12 4 -12 13v421h-64c-8 0 -9 5 -9 11v71c0 6 1 11 9 11h64v38c0 119 78 185 196 185c107 0 158 -45 187 -80c7 -8 7 -13 -2 -21l-54 -46c-7 -7 -14 -4 -19 2c-28 33 -55 50 -103 50
c-61 0 -90 -28 -90 -98v-30h291c8 0 9 -5 9 -11v-502c0 -11 -6 -14 -14 -14z" />
    <glyph glyph-name="fl" unicode="fl" horiz-adv-x="587" 
d="M507 0h-90c-8 0 -12 4 -12 13v614c-19 18 -44 35 -94 35c-69 0 -91 -51 -91 -94v-41h86c8 0 9 -5 9 -11v-71c0 -6 -1 -11 -9 -11h-86v-425c0 -8 -5 -9 -11 -9h-93c-6 0 -11 1 -11 9v425h-61c-8 0 -12 6 -12 12v68c0 6 4 13 12 13h61v45c0 109 92 176 206 176
c97 0 169 -43 197 -62c10 -6 12 -12 12 -24v-649c0 -9 -6 -13 -13 -13z" />
    <glyph glyph-name=".notdef" horiz-adv-x="1000" 
 />
    <glyph glyph-name="space" unicode=" " horiz-adv-x="166" 
 />
    <glyph glyph-name="A" unicode="A" horiz-adv-x="600" 
d="M583 0h-97c-8 0 -14 5 -16 14l-54 185h-239l-56 -185c-4 -12 -9 -14 -18 -14h-87c-8 0 -11 7 -8 15l224 703c4 11 10 17 20 17h101c11 0 17 -6 20 -17l219 -703c3 -8 -2 -15 -9 -15zM389 297l-88 306l-94 -306h182z" />
    <glyph glyph-name="B" unicode="B" horiz-adv-x="601" 
d="M331 0h-260v732h255c139 0 215 -72 215 -180v-19c0 -74 -42 -134 -106 -153c72 -14 126 -76 126 -167v-17c0 -113 -81 -196 -230 -196zM190 105h111c93 0 141 25 141 113c-1 76 -48 110 -127 110h-125v-223zM424 520v13c0 67 -43 97 -132 97h-102v-207h112
c80 0 122 36 122 97z" />
    <glyph glyph-name="C" unicode="C" horiz-adv-x="595" 
d="M483 208l67 -27c15 -5 13 -16 8 -33c-23 -72 -103 -160 -237 -160c-176 0 -260 90 -260 251v249c0 151 91 254 262 254c140 0 212 -73 239 -166c4 -15 1 -25 -12 -29l-68 -22c-14 -5 -23 0 -27 15c-18 60 -58 97 -133 97c-90 0 -142 -58 -142 -158v-227
c0 -97 47 -159 142 -159c76 0 117 44 132 101c4 14 14 18 29 14z" />
    <glyph glyph-name="D" unicode="D" horiz-adv-x="644" 
d="M327 0h-256v732h256c173 0 256 -106 256 -244v-251c0 -135 -84 -237 -256 -237zM463 256v216c0 95 -42 155 -155 155h-118v-522h118c113 0 155 56 155 151z" />
    <glyph glyph-name="E" unicode="E" horiz-adv-x="523" 
d="M465 0h-394v732h393c9 0 12 -8 12 -15v-77c0 -7 -4 -13 -12 -13h-274v-204h249c9 0 12 -7 12 -13v-76c0 -6 -4 -13 -12 -13h-249v-216h274c11 0 13 -8 13 -14v-78c0 -7 -4 -13 -12 -13z" />
    <glyph glyph-name="F" unicode="F" horiz-adv-x="490" 
d="M178 0h-94c-6 0 -13 3 -13 13v719h380c8 0 12 -5 12 -14v-77c0 -7 -2 -14 -12 -14h-261v-222h239c8 0 12 -6 12 -14v-75c0 -8 -4 -14 -12 -14h-239v-289c0 -9 -6 -13 -12 -13z" />
    <glyph glyph-name="G" unicode="G" horiz-adv-x="643" 
d="M481 242v57h-129c-10 0 -13 7 -13 13v66c0 6 4 13 13 13h229c10 0 17 -5 17 -14v-148c0 -143 -108 -241 -268 -241c-173 0 -269 89 -269 244v267c0 152 103 243 269 243c154 0 221 -76 253 -167c6 -17 -1 -24 -12 -28l-75 -22c-11 -4 -21 -2 -26 13
c-19 61 -60 99 -139 99c-100 0 -151 -48 -151 -156v-236c0 -112 65 -152 152 -152c79 0 149 37 149 149z" />
    <glyph glyph-name="H" unicode="H" horiz-adv-x="686" 
d="M601 0h-92c-6 0 -14 3 -14 13v301h-305v-301c0 -9 -6 -13 -12 -13h-94c-6 0 -13 3 -13 13v707c0 8 7 12 13 12h93c8 0 13 -4 13 -12v-301h305v301c0 8 7 12 13 12h93c9 0 14 -4 14 -12v-707c0 -11 -8 -13 -14 -13z" />
    <glyph glyph-name="I" unicode="I" horiz-adv-x="272" 
d="M182 0h-93c-6 0 -13 4 -13 13v706c0 9 7 13 13 13h93c8 0 13 -5 13 -13v-706c0 -8 -5 -13 -13 -13z" />
    <glyph glyph-name="J" unicode="J" horiz-adv-x="455" 
d="M277 201v518c0 9 7 13 13 13h93c9 0 14 -5 14 -14v-508c0 -150 -78 -222 -205 -222c-78 0 -132 30 -180 76c-9 9 -6 21 1 28l46 56c9 10 18 11 28 1c22 -26 56 -48 102 -48c55 0 88 34 88 100z" />
    <glyph glyph-name="K" unicode="K" horiz-adv-x="589" 
d="M575 0h-112c-8 0 -13 3 -16 9l-174 342l-83 -102v-236c0 -9 -6 -13 -12 -13h-94c-6 0 -13 4 -13 13v705c0 11 7 14 13 14h94c6 0 12 -4 12 -13v-315l252 316c5 7 10 12 19 12h106c11 0 12 -11 7 -17l-220 -279l229 -423c4 -8 -1 -13 -8 -13z" />
    <glyph glyph-name="L" unicode="L" horiz-adv-x="503" 
d="M486 0h-415v720c0 8 7 12 13 12h94c6 0 12 -4 12 -12v-615h296c9 0 12 -6 12 -15v-77c0 -7 -4 -13 -12 -13z" />
    <glyph glyph-name="M" unicode="M" horiz-adv-x="812" 
d="M729 0h-86c-6 0 -11 5 -11 13v452c0 50 3 107 6 143h-2l-176 -596c-2 -6 -6 -12 -15 -12h-91c-9 0 -12 5 -14 11l-168 597v-28c2 -38 6 -82 6 -131v-436c0 -9 -6 -13 -12 -13h-83c-6 0 -12 5 -12 13v704c0 7 4 15 14 15h140c7 0 12 -3 15 -11l113 -379
c21 -72 43 -163 53 -234c9 71 32 160 55 235c35 113 69 226 105 339c4 13 9 27 13 41c5 13 35 9 54 9h93c10 0 14 -6 14 -13v-706c0 -9 -5 -13 -11 -13z" />
    <glyph glyph-name="N" unicode="N" horiz-adv-x="690" 
d="M605 0h-127c-10 0 -15 7 -18 13l-189 380c-36 73 -63 140 -93 212h-3c6 -63 10 -126 10 -194v-398c0 -7 -6 -13 -12 -13h-90c-6 0 -12 5 -12 13v703c0 8 2 16 14 16h136c9 0 12 -5 15 -11l181 -371c39 -77 71 -154 95 -224h3c-6 66 -10 152 -10 216v378c0 5 5 12 12 12
h90c6 0 12 -6 12 -12v-707c0 -8 -4 -13 -14 -13z" />
    <glyph glyph-name="O" unicode="O" horiz-adv-x="673" 
d="M612 491v-231c0 -166 -82 -272 -276 -272c-180 0 -275 100 -275 252v230c0 160 82 272 275 272c180 0 276 -103 276 -251zM493 252v225c0 98 -49 160 -157 160s-156 -60 -156 -159v-225c0 -98 48 -160 156 -160s157 62 157 159z" />
    <glyph glyph-name="P" unicode="P" horiz-adv-x="576" 
d="M178 0h-95c-6 0 -12 5 -12 13v719h225c170 0 242 -89 242 -221v-36c0 -132 -73 -221 -244 -221h-104v-241c0 -8 -5 -13 -12 -13zM419 482v21c0 85 -30 125 -133 125h-96v-270h96c103 0 133 40 133 124z" />
    <glyph glyph-name="Q" unicode="Q" horiz-adv-x="673" 
d="M563 -144h-76c-9 0 -13 3 -17 10l-69 128c-20 -4 -41 -6 -65 -6c-190 0 -275 105 -275 266v173c0 20 0 40 1 60c3 150 87 255 274 255c180 0 276 -103 276 -251v-231c0 -113 -38 -198 -122 -241l81 -150c4 -6 2 -13 -8 -13zM347 95l-66 124c-3 7 0 14 9 14h75
c8 0 12 -3 16 -10l55 -103c38 27 57 73 57 132v212c0 106 -41 173 -157 173c-117 0 -156 -66 -156 -172v-212c0 -85 38 -142 117 -155c15 -2 33 -4 50 -3z" />
    <glyph glyph-name="R" unicode="R" horiz-adv-x="594" 
d="M424 490v25c0 78 -34 113 -125 113h-109v-253h111c89 0 123 40 123 115zM558 0h-111c-8 0 -13 3 -16 9l-132 263h-109v-259c0 -8 -5 -13 -12 -13h-94c-7 0 -13 5 -13 13v719h246c161 0 227 -84 227 -206v-47c0 -88 -34 -156 -124 -191l146 -275c4 -8 -2 -13 -8 -13z" />
    <glyph glyph-name="S" unicode="S" horiz-adv-x="547" 
d="M38 173l73 24c11 4 19 3 23 -13c14 -57 57 -94 138 -94c56 0 118 28 118 98c0 64 -40 91 -139 136c-131 59 -205 108 -205 226c0 117 97 192 221 192c138 0 207 -70 234 -150c4 -10 0 -18 -11 -22l-72 -26c-10 -4 -18 0 -21 10c-22 58 -67 86 -128 86
c-70 0 -106 -33 -106 -90c0 -60 55 -82 161 -132c116 -53 186 -106 187 -224c0 -120 -95 -206 -241 -206c-150 0 -220 78 -243 163c-3 11 2 19 11 22z" />
    <glyph glyph-name="T" unicode="T" horiz-adv-x="529" 
d="M311 0h-95c-6 0 -12 5 -12 13v615h-197c-9 0 -12 7 -12 13v77c0 6 3 14 12 14h515c8 0 12 -8 12 -14v-77c0 -6 -4 -13 -12 -13h-198v-615c0 -8 -6 -13 -13 -13z" />
    <glyph glyph-name="U" unicode="U" horiz-adv-x="658" 
d="M477 237v482c0 6 5 13 11 13h92c7 0 13 -6 13 -13v-502c0 -136 -99 -229 -265 -229c-175 0 -263 93 -263 229v502c0 6 5 13 11 13h96c7 0 12 -6 12 -13v-482c0 -92 44 -144 144 -144s149 52 149 144z" />
    <glyph glyph-name="V" unicode="V" horiz-adv-x="595" 
d="M348 0h-109c-9 0 -13 5 -16 13l-216 705c-3 8 0 14 9 14h101c8 0 12 -3 14 -11l97 -343c28 -95 49 -181 67 -276h2c19 94 43 181 71 276l103 343c2 8 6 11 14 11h93c9 0 13 -6 11 -13l-223 -706c-3 -8 -9 -13 -18 -13z" />
    <glyph glyph-name="W" unicode="W" horiz-adv-x="878" 
d="M685 0h-109c-9 0 -14 5 -16 13l-82 350c-19 80 -29 131 -43 203h-1c-11 -72 -21 -123 -39 -203l-79 -350c-1 -6 -8 -13 -18 -13h-108c-9 0 -14 5 -16 13l-172 706c-2 8 3 13 9 13h97c6 0 12 -2 14 -12l67 -307c23 -101 44 -208 56 -311h2c13 103 33 208 56 310l72 308
c2 8 6 12 15 12h87c9 0 13 -4 15 -12l75 -306c25 -100 49 -210 64 -312h2c14 103 35 209 57 312l66 307c2 8 7 11 13 11h93c8 0 12 -5 10 -14l-171 -705c-1 -6 -7 -13 -16 -13z" />
    <glyph glyph-name="X" unicode="X" horiz-adv-x="602" 
d="M588 0h-102c-11 0 -15 3 -19 10l-168 273l-162 -271c-4 -6 -8 -12 -19 -12h-104c-9 0 -12 8 -8 15l229 352l-215 350c-5 10 1 15 7 15h106c8 0 12 -4 16 -10l156 -265l156 266c4 7 8 9 14 9h104c8 0 10 -9 7 -14l-220 -346l231 -359c3 -6 1 -13 -9 -13z" />
    <glyph glyph-name="Y" unicode="Y" horiz-adv-x="575" 
d="M336 0h-96c-5 0 -12 4 -12 13v279l-230 426c-4 7 -2 14 6 14h108c8 0 10 -3 13 -9l164 -322l161 322c4 7 8 9 14 9h106c8 0 10 -9 7 -14l-230 -425v-280c0 -8 -5 -13 -11 -13z" />
    <glyph glyph-name="Z" unicode="Z" horiz-adv-x="556" 
d="M518 0h-468c-5 0 -11 3 -13 10l-16 60l359 557h-308c-9 0 -13 6 -13 12v79c0 6 3 14 13 14h433c8 0 12 -4 15 -13l15 -54l-361 -560h344c7 0 12 -5 12 -14v-79c0 -6 -4 -12 -12 -12z" />
    <glyph glyph-name="Agrave" unicode="&#xc0;" horiz-adv-x="598" 
d="M582 0h-97c-8 0 -14 5 -16 14l-54 185h-239l-56 -185c-4 -12 -9 -14 -18 -14h-87c-8 0 -11 7 -8 15l224 703c4 11 10 17 20 17h101c11 0 17 -6 20 -17l219 -703c3 -8 -2 -15 -9 -15zM388 297l-88 306l-94 -306h182zM323 804h-54c-6 0 -10 2 -13 6l-105 138
c-5 7 -5 16 7 16h73c8 0 14 -1 19 -9l81 -138c5 -8 0 -13 -8 -13z" />
    <glyph glyph-name="Aacute" unicode="&#xc1;" horiz-adv-x="598" 
d="M582 0h-97c-8 0 -14 5 -16 14l-54 185h-239l-56 -185c-4 -12 -9 -14 -18 -14h-87c-8 0 -11 7 -8 15l224 703c4 11 10 17 20 17h101c11 0 17 -6 20 -17l219 -703c3 -8 -2 -15 -9 -15zM388 297l-88 306l-94 -306h182zM331 805h-53c-8 0 -13 5 -8 13l81 137c5 9 11 10 18 10
h73c12 0 13 -9 8 -16l-106 -138c-3 -4 -7 -6 -13 -6z" />
    <glyph glyph-name="Acircumflex" unicode="&#xc2;" horiz-adv-x="598" 
d="M582 0h-97c-8 0 -14 5 -16 14l-54 185h-239l-56 -185c-4 -12 -9 -14 -18 -14h-87c-8 0 -11 7 -8 15l224 703c4 11 10 17 20 17h101c11 0 17 -6 20 -17l219 -703c3 -8 -2 -15 -9 -15zM388 297l-88 306l-94 -306h182zM420 804h-59c-10 0 -12 3 -16 11l-47 84l-48 -86
c-3 -6 -5 -9 -14 -9h-58c-11 0 -11 6 -8 12l82 126c7 9 8 11 20 11h53c11 0 14 -4 19 -11l82 -127c4 -6 1 -11 -6 -11z" />
    <glyph glyph-name="Atilde" unicode="&#xc3;" horiz-adv-x="598" 
d="M582 0h-97c-8 0 -14 5 -16 14l-54 185h-239l-56 -185c-4 -12 -9 -14 -18 -14h-87c-8 0 -11 7 -8 15l224 703c7 23 32 17 51 17h70c11 0 17 -6 20 -17l219 -703c3 -8 -2 -15 -9 -15zM417 937l38 -40c4 -5 2 -10 -1 -14c-18 -28 -52 -63 -96 -63c-58 0 -82 43 -116 43
c-23 0 -37 -16 -48 -36c-3 -4 -7 -5 -12 0l-42 38c-4 4 -3 8 -1 12c14 22 46 59 88 65c7 2 13 2 20 1c50 -2 79 -42 110 -42c41 0 44 53 60 36zM388 297l-88 306l-94 -306h182z" />
    <glyph glyph-name="Adieresis" unicode="&#xc4;" horiz-adv-x="598" 
d="M582 0h-97c-8 0 -14 5 -16 14l-54 185h-239l-56 -185c-4 -12 -9 -14 -18 -14h-87c-8 0 -11 7 -8 15l224 703c4 11 10 17 20 17h101c11 0 17 -6 20 -17l219 -703c3 -8 -2 -15 -9 -15zM388 297l-88 306l-94 -306h182zM237 823h-69c-9 0 -15 6 -15 17v88c0 9 5 17 15 17h69
c9 0 16 -6 16 -17v-88c0 -11 -7 -17 -16 -17zM431 823h-69c-9 0 -15 6 -15 17v88c0 9 4 17 15 17h69c9 0 16 -6 16 -17v-88c0 -11 -7 -17 -16 -17z" />
    <glyph glyph-name="Amacron" unicode="&#x100;" horiz-adv-x="598" 
d="M582 0h-97c-8 0 -14 5 -16 14l-54 185h-239l-56 -185c-4 -12 -9 -14 -18 -14h-87c-8 0 -11 7 -8 15l224 703c4 11 10 17 20 17h101c11 0 17 -6 20 -17l219 -703c3 -8 -2 -15 -9 -15zM388 297l-88 306l-94 -306h182zM421 829h-241c-8 0 -12 7 -12 14v60c0 7 4 13 12 13
h242c8 0 11 -7 11 -14v-59c0 -7 -4 -14 -12 -14z" />
    <glyph glyph-name="Abreve" unicode="&#x102;" horiz-adv-x="598" 
d="M582 0h-97c-8 0 -14 5 -16 14l-54 185h-239l-56 -185c-4 -12 -9 -14 -18 -14h-87c-8 0 -11 7 -8 15l224 703c4 11 10 17 20 17h101c11 0 17 -6 20 -17l219 -703c3 -8 -2 -15 -9 -15zM388 297l-88 306l-94 -306h182zM183 939l58 -7c5 -1 8 -3 8 -12c1 -31 23 -53 52 -53
c27 0 52 19 52 54c0 5 1 10 8 11c6 1 48 6 60 7c7 0 8 -4 8 -12c0 -66 -52 -123 -128 -123c-81 0 -128 61 -128 124c0 8 1 12 10 11z" />
    <glyph glyph-name="Aring" unicode="&#xc5;" horiz-adv-x="598" 
d="M582 0h-97c-8 0 -14 5 -16 14l-54 185h-239l-56 -185c-4 -12 -9 -14 -18 -14h-87c-8 0 -11 7 -8 15l224 703c4 11 10 17 20 17h101c11 0 17 -6 20 -17l219 -703c3 -8 -2 -15 -9 -15zM388 297l-88 306l-94 -306h182zM400 870c0 -53 -42 -91 -96 -91s-95 38 -95 91
c0 54 42 93 95 93c54 0 96 -38 96 -93zM304 831c23 0 41 17 41 39c0 24 -17 40 -41 40c-23 0 -40 -16 -40 -40c0 -22 16 -39 40 -39z" />
    <glyph glyph-name="Aogonek" unicode="&#x104;" horiz-adv-x="598" 
d="M580 -134l21 -28c4 -6 3 -10 -1 -14c-19 -19 -53 -41 -103 -41c-34 0 -104 20 -104 93c0 63 55 94 100 124h-8c-8 0 -14 5 -16 14l-54 185h-239l-56 -185c-4 -12 -9 -14 -18 -14h-87c-8 0 -11 7 -8 15l224 703c4 11 10 17 20 17h101c11 0 17 -6 20 -17l219 -703
c2 -8 -2 -15 -7 -15c-18 -13 -38 -23 -67 -49c-27 -23 -40 -38 -40 -67c0 -23 15 -39 43 -39c20 0 37 12 47 21c5 5 8 4 13 0zM388 297l-88 306l-94 -306h182z" />
    <glyph glyph-name="AE" unicode="&#xc6;" horiz-adv-x="847" 
d="M395 256v327l-154 -327h154zM789 0h-378c-9 0 -16 5 -16 14v142h-201l-66 -142c-5 -11 -9 -14 -18 -14h-98c-7 0 -12 7 -8 15l335 699c5 11 10 18 20 18h429c9 0 12 -8 12 -15v-77c0 -7 -4 -13 -12 -13h-274v-204h249c9 0 12 -7 12 -13v-76c0 -6 -4 -13 -12 -13h-249
v-216h274c11 0 13 -8 13 -14v-78c0 -7 -4 -13 -12 -13z" />
    <glyph glyph-name="Cacute" unicode="&#x106;" horiz-adv-x="595" 
d="M465 208l67 -27c15 -5 14 -16 8 -33c-23 -72 -102 -160 -236 -160c-176 0 -260 90 -260 251v249c0 151 91 254 262 254c140 0 212 -73 238 -166c4 -15 1 -25 -11 -29l-69 -22c-13 -5 -23 0 -26 15c-18 60 -59 97 -133 97c-90 0 -142 -58 -142 -158v-227
c0 -97 46 -159 142 -159c76 0 117 44 132 101c4 14 14 18 28 14zM351 805h-54c-8 0 -13 6 -8 14l81 137c5 8 11 9 19 9h73c12 0 12 -8 7 -15l-105 -139c-3 -3 -7 -6 -13 -6z" />
    <glyph glyph-name="Ccaron" unicode="&#x10c;" horiz-adv-x="595" 
d="M465 208l67 -27c15 -5 14 -16 8 -33c-23 -72 -102 -160 -236 -160c-176 0 -260 90 -260 251v249c0 151 91 254 262 254c140 0 212 -73 238 -166c4 -15 1 -25 -11 -29l-69 -22c-13 -5 -23 0 -26 15c-18 60 -59 97 -133 97c-90 0 -142 -58 -142 -158v-227
c0 -97 46 -159 142 -159c76 0 117 44 132 101c4 14 14 18 28 14zM338 810h-54c-12 0 -14 1 -20 10l-80 127c-4 6 -2 11 8 11h57c8 0 10 -3 14 -9l49 -86l48 85c4 7 6 10 15 10h56c10 0 12 -5 8 -11l-83 -127c-4 -7 -8 -10 -18 -10z" />
    <glyph glyph-name="Cdotaccent" unicode="&#x10a;" horiz-adv-x="595" 
d="M483 208l67 -27c15 -5 13 -16 8 -33c-23 -72 -103 -160 -237 -160c-176 0 -260 90 -260 251v249c0 151 91 254 262 254c140 0 212 -73 239 -166c4 -15 1 -25 -12 -29l-68 -22c-14 -5 -23 0 -27 15c-18 60 -58 97 -133 97c-90 0 -142 -58 -142 -158v-227
c0 -97 47 -159 142 -159c76 0 117 44 132 101c4 14 14 18 29 14zM366 817h-103c-11 0 -17 5 -17 16v95c0 10 4 17 17 17h102c12 0 17 -6 17 -17v-95c0 -9 -6 -16 -16 -16z" />
    <glyph glyph-name="Ccedilla" unicode="&#xc7;" horiz-adv-x="595" 
d="M430 -124v-9c0 -41 -39 -84 -110 -84c-51 0 -88 22 -102 32c-4 3 -9 7 -5 16l17 32c3 6 8 6 12 4c14 -8 47 -25 71 -25c29 0 40 14 40 29v3c0 21 -25 38 -80 31v84c-156 11 -229 99 -229 250v249c0 151 91 254 262 254c140 0 212 -73 238 -166c4 -15 1 -25 -11 -29
l-69 -22c-13 -5 -23 0 -26 15c-18 60 -59 97 -133 97c-90 0 -142 -58 -142 -158v-227c0 -97 46 -159 142 -159c76 0 117 44 132 101c4 14 14 18 28 14l67 -27c15 -5 14 -16 8 -33c-20 -65 -86 -140 -194 -156v-39c53 0 84 -37 84 -77z" />
    <glyph glyph-name="Dcaron" unicode="&#x10e;" horiz-adv-x="644" 
d="M327 0h-256v732h256c173 0 256 -106 256 -244v-251c0 -135 -84 -237 -256 -237zM463 256v216c0 95 -42 155 -155 155h-118v-522h118c113 0 155 56 155 151zM322 804h-54c-12 0 -14 2 -20 11l-80 126c-4 6 -2 12 8 12h57c8 0 10 -3 14 -9l49 -87l48 85c4 8 6 11 15 11h56
c10 0 12 -6 8 -12l-83 -126c-4 -7 -8 -11 -18 -11z" />
    <glyph glyph-name="Dcroat" unicode="&#x110;" horiz-adv-x="652" 
d="M335 0h-256v326h-55c-10 0 -14 5 -14 14v67c0 6 3 14 12 14h57v311h256c173 0 256 -106 256 -244v-251c0 -135 -83 -237 -256 -237zM472 256v216c0 95 -43 155 -155 155h-118v-206h138c10 0 12 -8 12 -14v-67c0 -9 -4 -14 -13 -14h-137v-221h118c112 0 155 56 155 151z
" />
    <glyph glyph-name="Egrave" unicode="&#xc8;" horiz-adv-x="523" 
d="M465 0h-394v732h393c9 0 12 -8 12 -15v-77c0 -7 -4 -13 -12 -13h-274v-204h249c9 0 12 -7 12 -13v-76c0 -6 -4 -13 -12 -13h-249v-216h274c11 0 13 -8 13 -14v-78c0 -7 -4 -13 -12 -13zM305 804h-54c-6 0 -10 2 -13 6l-105 138c-5 7 -5 16 7 16h73c8 0 14 -1 19 -9
l81 -138c5 -8 0 -13 -8 -13z" />
    <glyph glyph-name="Eacute" unicode="&#xc9;" horiz-adv-x="523" 
d="M465 0h-394v732h393c9 0 12 -8 12 -15v-77c0 -7 -4 -13 -12 -13h-274v-204h249c9 0 12 -7 12 -13v-76c0 -6 -4 -13 -12 -13h-249v-216h274c11 0 13 -8 13 -14v-78c0 -7 -4 -13 -12 -13zM302 804h-54c-8 0 -13 5 -8 13l81 138c5 8 11 9 18 9h73c12 0 13 -9 8 -16
l-106 -138c-2 -4 -6 -6 -12 -6z" />
    <glyph glyph-name="Ecircumflex" unicode="&#xca;" horiz-adv-x="523" 
d="M465 0h-394v732h393c9 0 12 -8 12 -15v-77c0 -7 -4 -13 -12 -13h-274v-204h249c9 0 12 -7 12 -13v-76c0 -6 -4 -13 -12 -13h-249v-216h274c11 0 13 -8 13 -14v-78c0 -7 -4 -13 -12 -13zM397 811h-58c-10 0 -12 4 -17 11l-46 84l-48 -85c-3 -6 -5 -10 -14 -10h-59
c-10 0 -11 6 -7 12l82 127c6 9 8 10 20 10h53c11 0 14 -3 19 -10l82 -127c4 -6 1 -12 -7 -12z" />
    <glyph glyph-name="Ecaron" unicode="&#x11a;" horiz-adv-x="523" 
d="M465 0h-394v732h393c9 0 12 -8 12 -15v-77c0 -7 -4 -13 -12 -13h-274v-204h249c9 0 12 -7 12 -13v-76c0 -6 -4 -13 -12 -13h-249v-216h274c11 0 13 -8 13 -14v-78c0 -7 -4 -13 -12 -13zM304 811h-54c-12 0 -14 2 -20 11l-80 126c-4 6 -2 12 8 12h57c8 0 10 -3 14 -9
l49 -87l48 85c4 7 6 11 15 11h56c10 0 12 -6 8 -12l-83 -126c-4 -7 -8 -11 -18 -11z" />
    <glyph glyph-name="Edieresis" unicode="&#xcb;" horiz-adv-x="523" 
d="M465 0h-394v732h393c9 0 12 -8 12 -15v-77c0 -7 -4 -13 -12 -13h-274v-204h249c9 0 12 -7 12 -13v-76c0 -6 -4 -13 -12 -13h-249v-216h274c11 0 13 -8 13 -14v-78c0 -7 -4 -13 -12 -13zM209 823h-69c-9 0 -15 6 -15 17v88c0 9 5 17 15 17h69c10 0 16 -6 16 -17v-88
c0 -11 -6 -17 -16 -17zM403 823h-69c-9 0 -15 6 -15 17v88c0 9 5 17 15 17h69c9 0 16 -6 16 -17v-88c0 -11 -7 -17 -16 -17z" />
    <glyph glyph-name="Emacron" unicode="&#x112;" horiz-adv-x="523" 
d="M465 0h-394v732h393c9 0 12 -8 12 -15v-77c0 -7 -4 -13 -12 -13h-274v-204h249c9 0 12 -7 12 -13v-76c0 -6 -4 -13 -12 -13h-249v-216h274c11 0 13 -8 13 -14v-78c0 -7 -4 -13 -12 -13zM391 816h-241c-8 0 -12 7 -12 14v60c0 7 4 13 12 13h242c8 0 11 -7 11 -14v-59
c0 -7 -4 -14 -12 -14z" />
    <glyph glyph-name="Edotaccent" unicode="&#x116;" horiz-adv-x="523" 
d="M465 0h-394v732h393c9 0 12 -8 12 -15v-77c0 -7 -4 -13 -12 -13h-274v-204h249c9 0 12 -7 12 -13v-76c0 -6 -4 -13 -12 -13h-249v-216h274c11 0 13 -8 13 -14v-78c0 -7 -4 -13 -12 -13zM324 817h-103c-11 0 -17 5 -17 16v95c0 10 4 17 18 17h102c11 0 16 -6 16 -17v-95
c0 -9 -6 -16 -16 -16z" />
    <glyph glyph-name="Eogonek" unicode="&#x118;" horiz-adv-x="527" 
d="M463 -134l21 -28c4 -6 3 -10 -1 -14c-19 -19 -53 -41 -103 -41c-34 0 -104 20 -104 93c0 63 55 94 100 124h-305v732h393c9 0 12 -8 12 -15v-77c0 -7 -4 -13 -12 -13h-274v-204h249c9 0 12 -7 12 -13v-76c0 -6 -4 -13 -12 -13h-249v-216h274c11 0 13 -8 13 -14v-78
c0 -7 -4 -12 -11 -13c-21 -17 -41 -26 -66 -49c-27 -23 -40 -38 -40 -67c0 -23 15 -39 43 -39c20 0 37 12 47 21c5 5 8 4 13 0z" />
    <glyph glyph-name="Gbreve" unicode="&#x11e;" horiz-adv-x="643" 
d="M481 242v57h-129c-10 0 -13 7 -13 13v66c0 6 4 13 13 13h229c10 0 17 -5 17 -14v-148c0 -143 -108 -241 -268 -241c-173 0 -269 89 -269 244v267c0 152 103 243 269 243c154 0 221 -76 253 -167c6 -17 -1 -24 -12 -28l-75 -22c-11 -4 -21 -2 -26 13
c-19 61 -60 99 -139 99c-100 0 -151 -48 -151 -156v-236c0 -112 65 -152 152 -152c79 0 149 37 149 149zM212 939l58 -7c5 -1 8 -3 8 -12c1 -32 23 -54 52 -54c27 0 52 20 52 54c0 6 1 11 8 12c6 0 48 6 60 7c7 0 8 -5 8 -13c0 -66 -52 -122 -128 -122
c-81 0 -128 60 -128 124c0 7 1 12 10 11z" />
    <glyph glyph-name="Gdotaccent" unicode="&#x120;" horiz-adv-x="643" 
d="M481 242v57h-129c-10 0 -13 7 -13 13v66c0 6 4 13 13 13h229c10 0 17 -5 17 -14v-148c0 -143 -108 -241 -268 -241c-173 0 -269 89 -269 244v267c0 152 103 243 269 243c154 0 221 -76 253 -167c6 -17 -1 -24 -12 -28l-75 -22c-11 -4 -21 -2 -26 13
c-19 61 -60 99 -139 99c-100 0 -151 -48 -151 -156v-236c0 -112 65 -152 152 -152c79 0 149 37 149 149zM382 817h-103c-11 0 -17 5 -17 16v95c0 10 4 17 18 17h102c11 0 16 -6 16 -17v-95c0 -9 -6 -16 -16 -16z" />
    <glyph glyph-name="Gcommaaccent" unicode="&#x122;" horiz-adv-x="643" 
d="M481 242v57h-129c-10 0 -13 7 -13 13v66c0 6 4 13 13 13h229c10 0 17 -5 17 -14v-148c0 -143 -108 -241 -268 -241c-173 0 -269 89 -269 244v267c0 152 103 243 269 243c154 0 221 -76 253 -167c6 -17 -1 -24 -12 -28l-75 -22c-11 -4 -21 -2 -26 13
c-19 61 -60 99 -139 99c-100 0 -151 -48 -151 -156v-236c0 -112 65 -152 152 -152c79 0 149 37 149 149zM235 -324l-22 26c-7 7 -8 17 0 23c55 47 60 93 60 212c0 9 4 14 15 14h82c13 0 16 -5 16 -14c0 -141 -64 -228 -133 -264c-4 -3 -12 -3 -18 3z" />
    <glyph glyph-name="Igrave" unicode="&#xcc;" horiz-adv-x="272" 
d="M182 0h-93c-6 0 -13 4 -13 13v706c0 9 7 13 13 13h93c8 0 13 -5 13 -13v-706c0 -8 -5 -13 -13 -13zM156 805h-54c-6 0 -10 2 -12 6l-106 138c-5 7 -4 16 8 16h73c7 0 13 -1 18 -10l81 -137c5 -8 0 -13 -8 -13z" />
    <glyph glyph-name="Iacute" unicode="&#xcd;" horiz-adv-x="272" 
d="M182 0h-93c-6 0 -13 4 -13 13v706c0 9 7 13 13 13h93c8 0 13 -5 13 -13v-706c0 -8 -5 -13 -13 -13zM169 805h-54c-8 0 -12 5 -8 13l82 137c4 9 10 10 18 10h73c12 0 13 -9 7 -16l-105 -138c-3 -4 -7 -6 -13 -6z" />
    <glyph glyph-name="Icircumflex" unicode="&#xce;" horiz-adv-x="272" 
d="M182 0h-93c-6 0 -13 4 -13 13v706c0 9 7 13 13 13h93c8 0 13 -5 13 -13v-706c0 -8 -5 -13 -13 -13zM259 804h-59c-10 0 -12 3 -16 11l-47 84l-48 -86c-3 -6 -5 -9 -14 -9h-58c-11 0 -11 6 -8 12l82 126c7 9 8 11 20 11h53c11 0 14 -4 19 -11l82 -127c4 -6 1 -11 -6 -11z
" />
    <glyph glyph-name="Idieresis" unicode="&#xcf;" horiz-adv-x="272" 
d="M182 0h-93c-6 0 -13 4 -13 13v706c0 9 7 13 13 13h93c8 0 13 -5 13 -13v-706c0 -8 -5 -13 -13 -13zM73 823h-69c-9 0 -15 6 -15 17v88c0 9 5 17 15 17h69c10 0 16 -6 16 -17v-88c0 -11 -6 -17 -16 -17zM267 823h-69c-9 0 -15 6 -15 17v88c0 9 5 17 15 17h69
c9 0 16 -6 16 -17v-88c0 -11 -7 -17 -16 -17z" />
    <glyph glyph-name="Iogonek" unicode="&#x12e;" horiz-adv-x="252" 
d="M169 -134l21 -28c14 -18 -49 -55 -104 -55c-34 0 -104 20 -104 93c0 64 55 94 100 124c-9 1 -14 12 -14 24v713c0 16 25 13 41 13h60c7 0 15 -3 15 -14v-722c0 -9 -6 -14 -12 -14c-36 -27 -106 -66 -106 -116c0 -23 15 -39 43 -39c20 0 37 12 47 21c5 5 8 4 13 0z" />
    <glyph glyph-name="Imacron" horiz-adv-x="272" 
d="M182 0h-93c-6 0 -13 4 -13 13v706c0 9 7 13 13 13h93c8 0 13 -5 13 -13v-706c0 -8 -5 -13 -13 -13zM256 838h-241c-8 0 -12 6 -12 13v60c0 7 4 14 12 14h242c8 0 11 -8 11 -14v-60c0 -7 -4 -13 -12 -13z" />
    <glyph glyph-name="Idotaccent" unicode="&#x130;" horiz-adv-x="272" 
d="M182 0h-93c-6 0 -13 4 -13 13v706c0 9 7 13 13 13h93c8 0 13 -5 13 -13v-706c0 -8 -5 -13 -13 -13zM188 817h-103c-11 0 -17 5 -17 16v95c0 10 4 17 18 17h102c11 0 16 -6 16 -17v-95c0 -9 -6 -16 -16 -16z" />
    <glyph glyph-name="Kcommaaccent" unicode="&#x136;" horiz-adv-x="589" 
d="M575 0h-112c-8 0 -13 3 -16 9l-174 342l-83 -102v-236c0 -9 -6 -13 -12 -13h-94c-6 0 -13 4 -13 13v705c0 11 7 14 13 14h94c6 0 12 -4 12 -13v-315l252 316c5 7 10 12 19 12h106c11 0 12 -11 7 -17l-220 -279l229 -423c4 -8 -1 -13 -8 -13zM216 -323l-22 25
c-7 8 -8 17 0 24c55 47 60 92 60 212c0 9 3 14 15 14h82c12 0 15 -5 15 -14c0 -142 -64 -228 -132 -264c-5 -3 -12 -3 -18 3z" />
    <glyph glyph-name="Lacute" unicode="&#x139;" horiz-adv-x="503" 
d="M486 0h-415v720c0 8 7 12 13 12h94c6 0 12 -4 12 -12v-615h296c9 0 12 -6 12 -15v-77c0 -7 -4 -13 -12 -13zM160 804h-53c-8 0 -13 5 -8 13l81 137c5 9 11 10 18 10h73c12 0 13 -9 8 -16l-106 -138c-3 -4 -7 -6 -13 -6z" />
    <glyph glyph-name="Lcaron" unicode="&#x13d;" horiz-adv-x="503" 
d="M486 0h-415v720c0 8 7 12 13 12h94c6 0 12 -4 12 -12v-615h296c9 0 12 -6 12 -15v-77c0 -7 -4 -13 -12 -13zM320 457l-23 25c-7 8 -7 17 1 24c55 46 59 92 59 212c0 8 4 14 15 14h82c13 0 16 -6 16 -14c0 -142 -64 -228 -132 -265c-5 -2 -13 -3 -18 4z" />
    <glyph glyph-name="Lcommaaccent" unicode="&#x13b;" horiz-adv-x="503" 
d="M486 0h-415v720c0 8 7 12 13 12h94c6 0 12 -4 12 -12v-615h296c9 0 12 -6 12 -15v-77c0 -7 -4 -13 -12 -13zM192 -323l-23 25c-7 8 -7 17 1 24c55 47 59 92 59 212c0 9 4 14 15 14h82c13 0 16 -5 16 -14c0 -142 -64 -228 -132 -264c-5 -3 -13 -3 -18 3z" />
    <glyph glyph-name="Lslash" unicode="&#x141;" horiz-adv-x="516" 
d="M499 0h-416v276l-36 -20c-4 -2 -13 -5 -18 4l-29 54c-5 10 -5 18 4 23l79 43v340c0 8 7 12 13 12h94c6 0 13 -4 13 -12v-280l96 51c5 3 12 2 16 -6l30 -58c3 -8 2 -13 -3 -16l-139 -74v-232h295c9 0 13 -6 13 -15v-77c0 -7 -4 -13 -12 -13z" />
    <glyph glyph-name="Nacute" unicode="&#x143;" horiz-adv-x="690" 
d="M605 0h-127c-10 0 -15 7 -18 13l-189 380c-36 73 -63 140 -93 212h-3c6 -63 10 -126 10 -194v-398c0 -7 -6 -13 -12 -13h-90c-6 0 -12 5 -12 13v703c0 8 2 16 14 16h136c9 0 12 -5 15 -11l181 -371c39 -77 71 -154 95 -224h3c-6 66 -10 152 -10 216v378c0 5 5 12 12 12
h90c6 0 12 -6 12 -12v-707c0 -8 -4 -13 -14 -13zM390 805h-54c-8 0 -12 5 -8 13l82 138c4 8 10 9 18 9h73c12 0 13 -9 7 -16l-105 -138c-3 -4 -7 -6 -13 -6z" />
    <glyph glyph-name="Ncaron" unicode="&#x147;" horiz-adv-x="690" 
d="M605 0h-127c-10 0 -15 7 -18 13l-189 380c-36 73 -63 140 -93 212h-3c6 -63 10 -126 10 -194v-398c0 -7 -6 -13 -12 -13h-90c-6 0 -12 5 -12 13v703c0 8 2 16 14 16h136c9 0 12 -5 15 -11l181 -371c39 -77 71 -154 95 -224h3c-6 66 -10 152 -10 216v378c0 5 5 12 12 12
h90c6 0 12 -6 12 -12v-707c0 -8 -4 -13 -14 -13zM388 804h-54c-12 0 -13 1 -20 10l-79 127c-4 6 -3 11 7 11h57c9 0 11 -3 14 -9l49 -86l48 85c4 7 6 10 16 10h55c10 0 12 -5 8 -11l-82 -127c-5 -7 -8 -10 -19 -10z" />
    <glyph glyph-name="Ntilde" unicode="&#xd1;" horiz-adv-x="690" 
d="M605 0h-127c-12 0 -20 16 -25 26l-175 354c-40 77 -68 149 -100 225h-3c6 -68 10 -138 10 -209v-383c0 -7 -6 -13 -12 -13h-90c-6 0 -12 5 -12 13v703c0 8 2 16 14 16h136c9 0 12 -5 15 -11l174 -358c38 -79 74 -163 102 -237h3c-7 77 -10 171 -10 245v349
c0 5 5 12 12 12h90c6 0 12 -6 12 -12v-707c0 -8 -4 -13 -14 -13zM480 937l38 -40c4 -5 2 -10 -1 -14c-18 -28 -52 -63 -96 -63c-58 0 -82 43 -116 43c-23 0 -37 -16 -48 -36c-3 -4 -7 -5 -12 0l-42 38c-4 4 -3 8 -1 12c14 22 46 59 88 65c7 2 13 2 20 1
c50 -2 79 -42 110 -42c41 0 44 53 60 36z" />
    <glyph glyph-name="Ncommaaccent" unicode="&#x145;" horiz-adv-x="690" 
d="M605 0h-127c-10 0 -15 7 -18 13l-189 380c-36 73 -63 140 -93 212h-3c6 -63 10 -126 10 -194v-398c0 -7 -6 -13 -12 -13h-90c-6 0 -12 5 -12 13v703c0 8 2 16 14 16h136c9 0 12 -5 15 -11l181 -371c39 -77 71 -154 95 -224h3c-6 66 -10 152 -10 216v378c0 5 5 12 12 12
h90c6 0 12 -6 12 -12v-707c0 -8 -4 -13 -14 -13zM255 -323l-22 25c-7 8 -8 17 0 24c55 47 60 92 60 212c0 9 3 14 15 14h82c12 0 15 -5 15 -14c0 -142 -64 -228 -132 -264c-5 -3 -12 -3 -18 3z" />
    <glyph glyph-name="Ograve" unicode="&#xd2;" horiz-adv-x="673" 
d="M612 491v-231c0 -166 -82 -272 -276 -272c-180 0 -275 100 -275 252v230c0 160 82 272 275 272c180 0 276 -103 276 -251zM493 252v225c0 98 -49 160 -157 160s-156 -60 -156 -159v-225c0 -98 48 -160 156 -160s157 62 157 159zM364 804h-54c-6 0 -10 3 -12 6l-106 139
c-5 7 -4 15 8 15h73c7 0 13 -1 18 -9l81 -137c5 -8 0 -14 -8 -14z" />
    <glyph glyph-name="Oacute" unicode="&#xd3;" horiz-adv-x="673" 
d="M612 491v-231c0 -166 -82 -272 -276 -272c-180 0 -275 100 -275 252v230c0 160 82 272 275 272c180 0 276 -103 276 -251zM493 252v225c0 98 -49 160 -157 160s-156 -60 -156 -159v-225c0 -98 48 -160 156 -160s157 62 157 159zM362 805h-54c-8 0 -13 5 -8 13l81 137
c5 9 11 10 19 10h73c12 0 12 -9 7 -16l-105 -138c-3 -4 -7 -6 -13 -6z" />
    <glyph glyph-name="Ocircumflex" unicode="&#xd4;" horiz-adv-x="673" 
d="M612 491v-231c0 -166 -82 -272 -276 -272c-180 0 -275 100 -275 252v230c0 160 82 272 275 272c180 0 276 -103 276 -251zM493 252v225c0 98 -49 160 -157 160s-156 -60 -156 -159v-225c0 -98 48 -160 156 -160s157 62 157 159zM461 804h-58c-10 0 -12 3 -17 11l-46 84
l-48 -86c-4 -6 -6 -9 -14 -9h-59c-10 0 -11 6 -8 12l83 126c6 9 8 11 20 11h53c10 0 14 -4 18 -11l83 -127c4 -6 1 -11 -7 -11z" />
    <glyph glyph-name="Otilde" unicode="&#xd5;" horiz-adv-x="673" 
d="M612 491v-231c0 -166 -82 -272 -276 -272c-180 0 -275 100 -275 252v230c0 160 82 272 275 272c180 0 276 -103 276 -251zM493 252v225c0 98 -49 160 -157 160s-156 -60 -156 -159v-225c0 -98 48 -160 156 -160s157 62 157 159zM460 937l38 -40c4 -5 2 -10 -1 -14
c-19 -28 -53 -63 -96 -63c-58 0 -82 43 -116 43c-23 0 -37 -15 -48 -36c-3 -4 -7 -5 -13 0l-42 38c-3 4 -2 8 0 12c13 23 45 59 87 66c7 1 14 1 21 1c50 -3 79 -43 110 -43c40 0 44 53 60 36z" />
    <glyph glyph-name="Odieresis" unicode="&#xd6;" horiz-adv-x="673" 
d="M612 491v-231c0 -166 -82 -272 -276 -272c-180 0 -275 100 -275 252v230c0 160 82 272 275 272c180 0 276 -103 276 -251zM493 252v225c0 98 -49 160 -157 160s-156 -60 -156 -159v-225c0 -98 48 -160 156 -160s157 62 157 159zM276 823h-69c-9 0 -15 6 -15 17v88
c0 9 4 17 15 17h69c9 0 16 -6 16 -17v-88c0 -11 -7 -17 -16 -17zM470 823h-70c-8 0 -15 6 -15 17v88c0 9 5 17 15 17h70c9 0 16 -6 16 -17v-88c0 -11 -7 -17 -16 -17z" />
    <glyph glyph-name="Omacron" unicode="&#x14c;" horiz-adv-x="673" 
d="M612 491v-231c0 -166 -82 -272 -276 -272c-180 0 -275 100 -275 252v230c0 160 82 272 275 272c180 0 276 -103 276 -251zM493 252v225c0 98 -49 160 -157 160s-156 -60 -156 -159v-225c0 -98 48 -160 156 -160s157 62 157 159zM456 829h-241c-8 0 -12 7 -12 13v61
c0 7 4 13 12 13h242c8 0 11 -7 11 -14v-60c0 -6 -4 -13 -12 -13z" />
    <glyph glyph-name="Ohungarumlaut" unicode="&#x150;" horiz-adv-x="673" 
d="M612 491v-231c0 -166 -82 -272 -276 -272c-180 0 -275 100 -275 252v230c0 160 82 272 275 272c180 0 276 -103 276 -251zM493 252v225c0 98 -49 160 -157 160s-156 -60 -156 -159v-225c0 -98 48 -160 156 -160s157 62 157 159zM439 804h-53c-8 0 -13 5 -8 13l81 138
c5 8 11 9 18 9h73c12 0 13 -9 8 -16l-106 -138c-3 -4 -7 -6 -13 -6zM289 804h-54c-8 0 -13 5 -8 13l80 138c5 8 11 9 18 9h73c12 0 13 -9 8 -16l-105 -138c-2 -4 -6 -6 -12 -6z" />
    <glyph glyph-name="Oslash" unicode="&#xd8;" horiz-adv-x="673" 
d="M142 -43h-59c-14 0 -13 8 -7 17l50 87c-43 44 -65 105 -65 179v250c0 149 95 252 275 252c62 0 115 -12 157 -36l28 49c5 9 7 11 20 11h58c11 0 12 -6 9 -11l-54 -96c38 -44 58 -101 58 -168v-251c0 -152 -96 -252 -276 -252c-58 0 -107 11 -147 30l-28 -50
c-5 -8 -8 -11 -19 -11zM192 178l246 431c-25 18 -59 28 -102 28c-108 0 -156 -60 -156 -159v-225c0 -28 4 -53 12 -75zM493 252v225c0 21 -3 41 -9 59l-239 -421c23 -14 54 -22 91 -22c108 0 157 62 157 159z" />
    <glyph glyph-name="OE" unicode="&#x152;" horiz-adv-x="945" 
d="M886 0h-393v53c-30 -39 -84 -65 -157 -65c-180 0 -275 100 -275 252v250c0 149 95 252 275 252c68 0 121 -22 157 -56v46h393c8 0 12 -8 12 -15v-77c0 -7 -4 -13 -12 -13h-274v-204h249c9 0 12 -7 12 -13v-76c0 -6 -4 -13 -12 -13h-249v-216h274c11 0 12 -8 12 -14v-78
c0 -7 -4 -13 -12 -13zM493 252v228c-1 96 -50 157 -157 157c-108 0 -156 -60 -156 -159v-225c0 -98 48 -160 156 -160s157 62 157 159z" />
    <glyph glyph-name="Racute" unicode="&#x154;" horiz-adv-x="594" 
d="M424 490v25c0 78 -34 113 -125 113h-109v-253h111c89 0 123 40 123 115zM558 0h-111c-8 0 -13 3 -16 9l-132 263h-109v-259c0 -8 -5 -13 -12 -13h-94c-7 0 -13 5 -13 13v719h246c161 0 227 -84 227 -206v-47c0 -88 -34 -156 -124 -191l146 -275c4 -8 -2 -13 -8 -13z
M301 804h-54c-8 0 -13 5 -8 13l81 137c5 9 11 10 19 10h73c12 0 12 -9 7 -16l-105 -138c-3 -4 -7 -6 -13 -6z" />
    <glyph glyph-name="Rcaron" unicode="&#x158;" horiz-adv-x="594" 
d="M314 811h-54c-12 0 -13 2 -20 11l-79 126c-4 6 -3 12 7 12h57c9 0 11 -3 14 -9l49 -87l48 85c4 8 6 11 16 11h55c10 0 12 -6 8 -12l-82 -126c-5 -7 -8 -11 -19 -11zM424 490v25c0 78 -34 113 -125 113h-109v-253h111c89 0 123 40 123 115zM558 0h-111c-8 0 -13 3 -16 9
l-132 263h-109v-259c0 -8 -5 -13 -12 -13h-94c-7 0 -13 5 -13 13v719h246c161 0 227 -84 227 -206v-47c0 -88 -34 -156 -124 -191l146 -275c4 -8 -2 -13 -8 -13z" />
    <glyph glyph-name="Rcommaaccent" unicode="&#x156;" horiz-adv-x="594" 
d="M424 490v25c0 78 -34 113 -125 113h-109v-253h111c89 0 123 40 123 115zM558 0h-111c-8 0 -13 3 -16 9l-132 263h-109v-259c0 -8 -5 -13 -12 -13h-94c-7 0 -13 5 -13 13v719h246c161 0 227 -84 227 -206v-47c0 -88 -34 -156 -124 -191l146 -275c4 -8 -2 -13 -8 -13z
M215 -323l-22 25c-7 8 -8 17 0 24c55 47 60 92 60 212c0 9 3 14 15 14h82c12 0 15 -5 15 -14c0 -142 -64 -228 -132 -264c-5 -3 -12 -3 -18 3z" />
    <glyph glyph-name="Sacute" unicode="&#x15a;" horiz-adv-x="551" 
d="M303 804h-54c-8 0 -12 5 -8 13l82 138c4 8 10 9 18 9h73c12 0 13 -9 7 -16l-105 -138c-3 -4 -7 -6 -13 -6zM42 173l72 24c11 4 19 3 24 -13c14 -57 57 -94 138 -94c56 0 118 28 118 98c0 64 -40 91 -139 136c-132 59 -205 108 -205 226c0 117 97 192 221 192
c138 0 207 -70 234 -150c4 -10 0 -18 -11 -22l-73 -26c-10 -4 -17 0 -21 10c-21 58 -66 86 -127 86c-71 0 -106 -33 -106 -90c0 -60 55 -82 161 -132c115 -53 186 -106 186 -224c1 -120 -94 -206 -241 -206c-149 0 -219 78 -242 163c-3 11 2 19 11 22z" />
    <glyph glyph-name="Scaron" unicode="&#x160;" horiz-adv-x="551" 
d="M304 803h-53c-13 0 -14 2 -20 11l-80 126c-4 6 -3 12 8 12h56c9 0 11 -3 14 -9l49 -87l48 85c4 7 6 11 16 11h55c10 0 12 -6 8 -12l-82 -126c-5 -7 -8 -11 -19 -11zM42 173l72 24c11 4 19 3 24 -13c14 -57 57 -94 138 -94c56 0 118 28 118 98c0 64 -40 91 -139 136
c-132 59 -205 108 -205 226c0 117 97 192 221 192c138 0 207 -70 234 -150c4 -10 0 -18 -11 -22l-73 -26c-10 -4 -17 0 -21 10c-21 58 -66 86 -127 86c-71 0 -106 -33 -106 -90c0 -60 55 -82 161 -132c115 -53 186 -106 186 -224c1 -120 -94 -206 -241 -206
c-149 0 -219 78 -242 163c-3 11 2 19 11 22z" />
    <glyph glyph-name="Scedilla" unicode="&#x15e;" horiz-adv-x="551" 
d="M396 -117v-8c0 -42 -38 -84 -109 -84c-52 0 -88 21 -103 32c-4 3 -9 6 -4 16l17 32c3 6 8 6 12 4c13 -9 46 -25 71 -25c28 0 39 13 39 28v3c0 22 -25 39 -79 32v77c-127 11 -188 82 -209 161c-3 11 2 19 11 22l72 24c11 4 19 3 24 -13c14 -57 57 -94 138 -94
c56 0 118 28 118 98c0 64 -40 91 -139 136c-132 59 -205 108 -205 226c0 117 97 192 221 192c138 0 207 -70 234 -150c4 -10 0 -18 -11 -22l-73 -26c-10 -4 -17 0 -21 10c-21 58 -66 86 -127 86c-71 0 -106 -33 -106 -90c0 -60 55 -82 161 -132c115 -53 186 -106 186 -224
c1 -110 -78 -190 -202 -203v-30c54 0 84 -37 84 -78z" />
    <glyph glyph-name="Scommaaccent" unicode="&#x218;" horiz-adv-x="551" 
d="M177 -324l-22 25c-7 8 -8 17 0 24c55 47 60 92 60 212c0 9 3 14 15 14h82c12 0 15 -5 15 -14c0 -142 -64 -228 -132 -264c-5 -3 -12 -3 -18 3zM42 173l72 24c11 4 19 3 24 -13c14 -57 57 -94 138 -94c56 0 118 28 118 98c0 64 -40 91 -139 136c-132 59 -205 108 -205 226
c0 117 97 192 221 192c138 0 207 -70 234 -150c4 -10 0 -18 -11 -22l-73 -26c-10 -4 -17 0 -21 10c-21 58 -66 86 -127 86c-71 0 -106 -33 -106 -90c0 -60 55 -82 161 -132c115 -53 186 -106 186 -224c1 -120 -94 -206 -241 -206c-149 0 -219 78 -242 163c-3 11 2 19 11 22z
" />
    <glyph glyph-name="Tcaron" unicode="&#x164;" horiz-adv-x="529" 
d="M311 0h-95c-6 0 -12 5 -12 13v615h-197c-9 0 -12 7 -12 13v77c0 6 3 14 12 14h515c8 0 12 -8 12 -14v-77c0 -6 -4 -13 -12 -13h-198v-615c0 -8 -6 -13 -13 -13zM288 811h-53c-12 0 -14 2 -20 11l-80 126c-4 6 -2 12 8 12h57c8 0 10 -3 14 -9l48 -87l49 85c3 7 6 11 15 11
h56c9 0 12 -6 8 -12l-83 -126c-4 -7 -8 -11 -19 -11z" />
    <glyph glyph-name="Tcommaaccent" unicode="&#x162;" horiz-adv-x="529" 
d="M311 0h-95c-6 0 -12 5 -12 13v615h-197c-9 0 -12 7 -12 13v77c0 6 3 14 12 14h515c8 0 12 -8 12 -14v-77c0 -6 -4 -13 -12 -13h-198v-615c0 -8 -6 -13 -13 -13zM170 -323l-23 25c-7 8 -7 17 1 24c55 47 59 92 59 212c0 9 4 14 15 14h82c13 0 16 -5 16 -14
c0 -142 -64 -228 -132 -264c-5 -3 -13 -3 -18 3z" />
    <glyph glyph-name="Ugrave" unicode="&#xd9;" horiz-adv-x="658" 
d="M477 237v482c0 6 5 13 11 13h92c7 0 13 -6 13 -13v-502c0 -136 -99 -229 -265 -229c-175 0 -263 93 -263 229v502c0 6 5 13 11 13h96c7 0 12 -6 12 -13v-482c0 -92 44 -144 144 -144s149 52 149 144zM358 804h-54c-6 0 -10 3 -13 6l-105 139c-5 7 -5 15 7 15h73
c8 0 14 -1 19 -9l81 -137c5 -8 0 -14 -8 -14z" />
    <glyph glyph-name="Uacute" unicode="&#xda;" horiz-adv-x="658" 
d="M477 237v482c0 6 5 13 11 13h92c7 0 13 -6 13 -13v-502c0 -136 -99 -229 -265 -229c-175 0 -263 93 -263 229v502c0 6 5 13 11 13h96c7 0 12 -6 12 -13v-482c0 -92 44 -144 144 -144s149 52 149 144zM357 804h-54c-8 0 -12 6 -8 14l82 137c4 8 10 9 18 9h73
c12 0 13 -8 7 -15l-105 -139c-3 -3 -7 -6 -13 -6z" />
    <glyph glyph-name="Ucircumflex" unicode="&#xdb;" horiz-adv-x="658" 
d="M477 237v482c0 6 5 13 11 13h92c7 0 13 -6 13 -13v-502c0 -136 -99 -229 -265 -229c-175 0 -263 93 -263 229v502c0 6 5 13 11 13h96c7 0 12 -6 12 -13v-482c0 -92 44 -144 144 -144s149 52 149 144zM453 811h-58c-10 0 -13 4 -17 11l-47 84l-47 -85
c-4 -6 -6 -10 -14 -10h-59c-10 0 -11 6 -8 12l83 127c6 9 7 10 20 10h52c11 0 15 -3 19 -10l83 -127c4 -6 1 -12 -7 -12z" />
    <glyph glyph-name="Udieresis" unicode="&#xdc;" horiz-adv-x="658" 
d="M269 823h-70c-8 0 -15 6 -15 17v88c0 9 5 17 15 17h70c9 0 16 -6 16 -17v-88c0 -11 -7 -17 -16 -17zM462 823h-69c-9 0 -15 6 -15 17v88c0 9 5 17 15 17h69c10 0 16 -6 16 -17v-88c0 -11 -6 -17 -16 -17zM477 237v482c0 6 5 13 11 13h92c7 0 13 -6 13 -13v-502
c0 -136 -99 -229 -265 -229c-175 0 -263 93 -263 229v502c0 6 5 13 11 13h96c7 0 12 -6 12 -13v-482c0 -92 44 -144 144 -144s149 52 149 144z" />
    <glyph glyph-name="Umacron" unicode="&#x16a;" horiz-adv-x="658" 
d="M477 237v482c0 6 5 13 11 13h92c7 0 13 -6 13 -13v-502c0 -136 -99 -229 -265 -229c-175 0 -263 93 -263 229v502c0 6 5 13 11 13h96c7 0 12 -6 12 -13v-482c0 -92 44 -144 144 -144s149 52 149 144zM450 829h-241c-8 0 -12 7 -12 13v61c0 7 4 13 12 13h242
c8 0 11 -7 11 -14v-60c0 -6 -4 -13 -12 -13z" />
    <glyph glyph-name="Uring" unicode="&#x16e;" horiz-adv-x="658" 
d="M477 237v482c0 6 5 13 11 13h92c7 0 13 -6 13 -13v-502c0 -136 -99 -229 -265 -229c-175 0 -263 93 -263 229v502c0 6 5 13 11 13h96c7 0 12 -6 12 -13v-482c0 -92 44 -144 144 -144s149 52 149 144zM428 870c0 -53 -42 -91 -96 -91s-95 38 -95 91c0 54 42 92 95 92
c54 0 96 -37 96 -92zM332 831c24 0 41 16 41 39c0 24 -17 40 -41 40c-23 0 -40 -17 -40 -40s17 -39 40 -39z" />
    <glyph glyph-name="Uhungarumlaut" unicode="&#x170;" horiz-adv-x="658" 
d="M477 237v482c0 6 5 13 11 13h92c7 0 13 -6 13 -13v-502c0 -136 -99 -229 -265 -229c-175 0 -263 93 -263 229v502c0 6 5 13 11 13h96c7 0 12 -6 12 -13v-482c0 -92 44 -144 144 -144s149 52 149 144zM283 804h-53c-8 0 -13 6 -8 14l81 137c5 8 11 9 18 9h73
c12 0 13 -8 8 -15l-106 -139c-3 -3 -7 -6 -13 -6zM445 804h-53c-8 0 -13 6 -8 14l81 137c5 8 11 9 18 9h73c12 0 13 -8 8 -15l-106 -139c-3 -3 -7 -6 -13 -6z" />
    <glyph glyph-name="Uogonek" unicode="&#x172;" horiz-adv-x="658" 
d="M414 -134l21 -28c15 -18 -48 -55 -103 -55c-34 0 -105 20 -105 93c0 55 42 86 83 113c-174 5 -245 106 -245 241v489c0 6 5 13 11 13h96c7 0 12 -6 12 -13v-482c0 -92 44 -144 144 -144c109 0 149 57 149 157v469c0 16 25 13 39 13h64c7 0 13 -6 13 -13v-502
c0 -110 -64 -192 -177 -218c-39 -31 -104 -64 -104 -115c0 -23 15 -39 42 -39c21 0 37 12 48 21c4 5 8 4 12 0z" />
    <glyph glyph-name="Wgrave" unicode="&#x1e80;" horiz-adv-x="878" 
d="M685 0h-109c-9 0 -14 5 -16 13l-82 350c-19 80 -29 131 -43 203h-1c-11 -72 -21 -123 -39 -203l-79 -350c-1 -6 -8 -13 -18 -13h-108c-9 0 -14 5 -16 13l-172 706c-2 8 3 13 9 13h97c6 0 12 -2 14 -12l67 -307c23 -101 44 -208 56 -311h2c13 103 33 208 56 310l72 308
c2 8 6 12 15 12h87c9 0 13 -4 15 -12l75 -306c25 -100 49 -210 64 -312h2c14 103 35 209 57 312l66 307c2 8 7 11 13 11h93c8 0 12 -5 10 -14l-171 -705c-1 -6 -7 -13 -16 -13zM448 804h-54c-6 0 -10 2 -13 6l-105 138c-5 7 -5 16 7 16h73c8 0 14 -1 19 -10l81 -137
c5 -8 0 -13 -8 -13z" />
    <glyph glyph-name="Wacute" unicode="&#x1e82;" horiz-adv-x="878" 
d="M685 0h-109c-9 0 -14 5 -16 13l-82 350c-19 80 -29 131 -43 203h-1c-11 -72 -21 -123 -39 -203l-79 -350c-1 -6 -8 -13 -18 -13h-108c-9 0 -14 5 -16 13l-172 706c-2 8 3 13 9 13h97c6 0 12 -2 14 -12l67 -307c23 -101 44 -208 56 -311h2c13 103 33 208 56 310l72 308
c2 8 6 12 15 12h87c9 0 13 -4 15 -12l75 -306c25 -100 49 -210 64 -312h2c14 103 35 209 57 312l66 307c2 8 7 11 13 11h93c8 0 12 -5 10 -14l-171 -705c-1 -6 -7 -13 -16 -13zM466 804h-54c-8 0 -13 5 -8 13l81 138c5 8 11 9 19 9h73c12 0 12 -9 7 -16l-105 -138
c-3 -4 -7 -6 -13 -6z" />
    <glyph glyph-name="Wcircumflex" unicode="&#x174;" horiz-adv-x="878" 
d="M685 0h-109c-9 0 -14 5 -16 13l-82 350c-19 80 -29 131 -43 203h-1c-11 -72 -21 -123 -39 -203l-79 -350c-1 -6 -8 -13 -18 -13h-108c-9 0 -14 5 -16 13l-172 706c-2 8 3 13 9 13h97c6 0 12 -2 14 -12l67 -307c23 -101 44 -208 56 -311h2c13 103 33 208 56 310l72 308
c2 8 6 12 15 12h87c9 0 13 -4 15 -12l75 -306c25 -100 49 -210 64 -312h2c14 103 35 209 57 312l66 307c2 8 7 11 13 11h93c8 0 12 -5 10 -14l-171 -705c-1 -6 -7 -13 -16 -13zM560 805h-58c-10 0 -12 4 -17 11l-46 84l-48 -86c-4 -6 -6 -9 -14 -9h-59c-10 0 -11 6 -8 12
l83 126c6 9 8 11 20 11h53c10 0 14 -4 18 -11l83 -127c4 -6 1 -11 -7 -11z" />
    <glyph glyph-name="Wdieresis" unicode="&#x1e84;" horiz-adv-x="878" 
d="M685 0h-109c-9 0 -14 5 -16 13l-82 350c-19 80 -29 131 -43 203h-1c-11 -72 -21 -123 -39 -203l-79 -350c-1 -6 -8 -13 -18 -13h-108c-9 0 -14 5 -16 13l-172 706c-2 8 3 13 9 13h97c6 0 12 -2 14 -12l67 -307c23 -101 44 -208 56 -311h2c13 103 33 208 56 310l72 308
c2 8 6 12 15 12h87c9 0 13 -4 15 -12l75 -306c25 -100 49 -210 64 -312h2c14 103 35 209 57 312l66 307c2 8 7 11 13 11h93c8 0 12 -5 10 -14l-171 -705c-1 -6 -7 -13 -16 -13zM372 823h-69c-9 0 -15 7 -15 17v88c0 9 5 17 15 17h69c10 0 16 -6 16 -17v-88
c0 -11 -6 -17 -16 -17zM566 823h-69c-9 0 -15 7 -15 17v88c0 9 5 17 15 17h69c9 0 16 -6 16 -17v-88c0 -11 -7 -17 -16 -17z" />
    <glyph glyph-name="Ygrave" unicode="&#x1ef2;" horiz-adv-x="575" 
d="M336 0h-96c-5 0 -12 4 -12 13v279l-230 426c-4 7 -2 14 6 14h108c8 0 10 -3 13 -9l164 -322l161 322c4 7 8 9 14 9h106c8 0 10 -9 7 -14l-230 -425v-280c0 -8 -5 -13 -11 -13zM314 804h-54c-6 0 -10 2 -12 6l-106 138c-5 7 -4 16 8 16h73c7 0 13 -1 18 -9l81 -138
c5 -8 0 -13 -8 -13z" />
    <glyph glyph-name="Yacute" unicode="&#xdd;" horiz-adv-x="575" 
d="M336 0h-96c-5 0 -12 4 -12 13v279l-230 426c-4 7 -2 14 6 14h108c8 0 10 -3 13 -9l164 -322l161 322c4 7 8 9 14 9h106c8 0 10 -9 7 -14l-230 -425v-280c0 -8 -5 -13 -11 -13zM323 804h-54c-8 0 -13 6 -8 14l81 137c5 8 11 9 18 9h73c12 0 13 -8 8 -15l-106 -139
c-2 -3 -6 -6 -12 -6z" />
    <glyph glyph-name="Ycircumflex" unicode="&#x176;" horiz-adv-x="575" 
d="M336 0h-96c-5 0 -12 4 -12 13v279l-230 426c-4 7 -2 14 6 14h108c8 0 10 -3 13 -9l164 -322l161 322c4 7 8 9 14 9h106c8 0 10 -9 7 -14l-230 -425v-280c0 -8 -5 -13 -11 -13zM413 799h-58c-10 0 -13 3 -17 10l-47 85l-47 -86c-4 -6 -6 -9 -14 -9h-59c-10 0 -11 5 -8 11
l83 127c6 9 7 10 20 10h52c11 0 15 -3 19 -10l83 -127c4 -6 1 -11 -7 -11z" />
    <glyph glyph-name="Ydieresis" unicode="&#x178;" horiz-adv-x="575" 
d="M336 0h-96c-5 0 -12 4 -12 13v279l-230 426c-4 7 -2 14 6 14h108c8 0 10 -3 13 -9l164 -322l161 322c4 7 8 9 14 9h106c8 0 10 -9 7 -14l-230 -425v-280c0 -8 -5 -13 -11 -13zM229 823h-69c-9 0 -15 6 -15 17v88c0 9 4 17 15 17h69c9 0 16 -6 16 -17v-88
c0 -11 -7 -17 -16 -17zM423 823h-70c-8 0 -15 6 -15 17v88c0 9 5 17 15 17h70c9 0 16 -6 16 -17v-88c0 -11 -7 -17 -16 -17z" />
    <glyph glyph-name="Zacute" unicode="&#x179;" horiz-adv-x="557" 
d="M519 0h-468c-5 0 -11 3 -13 10l-17 60l360 557h-309c-8 0 -13 6 -13 12v79c0 6 4 14 13 14h434c8 0 12 -4 14 -13l15 -54l-361 -560h345c7 0 12 -5 12 -14v-79c0 -6 -4 -12 -12 -12zM317 804h-54c-8 0 -13 5 -8 13l81 137c5 9 11 10 18 10h73c12 0 13 -9 8 -16l-106 -138
c-2 -4 -6 -6 -12 -6z" />
    <glyph glyph-name="Zcaron" unicode="&#x17d;" horiz-adv-x="556" 
d="M518 0h-468c-5 0 -11 3 -13 10l-16 60l359 557h-308c-9 0 -13 6 -13 12v79c0 6 3 14 13 14h433c8 0 12 -4 15 -13l15 -54l-361 -560h344c7 0 12 -5 12 -14v-79c0 -6 -4 -12 -12 -12zM334 808h-54c-12 0 -14 2 -20 11l-80 126c-4 6 -2 12 8 12h57c8 0 10 -3 14 -9l49 -87
l48 85c4 8 6 11 15 11h56c10 0 12 -6 8 -12l-83 -126c-4 -7 -8 -11 -18 -11z" />
    <glyph glyph-name="Zdotaccent" unicode="&#x17b;" horiz-adv-x="557" 
d="M519 0h-468c-5 0 -11 3 -13 10l-17 60l360 557h-309c-8 0 -13 6 -13 12v79c0 6 4 14 13 14h434c8 0 12 -4 14 -13l15 -54l-361 -560h345c7 0 12 -5 12 -14v-79c0 -6 -4 -12 -12 -12zM351 817h-104c-10 0 -17 5 -17 16v95c0 10 5 17 18 17h102c12 0 17 -6 17 -17v-95
c0 -9 -7 -16 -16 -16z" />
    <glyph glyph-name="Eth" unicode="&#xd0;" horiz-adv-x="644" 
d="M327 0h-256v326h-47c-10 0 -14 5 -14 14v67c0 6 3 14 12 14h49v311h256c173 0 256 -106 256 -244v-251c0 -135 -84 -237 -256 -237zM463 256v216c0 95 -42 155 -155 155h-118v-206h147c10 0 12 -8 12 -14v-67c0 -9 -4 -14 -13 -14h-146v-221h118c113 0 155 56 155 151z
" />
    <glyph glyph-name="Thorn" unicode="&#xde;" horiz-adv-x="567" 
d="M294 124h-104v-111c0 -8 -5 -13 -13 -13h-93c-6 0 -13 4 -13 13v706c0 9 7 13 13 13h93c7 0 13 -5 13 -13v-105h102c153 0 244 -69 244 -221v-50c0 -146 -97 -219 -242 -219zM417 346v41c0 92 -53 123 -136 123h-91v-282h94c90 0 133 36 133 118z" />
    <glyph glyph-name="a" unicode="a" horiz-adv-x="532" 
d="M355 145v101c-160 6 -203 -23 -203 -85v-4c0 -41 30 -73 79 -73c50 0 93 21 124 61zM454 0h-82c-7 0 -14 2 -14 13v53c-34 -41 -81 -77 -158 -77c-98 0 -163 69 -163 158v6c0 113 77 183 318 166v28c0 80 -29 115 -98 115c-51 0 -83 -28 -97 -71c-5 -13 -15 -12 -23 -8
l-60 31c-8 4 -13 10 -9 19c37 81 94 124 201 124c118 0 199 -72 199 -204v-340c0 -11 -6 -13 -14 -13z" />
    <glyph glyph-name="b" unicode="b" horiz-adv-x="589" 
d="M422 217v105c0 91 -36 139 -111 139c-63 0 -127 -51 -127 -133v-114c0 -72 46 -130 123 -130c62 0 115 31 115 133zM537 341v-136c0 -143 -98 -216 -207 -216c-86 0 -130 41 -150 75v-51c0 -8 -5 -13 -12 -13h-87c-6 0 -13 4 -13 13v725c0 8 7 12 13 12h89
c7 0 14 -4 14 -12v-271c28 38 86 90 165 90c116 0 188 -78 188 -216z" />
    <glyph glyph-name="c" unicode="c" horiz-adv-x="519" 
d="M404 169l59 -31c10 -5 16 -10 12 -23c-29 -76 -93 -126 -203 -126c-127 0 -221 71 -221 216v137c0 142 103 215 223 215c108 0 183 -57 204 -157c2 -10 -1 -17 -12 -20l-72 -19c-10 -2 -18 -3 -21 11c-8 46 -33 90 -99 90c-63 0 -107 -37 -107 -129v-126
c0 -86 42 -123 109 -123c66 0 92 40 103 76c5 15 14 14 25 9z" />
    <glyph glyph-name="d" unicode="d" horiz-adv-x="590" 
d="M406 219v122c0 74 -56 121 -121 121c-68 0 -118 -36 -118 -145v-102c0 -90 45 -131 118 -131c82 0 121 61 121 135zM510 0h-89c-6 0 -12 5 -12 13v49c-24 -33 -78 -73 -157 -73c-114 0 -201 73 -201 212v141c0 129 78 215 202 215c70 0 120 -24 153 -59v240
c0 8 7 12 13 12h89c6 0 14 -3 14 -12v-725c0 -8 -6 -13 -12 -13z" />
    <glyph glyph-name="e" unicode="e" horiz-adv-x="540" 
d="M383 313v34c0 60 -27 115 -110 115c-76 0 -108 -54 -108 -121v-28h218zM415 161l60 -29c10 -6 15 -13 8 -26c-37 -77 -109 -117 -207 -117c-148 0 -225 84 -225 215v134c0 137 91 219 222 219c137 0 221 -72 221 -232v-69c0 -16 -10 -24 -26 -24h-303v-30
c0 -71 32 -118 111 -118c65 0 99 33 116 69c4 10 11 14 23 8z" />
    <glyph glyph-name="f" unicode="f" horiz-adv-x="380" 
d="M208 0h-91c-6 0 -12 4 -12 13v421h-61c-8 0 -12 6 -12 13v67c0 6 4 13 12 13h61v41c0 118 58 182 170 182c63 0 108 -30 138 -66c7 -8 3 -16 -4 -21l-50 -45c-7 -6 -13 -4 -17 3c-16 23 -35 34 -65 34c-37 0 -57 -24 -57 -70v-58h138c10 0 12 -7 12 -13v-66
c0 -9 -4 -14 -13 -14h-137v-421c0 -9 -6 -13 -12 -13z" />
    <glyph glyph-name="g" unicode="g" horiz-adv-x="530" 
d="M213 153l135 -19c122 -17 159 -74 159 -172c0 -96 -76 -179 -245 -179c-156 0 -239 59 -239 162c0 62 39 108 95 132c-30 16 -48 40 -48 75c0 38 24 68 56 86c-53 30 -79 76 -79 138v8c0 110 83 173 210 173c48 0 92 -10 128 -29c39 24 99 42 135 42c11 0 12 -8 12 -18
v-50c0 -16 -10 -16 -21 -16c-25 0 -49 0 -73 -1c19 -25 30 -56 30 -94v-22c0 -96 -81 -161 -216 -161c-23 0 -45 2 -65 7c-11 -7 -19 -17 -19 -30c0 -20 19 -28 45 -32zM310 40l-79 11l-29 4c-45 -17 -69 -51 -69 -94c0 -57 43 -89 129 -89c102 0 135 38 135 88
c0 45 -16 70 -87 80zM362 379c0 60 -36 94 -105 94c-68 0 -104 -34 -104 -94s40 -87 104 -87c65 0 105 27 105 87z" />
    <glyph glyph-name="h" unicode="h" horiz-adv-x="578" 
d="M502 0h-88c-8 0 -14 4 -14 13v342c0 71 -27 107 -88 107c-60 0 -106 -44 -128 -93v-356c0 -9 -6 -13 -14 -13h-88c-8 0 -14 4 -14 13v724c0 8 5 13 13 13h89c9 0 14 -5 14 -13v-270c36 46 86 90 170 90c101 0 162 -69 162 -176v-368c0 -10 -7 -13 -14 -13z" />
    <glyph glyph-name="i" unicode="i" horiz-adv-x="249" 
d="M167 0h-85c-10 0 -15 4 -15 14v516c0 11 7 17 15 17h85c9 0 15 -7 15 -16v-517c0 -12 -7 -14 -15 -14zM166 621h-84c-9 0 -15 6 -15 17v95c0 9 4 17 15 17h84c10 0 16 -6 16 -17v-95c0 -11 -7 -17 -16 -17z" />
    <glyph glyph-name="j" unicode="j" horiz-adv-x="258" 
d="M175 621h-84c-10 0 -15 7 -15 16v96c0 9 4 17 15 17h84c9 0 16 -5 16 -18v-95c0 -11 -7 -16 -16 -16zM52 -209l-60 54c-9 8 -4 17 4 24c53 41 80 91 80 178v484c0 9 6 16 14 16h86c8 0 15 -6 15 -17v-482c0 -137 -69 -216 -119 -258c-7 -6 -15 -4 -20 1z" />
    <glyph glyph-name="k" unicode="k" horiz-adv-x="527" 
d="M510 0h-105c-10 0 -15 3 -18 9l-144 255l-59 -64v-186c0 -9 -6 -14 -13 -14h-89c-8 0 -14 5 -14 14v723c0 8 6 13 14 13h88c7 0 14 -5 14 -13v-415l190 216c6 6 8 9 18 9h98c10 0 14 -9 8 -16l-170 -191l189 -325c5 -9 1 -15 -7 -15z" />
    <glyph glyph-name="l" unicode="l" horiz-adv-x="252" 
d="M170 0h-88c-8 0 -14 5 -14 14v723c0 9 6 13 14 13h87c7 0 15 -3 15 -14v-722c0 -10 -7 -14 -14 -14z" />
    <glyph glyph-name="m" unicode="m" horiz-adv-x="848" 
d="M772 0h-88c-8 0 -14 4 -14 13v350c0 57 -19 98 -73 98c-60 0 -98 -47 -113 -92v-356c0 -10 -7 -13 -13 -13h-89c-8 0 -14 4 -14 13v351c0 64 -22 97 -74 97c-61 0 -99 -50 -112 -91v-357c0 -9 -6 -13 -14 -13h-87c-9 0 -14 4 -14 13v521c0 8 5 13 14 13h84
c7 0 14 -4 14 -13v-65c29 43 81 88 160 88c76 0 115 -49 132 -96c42 65 102 96 168 96c92 0 146 -71 146 -168v-376c0 -9 -5 -13 -13 -13z" />
    <glyph glyph-name="n" unicode="n" 
d="M500 0h-87c-8 0 -14 4 -14 13v342c0 53 -12 107 -87 107c-64 0 -108 -47 -130 -93v-356c0 -9 -6 -13 -13 -13h-88c-9 0 -14 4 -14 13v521c0 8 5 13 13 13h86c8 0 13 -5 13 -13v-68c36 44 96 91 178 91c106 0 157 -75 157 -169v-375c0 -10 -6 -13 -14 -13z" />
    <glyph glyph-name="o" unicode="o" horiz-adv-x="568" 
d="M517 345v-144c0 -134 -85 -212 -233 -212c-149 0 -233 77 -233 207v149c0 135 85 212 234 212c148 0 232 -77 232 -212zM402 208v130c0 89 -49 124 -118 124c-68 0 -117 -35 -117 -125v-129c0 -90 49 -124 117 -124s118 35 118 124z" />
    <glyph glyph-name="p" unicode="p" horiz-adv-x="586" 
d="M420 217v105c0 91 -36 139 -111 139c-64 0 -128 -51 -128 -133v-118c0 -72 46 -126 123 -126c63 0 116 31 116 133zM169 -208h-91c-6 0 -12 4 -12 13v730c0 8 6 12 12 12h87c7 0 13 -4 13 -12v-70c30 43 89 92 169 92c116 0 188 -78 188 -216v-136
c0 -143 -99 -216 -208 -216c-81 0 -126 41 -146 75v-259c0 -8 -5 -13 -12 -13z" />
    <glyph glyph-name="q" unicode="q" horiz-adv-x="590" 
d="M406 220v115c0 72 -46 127 -121 127c-87 0 -119 -64 -119 -135v-117c0 -77 41 -126 114 -126c80 0 126 49 126 136zM509 -208h-90c-7 0 -13 5 -13 13v256c-28 -34 -75 -72 -157 -72c-113 0 -198 78 -198 208v148c0 129 84 212 200 212c86 0 135 -41 158 -75v53
c0 8 6 12 13 12h86c8 0 14 -4 14 -12v-730c0 -8 -6 -13 -13 -13z" />
    <glyph glyph-name="r" unicode="r" horiz-adv-x="364" 
d="M170 0h-91c-6 0 -12 4 -12 13v521c0 9 5 13 13 13h85c10 0 14 -6 14 -14v-88c32 62 88 112 169 112c16 0 16 -8 15 -16l-13 -83c-2 -8 -6 -12 -16 -12c-6 0 -16 1 -27 1c-67 -2 -111 -58 -125 -105v-329c0 -9 -6 -13 -12 -13z" />
    <glyph glyph-name="s" unicode="s" horiz-adv-x="455" 
d="M406 410l-76 -20c-9 -2 -11 0 -15 11c-13 41 -40 63 -88 63c-49 0 -77 -22 -77 -60c0 -95 274 -60 274 -254c0 -92 -73 -161 -189 -161c-108 0 -175 44 -200 129c-4 15 0 18 11 21l68 27c8 3 17 2 20 -11c9 -42 42 -75 101 -75c50 0 83 27 83 65c0 104 -273 69 -273 253
c0 94 75 159 188 159c101 0 161 -56 181 -130c3 -10 -1 -15 -8 -17z" />
    <glyph glyph-name="t" unicode="t" horiz-adv-x="375" 
d="M316 0h-50c-98 0 -173 35 -173 159v275h-66c-8 0 -12 6 -12 13v67c0 6 4 13 12 13h66v124c0 8 5 13 12 13h88c6 0 12 -5 12 -13v-124h103c8 0 11 -7 11 -13v-67c0 -8 -4 -13 -12 -13h-99v-259c0 -63 19 -80 79 -80h32c9 0 13 -6 13 -12v-69c0 -8 -3 -14 -16 -14z" />
    <glyph glyph-name="u" unicode="u" 
d="M498 0h-87c-7 0 -13 5 -13 13v51c-41 -38 -95 -75 -175 -75c-105 0 -161 61 -161 164v381c0 8 5 13 14 13h89c7 0 13 -4 13 -12v-356c0 -67 31 -95 79 -95c49 0 102 28 138 77v373c0 8 5 13 13 13h89c7 0 14 -4 14 -12v-522c0 -8 -6 -13 -13 -13z" />
    <glyph glyph-name="v" unicode="v" horiz-adv-x="495" 
d="M298 0h-97c-10 0 -15 5 -18 13l-177 519c-3 8 0 15 8 15h103c8 0 13 -4 15 -12l73 -238c19 -65 35 -137 47 -202h2c12 65 28 137 47 202l72 238c2 8 8 12 14 12h94c8 0 11 -7 8 -15l-174 -519c-3 -9 -9 -13 -17 -13z" />
    <glyph glyph-name="w" unicode="w" horiz-adv-x="732" 
d="M561 0h-96c-9 0 -13 5 -15 13l-46 189c-18 74 -30 133 -35 194h-2c-6 -61 -17 -119 -35 -195l-47 -188c-2 -8 -6 -13 -16 -13h-98c-9 0 -14 4 -16 13l-139 519c-2 8 -1 15 11 15h90c9 0 13 -4 15 -13l58 -241c15 -67 26 -130 34 -195h2c7 64 19 127 35 195l57 241
c2 8 7 13 15 13h82c8 0 13 -5 15 -13l55 -242c14 -66 27 -128 34 -194h2c7 66 19 127 35 195l57 241c2 9 7 13 14 13h79c10 0 12 -7 10 -15l-140 -519c-2 -7 -5 -13 -15 -13z" />
    <glyph glyph-name="x" unicode="x" horiz-adv-x="490" 
d="M461 0h-95c-10 0 -15 5 -19 12l-104 179l-105 -180c-5 -8 -8 -11 -17 -11h-94c-7 0 -13 6 -8 14l166 261l-160 255c-6 8 -2 17 6 17h95c9 0 12 -3 17 -11l110 -179l108 179c4 7 8 11 16 11h88c12 0 15 -9 9 -17l-164 -256l160 -260c4 -6 2 -14 -9 -14z" />
    <glyph glyph-name="y" unicode="y" horiz-adv-x="485" 
d="M105 -210l-44 60c-7 8 -10 17 2 23c55 28 93 62 122 136l-185 525c-2 5 -1 13 8 13h106c6 0 9 -3 12 -11l122 -399l123 398c2 7 6 12 12 12h97c9 0 11 -6 8 -13l-191 -532c-41 -116 -103 -175 -166 -214c-12 -7 -20 -6 -26 2z" />
    <glyph glyph-name="z" unicode="z" horiz-adv-x="475" 
d="M433 0h-378c-7 0 -13 4 -15 13l-14 44l263 394h-219c-8 0 -13 6 -13 13v70c0 6 3 13 11 13h348c8 0 13 -3 16 -13l13 -44l-262 -395h251c8 0 12 -6 12 -12v-70c0 -8 -5 -13 -13 -13z" />
    <glyph glyph-name="agrave" unicode="&#xe0;" horiz-adv-x="531" 
d="M353 145v101c-161 6 -204 -23 -204 -85v-4c0 -41 31 -73 79 -73c51 0 94 21 125 61zM452 0h-82c-8 0 -14 2 -14 13v53c-34 -41 -81 -77 -159 -77c-97 0 -162 69 -162 158v6c0 113 77 183 318 166v28c0 80 -30 115 -98 115c-51 0 -84 -28 -98 -71c-5 -13 -14 -12 -22 -8
l-61 31c-8 4 -12 10 -8 19c37 81 94 124 200 124c118 0 200 -72 200 -204v-340c0 -11 -7 -13 -14 -13zM289 605h-54c-6 0 -10 3 -13 6l-105 139c-5 7 -5 15 7 15h73c8 0 14 -1 19 -9l81 -137c5 -8 0 -14 -8 -14z" />
    <glyph glyph-name="aacute" unicode="&#xe1;" horiz-adv-x="531" 
d="M353 145v101c-161 6 -204 -23 -204 -85v-4c0 -41 31 -73 79 -73c51 0 94 21 125 61zM452 0h-82c-8 0 -14 2 -14 13v53c-34 -41 -81 -77 -159 -77c-97 0 -162 69 -162 158v6c0 113 77 183 318 166v28c0 80 -30 115 -98 115c-51 0 -84 -28 -98 -71c-5 -13 -14 -12 -22 -8
l-61 31c-8 4 -12 10 -8 19c37 81 94 124 200 124c118 0 200 -72 200 -204v-340c0 -11 -7 -13 -14 -13zM293 605h-53c-8 0 -13 6 -8 14l81 137c5 8 11 9 18 9h73c12 0 13 -8 8 -15l-106 -139c-3 -3 -7 -6 -13 -6z" />
    <glyph glyph-name="acircumflex" unicode="&#xe2;" horiz-adv-x="531" 
d="M353 145v101c-161 6 -204 -23 -204 -85v-4c0 -41 31 -73 79 -73c51 0 94 21 125 61zM452 0h-82c-8 0 -14 2 -14 13v53c-34 -41 -81 -77 -159 -77c-97 0 -162 69 -162 158v6c0 113 77 183 318 166v28c0 80 -30 115 -98 115c-51 0 -84 -28 -98 -71c-5 -13 -14 -12 -22 -8
l-61 31c-8 4 -12 10 -8 19c37 81 94 124 200 124c118 0 200 -72 200 -204v-340c0 -11 -7 -13 -14 -13zM391 615h-58c-10 0 -13 4 -17 11l-47 84l-47 -86c-4 -6 -6 -9 -14 -9h-59c-10 0 -11 6 -8 12l83 126c6 9 7 11 20 11h52c11 0 15 -4 19 -11l83 -127c4 -6 1 -11 -7 -11z
" />
    <glyph glyph-name="atilde" unicode="&#xe3;" horiz-adv-x="531" 
d="M452 0h-82c-8 0 -14 2 -14 13v53c-34 -41 -81 -77 -159 -77c-97 0 -162 69 -162 158v6c0 113 77 183 318 166v28c0 80 -30 115 -98 115c-51 0 -84 -28 -98 -71c-5 -13 -14 -12 -22 -8l-61 31c-8 4 -12 10 -8 19c37 81 94 124 200 124c118 0 200 -72 200 -204v-340
c0 -11 -7 -13 -14 -13zM382 741l38 -40c4 -5 2 -10 -1 -14c-18 -28 -52 -63 -95 -63c-58 0 -83 43 -116 43c-24 0 -37 -16 -49 -36c-3 -4 -7 -5 -12 0l-42 38c-4 4 -3 8 0 12c13 22 45 59 87 65c7 2 14 2 20 1c51 -2 79 -42 111 -42c40 0 44 53 59 36zM353 145v101
c-161 6 -204 -23 -204 -85v-4c0 -41 31 -73 79 -73c50 0 94 21 125 61z" />
    <glyph glyph-name="adieresis" unicode="&#xe4;" horiz-adv-x="531" 
d="M353 145v101c-161 6 -204 -23 -204 -85v-4c0 -41 31 -73 79 -73c51 0 94 21 125 61zM452 0h-82c-8 0 -14 2 -14 13v53c-34 -41 -81 -77 -159 -77c-97 0 -162 69 -162 158v6c0 113 77 183 318 166v28c0 80 -30 115 -98 115c-51 0 -84 -28 -98 -71c-5 -13 -14 -12 -22 -8
l-61 31c-8 4 -12 10 -8 19c37 81 94 124 200 124c118 0 200 -72 200 -204v-340c0 -11 -7 -13 -14 -13zM201 622h-69c-9 0 -15 6 -15 17v88c0 9 5 16 15 16h69c10 0 16 -6 16 -17v-87c0 -11 -6 -17 -16 -17zM395 622h-69c-9 0 -15 6 -15 17v88c0 9 5 16 15 16h69
c9 0 16 -6 16 -17v-87c0 -11 -7 -17 -16 -17z" />
    <glyph glyph-name="amacron" unicode="&#x101;" horiz-adv-x="531" 
d="M353 145v101c-161 6 -204 -23 -204 -85v-4c0 -41 31 -73 79 -73c51 0 94 21 125 61zM452 0h-82c-8 0 -14 2 -14 13v53c-34 -41 -81 -77 -159 -77c-97 0 -162 69 -162 158v6c0 113 77 183 318 166v28c0 80 -30 115 -98 115c-51 0 -84 -28 -98 -71c-5 -13 -14 -12 -22 -8
l-61 31c-8 4 -12 10 -8 19c37 81 94 124 200 124c118 0 200 -72 200 -204v-340c0 -11 -7 -13 -14 -13zM382 630h-241c-8 0 -12 7 -12 14v60c0 7 4 13 12 13h242c8 0 11 -7 11 -14v-59c0 -7 -4 -14 -12 -14z" />
    <glyph glyph-name="abreve" unicode="&#x103;" horiz-adv-x="531" 
d="M353 145v101c-161 6 -204 -23 -204 -85v-4c0 -41 31 -73 79 -73c51 0 94 21 125 61zM452 0h-82c-8 0 -14 2 -14 13v53c-34 -41 -81 -77 -159 -77c-97 0 -162 69 -162 158v6c0 113 77 183 318 166v28c0 80 -30 115 -98 115c-51 0 -84 -28 -98 -71c-5 -13 -14 -12 -22 -8
l-61 31c-8 4 -12 10 -8 19c37 81 94 124 200 124c118 0 200 -72 200 -204v-340c0 -11 -7 -13 -14 -13zM140 751l58 -7c5 -1 9 -3 9 -12c0 -31 22 -53 51 -53c27 0 52 19 52 54c0 5 2 10 8 11s48 6 60 7c7 0 8 -4 8 -12c0 -66 -52 -123 -128 -123c-81 0 -128 61 -128 124
c0 8 2 12 10 11z" />
    <glyph glyph-name="aring" unicode="&#xe5;" horiz-adv-x="531" 
d="M353 145v101c-161 6 -204 -23 -204 -85v-4c0 -41 31 -73 79 -73c51 0 94 21 125 61zM452 0h-82c-8 0 -14 2 -14 13v53c-34 -41 -81 -77 -159 -77c-97 0 -162 69 -162 158v6c0 113 77 183 318 166v28c0 80 -30 115 -98 115c-51 0 -84 -28 -98 -71c-5 -13 -14 -12 -22 -8
l-61 31c-8 4 -12 10 -8 19c37 81 94 124 200 124c118 0 200 -72 200 -204v-340c0 -11 -7 -13 -14 -13zM359 693c0 -53 -43 -91 -97 -91s-95 38 -95 91c0 54 43 92 95 92c54 0 97 -37 97 -92zM262 654c24 0 42 16 42 39c0 24 -17 40 -42 40c-23 0 -39 -17 -39 -40
s16 -39 39 -39z" />
    <glyph glyph-name="aogonek" unicode="&#x105;" horiz-adv-x="531" 
d="M458 -134l21 -28c15 -18 -49 -55 -103 -55c-34 0 -105 20 -105 93c0 63 55 94 100 124c-8 0 -15 1 -15 13v53c-34 -41 -81 -77 -159 -77c-97 0 -162 69 -162 158v6c0 113 77 183 318 166v28c0 80 -30 115 -98 115c-51 0 -84 -28 -98 -71c-5 -13 -14 -12 -22 -8
c-5 2 -79 30 -69 50c36 81 94 124 200 124c118 0 200 -72 200 -204v-340c0 -8 -4 -9 -4 -13c-25 -21 -107 -60 -107 -116c0 -23 15 -39 43 -39c20 0 37 12 47 21c5 5 9 4 13 0zM353 145v101c-161 6 -204 -23 -204 -85v-4c0 -41 31 -73 79 -73c50 0 94 21 125 61z" />
    <glyph glyph-name="ae" unicode="&#xe6;" horiz-adv-x="836" 
d="M715 161l60 -29c10 -5 15 -14 8 -27c-37 -72 -108 -116 -205 -116c-91 0 -149 30 -185 83c-34 -32 -100 -83 -187 -83c-106 0 -174 69 -174 158v6c0 115 78 175 318 165v39c0 60 -28 105 -100 105c-52 0 -84 -30 -101 -72c-5 -11 -14 -10 -22 -6l-60 31c-8 4 -12 9 -9 19
c32 71 86 123 195 123c69 0 121 -24 159 -65c37 43 83 65 162 65c146 0 221 -89 221 -242v-60c0 -14 -11 -23 -25 -23h-305v-26c0 -74 26 -122 113 -122c63 0 94 31 113 69c5 10 12 13 24 8zM684 313v34c0 59 -34 115 -110 115s-109 -50 -109 -123v-26h219zM350 223v23
c-160 6 -203 -23 -203 -85v-4c0 -41 30 -73 79 -73c51 0 102 24 132 63c-5 19 -8 45 -8 76z" />
    <glyph glyph-name="cacute" unicode="&#x107;" horiz-adv-x="519" 
d="M404 169l59 -31c10 -5 16 -10 12 -23c-29 -76 -93 -126 -203 -126c-127 0 -221 71 -221 216v137c0 142 103 215 223 215c108 0 183 -57 204 -157c2 -10 -1 -17 -12 -20l-72 -19c-10 -2 -18 -3 -21 11c-8 46 -33 90 -99 90c-63 0 -107 -37 -107 -129v-126
c0 -86 42 -123 109 -123c66 0 92 40 103 76c5 15 14 14 25 9zM297 605h-54c-8 0 -13 6 -8 14l81 137c5 8 11 9 19 9h73c12 0 12 -8 7 -15l-105 -139c-3 -3 -7 -6 -13 -6z" />
    <glyph glyph-name="ccaron" unicode="&#x10d;" horiz-adv-x="519" 
d="M404 169l59 -31c10 -5 16 -10 12 -23c-29 -76 -93 -126 -203 -126c-127 0 -221 71 -221 216v137c0 142 103 215 223 215c108 0 183 -57 204 -157c2 -10 -1 -17 -12 -20l-72 -19c-10 -2 -18 -3 -21 11c-8 46 -33 90 -99 90c-63 0 -107 -37 -107 -129v-126
c0 -86 42 -123 109 -123c66 0 92 40 103 76c5 15 14 14 25 9zM300 611h-53c-13 0 -14 2 -20 11l-80 126c-4 6 -3 12 8 12h56c9 0 11 -3 14 -9l49 -87l48 85c4 8 6 11 16 11h55c10 0 12 -6 8 -12l-82 -126c-5 -7 -8 -11 -19 -11z" />
    <glyph glyph-name="cdotaccent" unicode="&#x10b;" horiz-adv-x="519" 
d="M404 169l59 -31c10 -5 16 -10 12 -23c-29 -76 -93 -126 -203 -126c-127 0 -221 71 -221 216v137c0 142 103 215 223 215c108 0 183 -57 204 -157c2 -10 -1 -17 -12 -20l-72 -19c-10 -2 -18 -3 -21 11c-8 46 -33 90 -99 90c-63 0 -107 -37 -107 -129v-126
c0 -86 42 -123 109 -123c66 0 92 40 103 76c5 15 14 14 25 9zM323 619h-103c-11 0 -17 5 -17 15v95c0 11 4 18 18 18h102c11 0 16 -6 16 -17v-96c0 -9 -6 -15 -16 -15z" />
    <glyph glyph-name="ccedilla" unicode="&#xe7;" horiz-adv-x="519" 
d="M386 -117v-8c0 -42 -39 -84 -110 -84c-51 0 -88 21 -102 32c-4 3 -9 6 -5 16l17 32c3 6 8 6 12 4c14 -9 47 -25 71 -25c29 0 40 13 40 28v3c0 22 -25 39 -80 32v79c-105 14 -178 84 -178 213v137c0 142 103 215 223 215c108 0 183 -57 204 -157c2 -10 -1 -17 -12 -20
l-72 -19c-10 -2 -18 -3 -21 11c-8 46 -33 90 -99 90c-63 0 -107 -37 -107 -129v-126c0 -86 42 -123 109 -123c66 0 92 40 103 76c5 15 14 14 25 9l59 -31c10 -5 16 -10 12 -23c-26 -69 -81 -117 -173 -125v-29c53 0 84 -37 84 -78z" />
    <glyph glyph-name="dcaron" unicode="&#x10f;" horiz-adv-x="714" 
d="M406 219v122c0 74 -56 121 -121 121c-68 0 -118 -36 -118 -145v-102c0 -90 45 -131 118 -131c82 0 121 61 121 135zM510 0h-89c-6 0 -12 5 -12 13v49c-24 -33 -78 -73 -157 -73c-114 0 -201 73 -201 212v141c0 129 78 215 202 215c70 0 120 -24 153 -59v240
c0 8 7 12 13 12h89c6 0 14 -3 14 -12v-725c0 -8 -6 -13 -12 -13zM600 485l-23 25c-7 8 -7 17 1 24c55 47 59 82 59 202c0 9 4 14 15 14h82c13 0 16 -5 16 -14c0 -142 -64 -218 -132 -254c-5 -3 -13 -3 -18 3z" />
    <glyph glyph-name="dcroat" unicode="&#x111;" horiz-adv-x="590" 
d="M510 0h-89c-6 0 -12 5 -12 13v49c-24 -33 -78 -73 -157 -73c-114 0 -201 73 -201 212v141c0 129 78 215 202 215c70 0 120 -24 153 -59v97h-143c-10 0 -14 5 -14 14v67c0 6 3 13 12 13h145v49c0 8 7 12 13 12h89c6 0 14 -3 14 -12v-49h55c9 0 12 -7 12 -13v-67
c0 -9 -4 -14 -14 -14h-53v-582c0 -8 -6 -13 -12 -13zM406 219v122c0 74 -56 121 -121 121c-68 0 -118 -36 -118 -145v-102c0 -90 45 -131 118 -131c82 0 121 61 121 135z" />
    <glyph glyph-name="egrave" unicode="&#xe8;" horiz-adv-x="540" 
d="M383 313v34c0 60 -27 115 -110 115c-76 0 -108 -54 -108 -121v-28h218zM415 161l60 -29c10 -6 15 -13 8 -26c-37 -77 -109 -117 -207 -117c-148 0 -225 84 -225 215v134c0 137 91 219 222 219c137 0 221 -72 221 -232v-69c0 -16 -10 -24 -26 -24h-303v-30
c0 -71 32 -118 111 -118c65 0 99 33 116 69c4 10 11 14 23 8zM293 605h-54c-6 0 -10 3 -12 6l-106 139c-5 7 -4 15 8 15h73c7 0 13 -1 18 -9l81 -137c5 -8 0 -14 -8 -14z" />
    <glyph glyph-name="eacute" unicode="&#xe9;" horiz-adv-x="540" 
d="M383 313v34c0 60 -27 115 -110 115c-76 0 -108 -54 -108 -121v-28h218zM415 161l60 -29c10 -6 15 -13 8 -26c-37 -77 -109 -117 -207 -117c-148 0 -225 84 -225 215v134c0 137 91 219 222 219c137 0 221 -72 221 -232v-69c0 -16 -10 -24 -26 -24h-303v-30
c0 -71 32 -118 111 -118c65 0 99 33 116 69c4 10 11 14 23 8zM302 605h-53c-8 0 -13 6 -8 14l81 137c5 8 11 9 18 9h73c12 0 13 -8 8 -15l-106 -139c-3 -3 -7 -6 -13 -6z" />
    <glyph glyph-name="ecircumflex" unicode="&#xea;" horiz-adv-x="540" 
d="M383 313v34c0 60 -27 115 -110 115c-76 0 -108 -54 -108 -121v-28h218zM415 161l60 -29c10 -6 15 -13 8 -26c-37 -77 -109 -117 -207 -117c-148 0 -225 84 -225 215v134c0 137 91 219 222 219c137 0 221 -72 221 -232v-69c0 -16 -10 -24 -26 -24h-303v-30
c0 -71 32 -118 111 -118c65 0 99 33 116 69c4 10 11 14 23 8zM401 613h-59c-10 0 -12 3 -16 11l-47 84l-48 -86c-3 -6 -5 -9 -14 -9h-58c-11 0 -11 6 -8 12l82 126c7 9 8 11 20 11h53c11 0 14 -4 19 -11l82 -127c4 -6 1 -11 -6 -11z" />
    <glyph glyph-name="ecaron" unicode="&#x11b;" horiz-adv-x="540" 
d="M383 313v34c0 60 -27 115 -110 115c-76 0 -108 -54 -108 -121v-28h218zM415 161l60 -29c10 -6 15 -13 8 -26c-37 -77 -109 -117 -207 -117c-148 0 -225 84 -225 215v134c0 137 91 219 222 219c137 0 221 -72 221 -232v-69c0 -16 -10 -24 -26 -24h-303v-30
c0 -71 32 -118 111 -118c65 0 99 33 116 69c4 10 11 14 23 8zM289 615h-53c-13 0 -14 2 -20 11l-80 126c-4 6 -3 12 8 12h56c9 0 11 -3 14 -9l49 -87l48 85c4 7 6 11 16 11h55c10 0 12 -6 8 -12l-82 -126c-5 -7 -8 -11 -19 -11z" />
    <glyph glyph-name="edieresis" unicode="&#xeb;" horiz-adv-x="540" 
d="M217 623h-70c-8 0 -15 6 -15 17v88c0 9 5 16 15 16h70c9 0 16 -6 16 -17v-87c0 -11 -7 -17 -16 -17zM410 623h-69c-9 0 -15 6 -15 17v88c0 9 5 16 15 16h69c10 0 16 -6 16 -17v-87c0 -11 -6 -17 -16 -17zM386 313v34c0 60 -26 115 -110 115c-75 0 -107 -54 -107 -121v-28
h217zM419 161l59 -29c10 -6 16 -13 9 -26c-37 -77 -110 -117 -207 -117c-148 0 -225 84 -225 215v134c0 137 90 219 222 219c137 0 220 -72 220 -232v-69c0 -16 -9 -24 -25 -24h-303v-30c0 -71 32 -118 111 -118c65 0 99 33 115 69c5 10 12 14 24 8z" />
    <glyph glyph-name="emacron" unicode="&#x113;" horiz-adv-x="540" 
d="M383 313v34c0 60 -27 115 -110 115c-76 0 -108 -54 -108 -121v-28h218zM415 161l60 -29c10 -6 15 -13 8 -26c-37 -77 -109 -117 -207 -117c-148 0 -225 84 -225 215v134c0 137 91 219 222 219c137 0 221 -72 221 -232v-69c0 -16 -10 -24 -26 -24h-303v-30
c0 -71 32 -118 111 -118c65 0 99 33 116 69c4 10 11 14 23 8zM392 629h-241c-8 0 -12 6 -12 13v61c0 6 4 13 12 13h242c8 0 11 -7 11 -14v-60c0 -7 -4 -13 -12 -13z" />
    <glyph glyph-name="edotaccent" unicode="&#x117;" horiz-adv-x="540" 
d="M383 313v34c0 60 -27 115 -110 115c-76 0 -108 -54 -108 -121v-28h218zM415 161l60 -29c10 -6 15 -13 8 -26c-37 -77 -109 -117 -207 -117c-148 0 -225 84 -225 215v134c0 137 91 219 222 219c137 0 221 -72 221 -232v-69c0 -16 -10 -24 -26 -24h-303v-30
c0 -71 32 -118 111 -118c65 0 99 33 116 69c4 10 11 14 23 8zM328 619h-103c-11 0 -17 5 -17 16v95c0 10 4 17 17 17h102c12 0 17 -6 17 -17v-95c0 -9 -6 -16 -16 -16z" />
    <glyph glyph-name="eogonek" unicode="&#x119;" horiz-adv-x="540" 
d="M334 -134l21 -28c11 -13 -23 -37 -54 -44c-18 -7 -36 -10 -58 -10c-31 3 -96 23 -96 92c0 58 45 89 88 117c-12 1 -23 4 -34 7c-98 22 -150 97 -150 204v134c0 137 91 219 222 219c143 0 221 -76 221 -241v-60c0 -16 -10 -24 -26 -24h-303v-30c0 -71 32 -118 111 -118
c65 0 99 33 116 69c4 10 11 14 23 8l18 -9l42 -20c10 -6 15 -14 8 -26c-34 -70 -88 -93 -161 -117c-61 -45 -90 -64 -90 -105c0 -20 12 -35 35 -37c8 -1 18 1 26 4c12 3 22 10 29 15c4 5 8 4 12 0zM383 313v34c0 60 -27 115 -110 115c-76 0 -108 -54 -108 -121v-28h218z" />
    <glyph glyph-name="gbreve" unicode="&#x11f;" horiz-adv-x="529" 
d="M212 153l135 -19c122 -17 159 -74 159 -172c0 -96 -76 -179 -245 -179c-156 0 -239 59 -239 162c0 62 39 108 95 132c-30 16 -48 40 -48 75c0 38 24 68 56 86c-53 30 -79 76 -79 138v8c0 110 83 173 210 173c48 0 92 -10 128 -29c39 24 99 42 135 42c11 0 12 -8 12 -18
v-50c0 -16 -10 -16 -21 -16c-25 0 -49 0 -73 -1c19 -25 30 -56 30 -94v-22c0 -96 -81 -161 -216 -161c-23 0 -45 2 -65 7c-11 -7 -19 -17 -19 -30c0 -20 19 -28 45 -32zM309 40l-79 11l-29 4c-45 -17 -69 -51 -69 -94c0 -57 43 -89 129 -89c102 0 135 38 135 88
c0 45 -16 70 -87 80zM361 379c0 60 -36 94 -105 94c-68 0 -104 -34 -104 -94s40 -87 104 -87c65 0 105 27 105 87zM149 753l58 -7c5 -1 9 -3 9 -12c0 -32 22 -54 51 -54c27 0 52 20 52 54c0 6 2 11 8 12c6 0 48 6 60 7c7 0 8 -5 8 -13c0 -66 -52 -122 -128 -122
c-81 0 -128 60 -128 124c0 7 2 12 10 11z" />
    <glyph glyph-name="gdotaccent" unicode="&#x121;" horiz-adv-x="530" 
d="M213 153l135 -19c122 -17 159 -74 159 -172c0 -96 -76 -179 -245 -179c-156 0 -239 59 -239 162c0 62 39 108 95 132c-30 16 -48 40 -48 75c0 38 24 68 56 86c-53 30 -79 76 -79 138v8c0 110 83 173 210 173c48 0 92 -10 128 -29c39 24 99 42 135 42c11 0 12 -8 12 -18
v-50c0 -16 -10 -16 -21 -16c-25 0 -49 0 -73 -1c19 -25 30 -56 30 -94v-22c0 -96 -81 -161 -216 -161c-23 0 -45 2 -65 7c-11 -7 -19 -17 -19 -30c0 -20 19 -28 45 -32zM310 40l-79 11l-29 4c-45 -17 -69 -51 -69 -94c0 -57 43 -89 129 -89c102 0 135 38 135 88
c0 45 -16 70 -87 80zM362 379c0 60 -36 94 -105 94c-68 0 -104 -34 -104 -94s40 -87 104 -87c65 0 105 27 105 87zM317 618h-104c-10 0 -17 6 -17 16v95c0 11 5 18 18 18h102c12 0 17 -6 17 -17v-96c0 -9 -7 -16 -16 -16z" />
    <glyph glyph-name="gcommaaccent" unicode="&#x123;" horiz-adv-x="529" 
d="M212 153l135 -19c122 -17 159 -74 159 -172c0 -96 -76 -179 -245 -179c-156 0 -239 59 -239 162c0 62 39 108 95 132c-30 16 -48 40 -48 75c0 38 24 68 56 86c-53 30 -79 76 -79 138v8c0 110 83 173 210 173c48 0 92 -10 128 -29c39 24 99 42 135 42c11 0 12 -8 12 -18
v-50c0 -16 -10 -16 -21 -16c-25 0 -49 0 -73 -1c19 -25 30 -56 30 -94v-22c0 -96 -81 -161 -216 -161c-23 0 -45 2 -65 7c-11 -7 -19 -17 -19 -30c0 -20 19 -28 45 -32zM309 40l-79 11l-29 4c-45 -17 -69 -51 -69 -94c0 -57 43 -89 129 -89c102 0 135 38 135 88
c0 45 -16 70 -87 80zM361 379c0 60 -36 94 -105 94c-68 0 -104 -34 -104 -94s40 -87 104 -87c65 0 105 27 105 87zM306 594h-82c-13 0 -16 5 -16 14c0 142 64 228 132 264c5 3 13 3 18 -3l23 -25c7 -8 7 -17 -1 -24c-55 -47 -59 -92 -59 -212c0 -9 -4 -14 -15 -14z" />
    <glyph glyph-name="igrave" unicode="&#xec;" horiz-adv-x="249" 
d="M167 0h-85c-10 0 -15 4 -15 14v516c0 11 7 17 15 17h85c9 0 15 -7 15 -16v-517c0 -12 -7 -14 -15 -14zM149 605h-54c-6 0 -10 3 -13 6l-105 139c-6 7 -5 15 7 15h73c8 0 14 -1 18 -9l82 -137c4 -8 0 -14 -8 -14z" />
    <glyph glyph-name="iacute" unicode="&#xed;" horiz-adv-x="249" 
d="M167 0h-85c-10 0 -15 4 -15 14v516c0 11 7 17 15 17h85c9 0 15 -7 15 -16v-517c0 -12 -7 -14 -15 -14zM156 605h-54c-8 0 -13 6 -8 14l81 137c5 8 11 9 19 9h73c12 0 12 -8 7 -15l-105 -139c-3 -3 -7 -6 -13 -6z" />
    <glyph glyph-name="icircumflex" unicode="&#xee;" horiz-adv-x="249" 
d="M167 0h-85c-10 0 -15 4 -15 14v516c0 11 7 17 15 17h85c9 0 15 -7 15 -16v-517c0 -12 -7 -14 -15 -14zM246 615h-58c-10 0 -12 4 -17 11l-46 84l-48 -86c-4 -6 -6 -9 -14 -9h-59c-10 0 -11 6 -8 12l83 126c6 9 8 11 20 11h53c10 0 14 -4 18 -11l83 -127
c4 -6 1 -11 -7 -11z" />
    <glyph glyph-name="idieresis" unicode="&#xef;" horiz-adv-x="314" 
d="M94 621h-69c-9 0 -15 6 -15 17v88c0 9 5 17 15 17h69c10 0 16 -6 16 -17v-88c0 -11 -6 -17 -16 -17zM288 621h-69c-9 0 -15 6 -15 17v88c0 9 5 17 15 17h69c9 0 16 -6 16 -17v-88c0 -11 -7 -17 -16 -17zM199 0h-85c-10 0 -15 4 -15 14v516c0 11 7 17 15 17h85
c9 0 15 -7 15 -16v-517c0 -12 -7 -14 -15 -14z" />
    <glyph glyph-name="imacron" unicode="&#x12b;" horiz-adv-x="249" 
d="M167 0h-85c-10 0 -15 4 -15 14v516c0 11 7 17 15 17h85c9 0 15 -7 15 -16v-517c0 -12 -7 -14 -15 -14zM245 630h-241c-8 0 -12 7 -12 14v60c0 7 4 13 12 13h242c8 0 11 -7 11 -14v-59c0 -7 -4 -14 -12 -14z" />
    <glyph glyph-name="iogonek" unicode="&#x12f;" horiz-adv-x="249" 
d="M167 -134l21 -28c14 -18 -49 -55 -104 -55c-34 0 -104 20 -104 93c0 64 55 94 100 124c-8 0 -13 4 -13 14v516c0 21 26 17 41 17h59c9 0 15 -7 15 -16v-517c0 -10 -5 -14 -11 -14c-35 -28 -107 -63 -107 -116c0 -23 15 -39 43 -39c20 0 37 12 47 21c5 5 8 4 13 0z
M167 621h-70h-17c-1 0 -10 -1 -13 12v5v1v98c1 13 15 13 25 13h75c8 -1 15 -6 15 -17v-94v-3c-2 -9 -6 -15 -15 -15z" />
    <glyph glyph-name="dotlessi" unicode="&#x131;" horiz-adv-x="249" 
d="M167 0h-85c-10 0 -15 4 -15 14v516c0 11 7 17 15 17h85c9 0 15 -7 15 -16v-517c0 -12 -7 -14 -15 -14z" />
    <glyph glyph-name="kcommaaccent" unicode="&#x137;" horiz-adv-x="527" 
d="M186 -323l-22 25c-7 8 -8 17 0 24c55 46 60 92 60 212c0 8 3 14 15 14h82c13 0 15 -6 15 -14c0 -142 -63 -228 -132 -265c-5 -2 -12 -3 -18 4zM510 0h-105c-10 0 -15 3 -18 9l-144 255l-59 -64v-186c0 -9 -6 -14 -13 -14h-89c-8 0 -14 5 -14 14v723c0 8 6 13 14 13h88
c7 0 14 -5 14 -13v-415l190 216c6 6 8 9 18 9h98c10 0 14 -9 8 -16l-170 -191l189 -325c5 -9 1 -15 -7 -15z" />
    <glyph glyph-name="lacute" unicode="&#x13a;" horiz-adv-x="260" 
d="M174 0h-87c-9 0 -15 5 -15 14v723c0 9 7 13 15 13h86c7 0 15 -3 15 -14v-722c0 -10 -7 -14 -14 -14zM165 804h-54c-8 0 -13 5 -8 13l81 137c5 9 11 10 19 10h73c12 0 12 -9 7 -16l-105 -138c-3 -4 -7 -6 -13 -6z" />
    <glyph glyph-name="lcaron" unicode="&#x13e;" horiz-adv-x="392" 
d="M278 474l-22 26c-7 7 -8 17 0 23c55 47 60 94 60 214c0 9 3 14 15 14h82c12 0 15 -5 15 -14c0 -142 -64 -230 -132 -266c-5 -3 -12 -3 -18 3zM170 0h-88c-8 0 -14 5 -14 14v723c0 9 6 13 14 13h87c7 0 15 -3 15 -14v-722c0 -10 -7 -14 -14 -14z" />
    <glyph glyph-name="lcommaaccent" unicode="&#x13c;" horiz-adv-x="260" 
d="M174 0h-87c-9 0 -15 5 -15 14v723c0 9 7 13 15 13h86c7 0 15 -3 15 -14v-722c0 -10 -7 -14 -14 -14zM36 -323l-22 25c-7 8 -8 17 0 24c55 47 60 92 60 212c0 9 3 14 15 14h82c13 0 15 -5 15 -14c0 -142 -63 -228 -132 -264c-5 -3 -12 -3 -18 3z" />
    <glyph glyph-name="lslash" unicode="&#x142;" horiz-adv-x="258" 
d="M173 0h-87c-9 0 -15 5 -15 14v273l-43 -22c-10 -5 -17 -2 -21 6l-30 56c-5 10 -2 19 5 23l89 48v339c0 9 7 13 15 13h86c8 0 15 -3 15 -14v-278l49 27c8 4 16 2 21 -7l30 -59c5 -8 2 -18 -6 -23l-94 -48v-334c0 -10 -7 -14 -14 -14z" />
    <glyph glyph-name="nacute" unicode="&#x144;" 
d="M500 0h-87c-8 0 -14 4 -14 13v342c0 53 -12 107 -87 107c-64 0 -108 -47 -130 -93v-356c0 -9 -6 -13 -13 -13h-88c-9 0 -14 4 -14 13v521c0 8 5 13 13 13h86c8 0 13 -5 13 -13v-68c36 44 96 91 178 91c106 0 157 -75 157 -169v-375c0 -10 -6 -13 -14 -13zM327 605h-54
c-8 0 -13 6 -8 14l81 137c5 8 11 9 18 9h73c12 0 13 -8 8 -15l-106 -139c-2 -3 -6 -6 -12 -6z" />
    <glyph glyph-name="ncaron" unicode="&#x148;" 
d="M500 0h-87c-8 0 -14 4 -14 13v342c0 53 -12 107 -87 107c-64 0 -108 -47 -130 -93v-356c0 -9 -6 -13 -13 -13h-88c-9 0 -14 4 -14 13v521c0 8 5 13 13 13h86c8 0 13 -5 13 -13v-68c36 44 96 91 178 91c106 0 157 -75 157 -169v-375c0 -10 -6 -13 -14 -13zM330 616h-53
c-12 0 -14 1 -20 10l-80 127c-4 6 -2 12 8 12h57c8 0 10 -4 14 -10l48 -86l49 85c3 7 6 11 15 11h56c9 0 12 -6 8 -12l-83 -127c-4 -7 -8 -10 -19 -10z" />
    <glyph glyph-name="ntilde" unicode="&#xf1;" 
d="M500 0h-87c-8 0 -14 4 -14 13v342c0 53 -13 107 -87 107c-64 0 -108 -47 -130 -93v-356c0 -17 -25 -13 -40 -13h-61c-9 0 -14 4 -14 13v521c0 8 5 13 13 13h86c8 0 13 -5 13 -13v-68c36 44 96 91 178 91c106 0 157 -75 157 -169v-375c0 -10 -6 -13 -14 -13zM421 741
l38 -40c4 -5 2 -10 -1 -14c-19 -28 -53 -63 -96 -63c-58 0 -82 43 -116 43c-23 0 -37 -15 -48 -36c-3 -4 -7 -5 -13 0l-42 38c-3 4 -2 8 0 12c13 23 45 59 87 66c7 1 14 1 21 1c50 -3 79 -43 110 -43c40 0 44 53 60 36z" />
    <glyph glyph-name="ncommaaccent" unicode="&#x146;" 
d="M500 0h-87c-8 0 -14 4 -14 13v342c0 53 -12 107 -87 107c-64 0 -108 -47 -130 -93v-356c0 -9 -6 -13 -13 -13h-88c-9 0 -14 4 -14 13v521c0 8 5 13 13 13h86c8 0 13 -5 13 -13v-68c36 44 96 91 178 91c106 0 157 -75 157 -169v-375c0 -10 -6 -13 -14 -13zM199 -324
l-22 26c-7 7 -8 17 0 23c55 47 60 93 60 212c0 9 3 14 15 14h82c12 0 15 -5 15 -14c0 -141 -64 -228 -132 -264c-5 -2 -12 -3 -18 3z" />
    <glyph glyph-name="ograve" unicode="&#xf2;" horiz-adv-x="576" 
d="M521 345v-144c0 -134 -85 -212 -233 -212c-149 0 -233 77 -233 207v149c0 135 85 212 233 212c149 0 233 -77 233 -212zM405 208v130c0 89 -48 124 -117 124c-68 0 -118 -35 -118 -125v-129c0 -90 49 -124 118 -124c68 0 117 35 117 124zM318 605h-54c-6 0 -10 2 -12 6
l-106 139c-5 7 -4 15 8 15h73c7 0 13 -1 18 -9l81 -137c5 -9 0 -14 -8 -14z" />
    <glyph glyph-name="oacute" unicode="&#xf3;" horiz-adv-x="576" 
d="M521 345v-144c0 -134 -85 -212 -233 -212c-149 0 -233 77 -233 207v149c0 135 85 212 233 212c149 0 233 -77 233 -212zM405 208v130c0 89 -48 124 -117 124c-68 0 -118 -35 -118 -125v-129c0 -90 49 -124 118 -124c68 0 117 35 117 124zM307 605h-38c-8 0 -13 5 -8 14
l81 137c7 12 28 9 44 9h48c12 0 12 -8 7 -15l-103 -136c-8 -8 -16 -9 -31 -9z" />
    <glyph glyph-name="ocircumflex" unicode="&#xf4;" horiz-adv-x="576" 
d="M521 345v-144c0 -134 -85 -212 -233 -212c-149 0 -233 77 -233 207v149c0 135 85 212 233 212c149 0 233 -77 233 -212zM405 208v130c0 89 -48 124 -117 124c-68 0 -118 -35 -118 -125v-129c0 -90 49 -124 118 -124c68 0 117 35 117 124zM412 615h-58c-10 0 -12 4 -17 11
l-46 84l-48 -86c-4 -6 -6 -9 -14 -9h-59c-10 0 -11 6 -8 12l83 126c6 9 8 11 20 11h53c10 0 14 -4 18 -11l83 -127c4 -6 1 -11 -7 -11z" />
    <glyph glyph-name="otilde" unicode="&#xf5;" horiz-adv-x="576" 
d="M521 345v-144c0 -134 -85 -212 -233 -212c-149 0 -233 77 -233 207v149c0 135 85 212 233 212c149 0 233 -77 233 -212zM405 208v130c0 89 -48 124 -117 124c-68 0 -118 -35 -118 -125v-129c0 -90 49 -124 118 -124c68 0 117 35 117 124zM417 741l37 -40
c4 -5 3 -10 -1 -14c-18 -28 -52 -63 -95 -63c-58 0 -83 43 -116 43c-24 0 -37 -15 -49 -36c-2 -4 -7 -5 -12 0l-42 38c-4 4 -3 8 0 12c13 23 45 59 87 66c7 1 14 1 21 1c50 -3 79 -43 110 -43c40 0 44 53 60 36z" />
    <glyph glyph-name="odieresis" unicode="&#xf6;" horiz-adv-x="576" 
d="M521 345v-144c0 -134 -85 -212 -233 -212c-149 0 -233 77 -233 207v149c0 135 85 212 233 212c149 0 233 -77 233 -212zM405 208v130c0 89 -48 124 -117 124c-68 0 -118 -35 -118 -125v-129c0 -90 49 -124 118 -124c68 0 117 35 117 124zM233 621h-69c-9 0 -15 7 -15 17
v88c0 9 5 17 15 17h69c9 0 16 -6 16 -17v-88c0 -11 -7 -17 -16 -17zM427 621h-69c-9 0 -15 7 -15 17v88c0 9 4 17 15 17h69c9 0 16 -6 16 -17v-88c0 -11 -7 -17 -16 -17z" />
    <glyph glyph-name="omacron" unicode="&#x14d;" horiz-adv-x="576" 
d="M521 345v-144c0 -134 -85 -212 -233 -212c-149 0 -233 77 -233 207v149c0 135 85 212 233 212c149 0 233 -77 233 -212zM405 208v130c0 89 -48 124 -117 124c-68 0 -118 -35 -118 -125v-129c0 -90 49 -124 118 -124c68 0 117 35 117 124zM412 630h-241c-8 0 -12 6 -12 13
v61c0 6 4 13 12 13h242c8 0 11 -7 11 -14v-60c0 -7 -4 -13 -12 -13z" />
    <glyph glyph-name="ohungarumlaut" unicode="&#x151;" horiz-adv-x="576" 
d="M521 345v-144c0 -134 -85 -212 -233 -212c-149 0 -233 77 -233 207v149c0 135 85 212 233 212c149 0 233 -77 233 -212zM405 208v130c0 89 -48 124 -117 124c-68 0 -118 -35 -118 -125v-129c0 -90 49 -124 118 -124c68 0 117 35 117 124zM381 613h-38c-8 0 -13 5 -8 13
l81 138c7 12 28 9 44 9h47c12 0 13 -9 8 -16l-103 -135c-8 -8 -16 -9 -31 -9zM230 613h-38c-8 0 -13 5 -8 13l80 138c7 12 28 9 44 9h48c12 0 12 -9 7 -16l-102 -135c-7 -8 -16 -9 -31 -9z" />
    <glyph glyph-name="oslash" unicode="&#xf8;" horiz-adv-x="576" 
d="M132 -47h-51c-13 0 -12 8 -7 17l42 72c-40 36 -61 89 -61 154v149c0 135 85 212 234 212c43 0 82 -7 113 -20l21 35c5 9 7 11 20 11l49 -1c11 0 12 -6 9 -11l-40 -70c39 -36 60 -89 60 -156v-144c0 -134 -85 -212 -233 -212c-43 0 -80 6 -112 18l-25 -43
c-4 -8 -7 -11 -19 -11zM181 153l170 295c-18 10 -39 14 -63 14c-68 0 -117 -35 -117 -125v-129c0 -22 3 -41 10 -55zM406 208v130c0 21 -4 38 -10 52l-169 -295c18 -7 38 -11 61 -11c68 0 118 35 118 124z" />
    <glyph glyph-name="oe" unicode="&#x153;" horiz-adv-x="900" 
d="M775 161l63 -29c11 -5 15 -14 9 -27c-37 -74 -108 -116 -209 -116c-76 0 -130 24 -168 64c-39 -43 -105 -64 -179 -64c-148 0 -236 74 -236 204v151c0 132 98 213 234 213c73 0 134 -22 184 -68c38 42 93 68 161 68c146 0 221 -84 221 -248v-59c0 -12 -8 -18 -20 -18
h-307v-44c3 -62 37 -104 110 -104c68 0 94 26 113 69c5 11 12 13 24 8zM411 207v130c-1 77 -28 125 -119 125c-79 0 -122 -42 -122 -123v-137c0 -90 53 -118 121 -118c79 0 120 35 120 123zM744 313v34c0 59 -34 115 -110 115c-71 0 -106 -50 -106 -113v-36h216z" />
    <glyph glyph-name="racute" unicode="&#x155;" horiz-adv-x="364" 
d="M170 0h-91c-6 0 -12 4 -12 13v521c0 9 5 13 13 13h85c10 0 14 -6 14 -14v-88c32 62 88 112 169 112c16 0 16 -8 15 -16l-13 -83c-2 -8 -6 -12 -16 -12c-6 0 -16 1 -27 1c-67 -2 -111 -58 -125 -105v-329c0 -9 -6 -13 -12 -13zM254 605h-54c-8 0 -13 5 -8 14l81 137
c5 8 11 9 19 9h73c12 0 12 -8 7 -15l-105 -139c-3 -4 -7 -6 -13 -6z" />
    <glyph glyph-name="rcaron" unicode="&#x159;" horiz-adv-x="364" 
d="M170 0h-91c-6 0 -12 4 -12 13v521c0 9 5 13 13 13h85c10 0 14 -6 14 -14v-88c32 62 88 112 169 112c16 0 16 -8 15 -16l-13 -83c-2 -8 -6 -12 -16 -12c-6 0 -16 1 -27 1c-67 -2 -111 -58 -125 -105v-329c0 -9 -6 -13 -12 -13zM255 616h-54c-12 0 -13 1 -20 10l-79 127
c-4 6 -3 12 7 12h57c9 0 11 -4 14 -10l49 -86l48 85c4 7 6 11 16 11h55c10 0 12 -6 8 -12l-82 -127c-5 -7 -8 -10 -19 -10z" />
    <glyph glyph-name="rcommaaccent" unicode="&#x157;" horiz-adv-x="362" 
d="M29 -323l-22 25c-7 8 -8 17 0 24c55 47 60 92 60 212c0 9 3 14 15 14h82c13 0 15 -5 15 -14c0 -142 -63 -228 -132 -264c-5 -3 -12 -3 -18 3zM170 0h-91c-6 0 -12 4 -12 13v521c0 9 5 13 13 13h85c10 0 14 -6 14 -14v-88c32 62 88 112 169 112c16 0 16 -8 15 -16l-13 -83
c-2 -8 -6 -12 -16 -12c-6 0 -16 1 -27 1c-67 -2 -111 -58 -125 -105v-329c0 -9 -6 -13 -12 -13z" />
    <glyph glyph-name="sacute" unicode="&#x15b;" horiz-adv-x="466" 
d="M268 605h-54c-8 0 -13 6 -8 14l81 137c5 8 11 9 18 9h73c12 0 13 -8 8 -15l-106 -139c-2 -3 -6 -6 -12 -6zM414 410l-77 -20c-8 -2 -11 0 -14 11c-14 41 -41 63 -89 63c-49 0 -76 -22 -76 -60c0 -95 273 -60 273 -254c0 -92 -73 -161 -189 -161c-108 0 -175 44 -199 129
c-5 15 0 18 11 21l67 27c8 3 18 2 20 -11c10 -42 43 -75 101 -75c51 0 84 27 84 65c0 104 -273 69 -273 253c0 94 75 159 188 159c101 0 161 -56 181 -130c3 -10 -1 -15 -8 -17z" />
    <glyph glyph-name="scaron" unicode="&#x161;" horiz-adv-x="466" 
d="M266 616h-54c-12 0 -13 1 -20 10l-79 127c-4 6 -3 11 7 11h57c9 0 11 -3 14 -9l49 -86l48 85c4 7 6 10 16 10h55c10 0 12 -5 8 -11l-82 -127c-5 -7 -8 -10 -19 -10zM414 410l-77 -20c-8 -2 -11 0 -14 11c-14 41 -41 63 -89 63c-49 0 -76 -22 -76 -60
c0 -95 273 -60 273 -254c0 -92 -73 -161 -189 -161c-108 0 -175 44 -199 129c-5 15 0 18 11 21l67 27c8 3 18 2 20 -11c10 -42 43 -75 101 -75c51 0 84 27 84 65c0 104 -273 69 -273 253c0 94 75 159 188 159c101 0 161 -56 181 -130c3 -10 -1 -15 -8 -17z" />
    <glyph glyph-name="scedilla" unicode="&#x15f;" horiz-adv-x="466" 
d="M350 -116v-9c0 -41 -39 -84 -110 -84c-51 0 -88 22 -103 32c-3 3 -9 7 -4 16l17 32c3 6 8 6 12 4c13 -8 47 -25 71 -25c29 0 40 14 40 29v3c0 21 -25 38 -80 31v80c-79 11 -130 53 -150 125c-5 15 0 18 11 21l67 27c8 3 18 2 20 -11c10 -42 43 -75 101 -75
c51 0 84 27 84 65c0 104 -273 69 -273 253c0 94 75 159 188 159c101 0 161 -56 181 -130c3 -10 -1 -15 -8 -17l-77 -20c-8 -2 -11 0 -14 11c-14 41 -41 63 -89 63c-49 0 -76 -22 -76 -60c0 -95 273 -60 273 -254c0 -86 -63 -152 -166 -160v-29c54 0 85 -37 85 -77z" />
    <glyph glyph-name="scommaaccent" unicode="&#x219;" horiz-adv-x="465" 
d="M144 -323l-22 25c-7 8 -8 17 0 24c55 47 60 92 60 212c0 9 3 14 15 14h82c12 0 15 -5 15 -14c0 -142 -64 -228 -132 -264c-5 -3 -12 -3 -18 3zM414 410l-77 -20c-8 -2 -11 0 -14 11c-14 41 -41 63 -89 63c-49 0 -76 -22 -76 -60c0 -95 273 -60 273 -254
c0 -92 -73 -161 -189 -161c-108 0 -175 44 -199 129c-5 15 0 18 11 21l67 27c8 3 18 2 20 -11c10 -42 43 -75 101 -75c51 0 84 27 84 65c0 104 -273 69 -273 253c0 94 75 159 188 159c101 0 161 -56 181 -130c3 -10 -1 -15 -8 -17z" />
    <glyph glyph-name="germandbls" unicode="&#xdf;" horiz-adv-x="604" 
d="M569 227v-30c0 -104 -45 -208 -198 -208c-72 0 -122 30 -150 75c-6 10 -5 18 2 24l50 43c9 8 15 8 24 -6c16 -22 36 -41 72 -41c54 0 84 33 84 114v25c0 108 -70 137 -133 137h-43c-9 0 -12 6 -12 12v69c0 8 5 13 14 13h29c56 0 79 42 79 97c0 62 -32 101 -101 101
c-76 0 -105 -41 -105 -127v-512c0 -8 -5 -13 -14 -13h-89c-6 0 -13 3 -13 12v516c0 143 73 221 225 221c137 0 212 -88 212 -186v-18c0 -71 -33 -111 -77 -133c66 -16 144 -69 144 -185z" />
    <glyph glyph-name="tcaron" unicode="&#x165;" horiz-adv-x="485" 
d="M316 0h-50c-98 0 -173 35 -173 159v275h-66c-8 0 -12 6 -12 13v67c0 6 4 13 12 13h66v124c0 8 5 13 12 13h88c6 0 12 -5 12 -13v-124h103c8 0 11 -7 11 -13v-67c0 -8 -4 -13 -12 -13h-99v-259c0 -63 19 -80 79 -80h32c9 0 13 -6 13 -12v-69c0 -8 -3 -14 -16 -14zM386 502
l-22 25c-7 8 -8 17 0 24c55 47 60 92 60 212c0 9 3 14 15 14h82c13 0 15 -5 15 -14c0 -142 -63 -228 -132 -264c-5 -3 -12 -3 -18 3z" />
    <glyph glyph-name="tcommaaccent" unicode="&#x163;" horiz-adv-x="374" 
d="M316 0h-50c-98 0 -173 35 -173 159v275h-66c-8 0 -12 6 -12 13v67c0 6 4 13 12 13h66v124c0 8 5 13 12 13h88c6 0 12 -5 12 -13v-124h103c8 0 11 -7 11 -13v-67c0 -8 -4 -13 -12 -13h-99v-259c0 -63 19 -80 79 -80h32c9 0 13 -6 13 -12v-69c0 -8 -3 -14 -16 -14z
M146 -323l-22 25c-7 8 -8 17 0 24c55 47 60 92 60 212c0 9 4 14 15 14h82c13 0 16 -5 16 -14c0 -142 -64 -228 -133 -264c-4 -3 -12 -3 -18 3z" />
    <glyph glyph-name="ugrave" unicode="&#xf9;" 
d="M498 0h-87c-7 0 -13 5 -13 13v51c-41 -38 -95 -75 -175 -75c-105 0 -161 61 -161 164v381c0 8 5 13 14 13h89c7 0 13 -4 13 -12v-356c0 -67 31 -95 79 -95c49 0 102 28 138 77v373c0 8 5 13 13 13h89c7 0 14 -4 14 -12v-522c0 -8 -6 -13 -13 -13zM314 605h-54
c-6 0 -10 3 -13 6l-105 139c-5 7 -5 15 7 15h73c8 0 14 -1 19 -9l81 -137c5 -8 0 -14 -8 -14z" />
    <glyph glyph-name="uacute" unicode="&#xfa;" 
d="M498 0h-87c-7 0 -13 5 -13 13v51c-41 -38 -95 -75 -175 -75c-105 0 -161 61 -161 164v381c0 8 5 13 14 13h89c7 0 13 -4 13 -12v-356c0 -67 31 -95 79 -95c49 0 102 28 138 77v373c0 8 5 13 13 13h89c7 0 14 -4 14 -12v-522c0 -8 -6 -13 -13 -13zM315 605h-54
c-8 0 -13 6 -8 14l81 137c5 8 11 9 19 9h73c12 0 12 -8 7 -15l-105 -139c-3 -3 -7 -6 -13 -6z" />
    <glyph glyph-name="ucircumflex" unicode="&#xfb;" 
d="M498 0h-87c-7 0 -13 5 -13 13v51c-41 -38 -95 -75 -175 -75c-105 0 -161 61 -161 164v381c0 8 5 13 14 13h89c7 0 13 -4 13 -12v-356c0 -67 31 -95 79 -95c49 0 102 28 138 77v373c0 8 5 13 13 13h89c7 0 14 -4 14 -12v-522c0 -8 -6 -13 -13 -13zM410 615h-58
c-10 0 -12 4 -17 11l-46 84l-48 -86c-4 -6 -6 -9 -14 -9h-59c-10 0 -11 6 -8 12l83 126c6 9 8 11 20 11h53c10 0 14 -4 18 -11l83 -127c4 -6 1 -11 -7 -11z" />
    <glyph glyph-name="udieresis" unicode="&#xfc;" 
d="M498 0h-87c-7 0 -13 5 -13 13v51c-41 -38 -95 -75 -175 -75c-105 0 -161 61 -161 164v381c0 8 5 13 14 13h89c7 0 13 -4 13 -12v-356c0 -67 31 -95 79 -95c49 0 102 28 138 77v373c0 8 5 13 13 13h89c7 0 14 -4 14 -12v-522c0 -8 -6 -13 -13 -13zM225 621h-69
c-9 0 -15 7 -15 17v88c0 9 4 17 15 17h69c9 0 16 -6 16 -17v-88c0 -11 -7 -17 -16 -17zM419 621h-70c-8 0 -15 7 -15 17v88c0 9 5 17 15 17h70c9 0 16 -6 16 -17v-88c0 -11 -7 -17 -16 -17z" />
    <glyph glyph-name="umacron" unicode="&#x16b;" 
d="M498 0h-87c-7 0 -13 5 -13 13v51c-41 -38 -95 -75 -175 -75c-105 0 -161 61 -161 164v381c0 8 5 13 14 13h89c7 0 13 -4 13 -12v-356c0 -67 31 -95 79 -95c49 0 102 28 138 77v373c0 8 5 13 13 13h89c7 0 14 -4 14 -12v-522c0 -8 -6 -13 -13 -13zM411 630h-241
c-8 0 -12 7 -12 14v60c0 7 4 13 12 13h242c8 0 11 -7 11 -14v-59c0 -7 -4 -14 -12 -14z" />
    <glyph glyph-name="uring" unicode="&#x16f;" 
d="M498 0h-87c-7 0 -13 5 -13 13v51c-41 -38 -95 -75 -175 -75c-105 0 -161 61 -161 164v381c0 8 5 13 14 13h89c7 0 13 -4 13 -12v-356c0 -67 31 -95 79 -95c49 0 102 28 138 77v373c0 8 5 13 13 13h89c7 0 14 -4 14 -12v-522c0 -8 -6 -13 -13 -13zM389 692
c0 -52 -42 -91 -96 -91s-95 39 -95 91c0 55 42 93 95 93c54 0 96 -37 96 -93zM293 654c24 0 41 16 41 38c0 25 -17 40 -41 40c-23 0 -40 -16 -40 -40c0 -22 17 -38 40 -38z" />
    <glyph glyph-name="uhungarumlaut" unicode="&#x171;" 
d="M498 0h-87c-7 0 -13 5 -13 13v51c-41 -38 -95 -75 -175 -75c-105 0 -161 61 -161 164v381c0 8 5 13 14 13h89c7 0 13 -4 13 -12v-356c0 -67 31 -95 79 -95c49 0 102 28 138 77v373c0 8 5 13 13 13h89c7 0 14 -4 14 -12v-522c0 -8 -6 -13 -13 -13zM403 605h-54
c-8 0 -12 5 -8 14l82 137c4 8 10 9 18 9h73c12 0 13 -8 7 -15l-105 -139c-3 -4 -7 -6 -13 -6zM241 605h-54c-8 0 -13 5 -8 14l81 137c5 8 11 9 18 9h73c12 0 13 -8 8 -15l-106 -139c-2 -4 -6 -6 -12 -6z" />
    <glyph glyph-name="uogonek" unicode="&#x173;" 
d="M497 -134l21 -28c4 -6 3 -10 -1 -14c-19 -19 -53 -41 -103 -41c-34 0 -104 20 -104 93c0 63 55 94 100 124c-6 0 -12 5 -12 13v51c-41 -38 -95 -75 -175 -75c-105 0 -161 61 -161 164v381c0 8 5 13 14 13h89c7 0 13 -4 13 -12v-356c0 -67 31 -95 79 -95
c49 0 102 28 138 77v373c0 8 5 13 13 13h89c7 0 14 -4 14 -12v-522c0 -8 -5 -13 -10 -13c-18 -13 -38 -23 -67 -49c-27 -23 -40 -38 -40 -67c0 -23 15 -39 43 -39c20 0 37 12 47 21c5 5 8 4 13 0z" />
    <glyph glyph-name="wgrave" unicode="&#x1e81;" horiz-adv-x="732" 
d="M561 0h-96c-9 0 -13 5 -15 13l-46 189c-18 74 -30 133 -35 194h-2c-6 -61 -17 -119 -35 -195l-47 -188c-2 -8 -6 -13 -16 -13h-98c-9 0 -14 4 -16 13l-139 519c-2 8 -1 15 11 15h90c9 0 13 -4 15 -13l58 -241c15 -67 26 -130 34 -195h2c7 64 19 127 35 195l57 241
c2 8 7 13 15 13h82c8 0 13 -5 15 -13l55 -242c14 -66 27 -128 34 -194h2c7 66 19 127 35 195l57 241c2 9 7 13 14 13h79c10 0 12 -7 10 -15l-140 -519c-2 -7 -5 -13 -15 -13zM392 605h-54c-6 0 -10 3 -13 6l-105 139c-6 7 -5 15 7 15h73c8 0 14 -1 18 -9l82 -137
c4 -8 0 -14 -8 -14z" />
    <glyph glyph-name="wacute" unicode="&#x1e83;" horiz-adv-x="732" 
d="M561 0h-96c-9 0 -13 5 -15 13l-46 189c-18 74 -30 133 -35 194h-2c-6 -61 -17 -119 -35 -195l-47 -188c-2 -8 -6 -13 -16 -13h-98c-9 0 -14 4 -16 13l-139 519c-2 8 -1 15 11 15h90c9 0 13 -4 15 -13l58 -241c15 -67 26 -130 34 -195h2c7 64 19 127 35 195l57 241
c2 8 7 13 15 13h82c8 0 13 -5 15 -13l55 -242c14 -66 27 -128 34 -194h2c7 66 19 127 35 195l57 241c2 9 7 13 14 13h79c10 0 12 -7 10 -15l-140 -519c-2 -7 -5 -13 -15 -13zM352 605h-54c-8 0 -12 6 -8 14l82 137c4 8 10 9 18 9h73c12 0 13 -8 7 -15l-105 -139
c-3 -3 -7 -6 -13 -6z" />
    <glyph glyph-name="wcircumflex" unicode="&#x175;" horiz-adv-x="732" 
d="M561 0h-96c-9 0 -13 5 -15 13l-46 189c-18 74 -30 133 -35 194h-2c-6 -61 -17 -119 -35 -195l-47 -188c-2 -8 -6 -13 -16 -13h-98c-9 0 -14 4 -16 13l-139 519c-2 8 -1 15 11 15h90c9 0 13 -4 15 -13l58 -241c15 -67 26 -130 34 -195h2c7 64 19 127 35 195l57 241
c2 8 7 13 15 13h82c8 0 13 -5 15 -13l55 -242c14 -66 27 -128 34 -194h2c7 66 19 127 35 195l57 241c2 9 7 13 14 13h79c10 0 12 -7 10 -15l-140 -519c-2 -7 -5 -13 -15 -13zM493 615h-58c-10 0 -12 4 -17 11l-46 84l-48 -85c-3 -6 -5 -10 -14 -10h-59c-10 0 -11 6 -7 12
l82 127c6 9 8 10 20 10h53c11 0 14 -3 19 -10l82 -127c4 -6 1 -12 -7 -12z" />
    <glyph glyph-name="wdieresis" unicode="&#x1e85;" horiz-adv-x="732" 
d="M561 0h-96c-9 0 -13 5 -15 13l-46 189c-18 74 -30 133 -35 194h-2c-6 -61 -17 -119 -35 -195l-47 -188c-2 -8 -6 -13 -16 -13h-98c-9 0 -14 4 -16 13l-139 519c-2 8 -1 15 11 15h90c9 0 13 -4 15 -13l58 -241c15 -67 26 -130 34 -195h2c7 64 19 127 35 195l57 241
c2 8 7 13 15 13h82c8 0 13 -5 15 -13l55 -242c14 -66 27 -128 34 -194h2c7 66 19 127 35 195l57 241c2 9 7 13 14 13h79c10 0 12 -7 10 -15l-140 -519c-2 -7 -5 -13 -15 -13zM307 622h-69c-9 0 -15 6 -15 17v88c0 9 4 16 15 16h69c9 0 16 -6 16 -17v-87
c0 -11 -7 -17 -16 -17zM501 622h-70c-8 0 -15 6 -15 17v88c0 9 5 16 15 16h70c9 0 16 -6 16 -17v-87c0 -11 -7 -17 -16 -17z" />
    <glyph glyph-name="ygrave" unicode="&#x1ef3;" horiz-adv-x="485" 
d="M105 -210l-44 60c-7 8 -10 17 2 23c55 28 93 62 122 136l-185 525c-2 5 -1 13 8 13h106c6 0 9 -3 12 -11l122 -399l123 398c2 7 6 12 12 12h97c9 0 11 -6 8 -13l-191 -532c-41 -116 -103 -175 -166 -214c-12 -7 -20 -6 -26 2zM275 605h-54c-6 0 -10 3 -13 6l-105 139
c-6 7 -5 15 7 15h73c8 0 14 -1 18 -9l82 -137c4 -8 0 -14 -8 -14z" />
    <glyph glyph-name="yacute" unicode="&#xfd;" horiz-adv-x="485" 
d="M105 -210l-44 60c-7 8 -10 17 2 23c55 28 93 62 122 136l-185 525c-2 5 -1 13 8 13h106c6 0 9 -3 12 -11l122 -399l123 398c2 7 6 12 12 12h97c9 0 11 -6 8 -13l-191 -532c-41 -116 -103 -175 -166 -214c-12 -7 -20 -6 -26 2zM276 605h-54c-8 0 -13 5 -8 14l81 137
c5 8 11 9 19 9h73c12 0 12 -8 7 -15l-105 -139c-3 -4 -7 -6 -13 -6z" />
    <glyph glyph-name="ycircumflex" unicode="&#x177;" horiz-adv-x="485" 
d="M105 -210l-44 60c-7 8 -10 17 2 23c55 28 93 62 122 136l-185 525c-2 5 -1 13 8 13h106c6 0 9 -3 12 -11l122 -399l123 398c2 7 6 12 12 12h97c9 0 11 -6 8 -13l-191 -532c-41 -116 -103 -175 -166 -214c-12 -7 -20 -6 -26 2zM373 615h-58c-10 0 -12 4 -17 11l-46 84
l-48 -86c-4 -6 -6 -9 -14 -9h-59c-10 0 -11 6 -8 12l83 126c6 9 8 11 20 11h53c10 0 14 -4 18 -11l83 -127c4 -6 1 -11 -7 -11z" />
    <glyph glyph-name="ydieresis" unicode="&#xff;" horiz-adv-x="485" 
d="M105 -210l-44 60c-7 8 -10 17 2 23c55 28 93 62 122 136l-185 525c-2 5 -1 13 8 13h106c6 0 9 -3 12 -11l122 -399l123 398c2 7 6 12 12 12h97c9 0 11 -6 8 -13l-191 -532c-41 -116 -103 -175 -166 -214c-12 -7 -20 -6 -26 2zM189 624h-70c-8 0 -15 6 -15 16v88
c0 9 5 17 15 17h70c9 0 16 -6 16 -17v-87c0 -11 -7 -17 -16 -17zM382 624h-69c-9 0 -15 6 -15 16v88c0 9 5 17 15 17h69c10 0 16 -6 16 -17v-87c0 -11 -6 -17 -16 -17z" />
    <glyph glyph-name="zacute" unicode="&#x17a;" horiz-adv-x="471" 
d="M433 0h-378c-7 0 -13 4 -15 13l-14 44l263 394h-219c-8 0 -13 6 -13 13v70c0 6 3 13 11 13h348c8 0 13 -3 16 -13l13 -44l-262 -395h251c8 0 12 -6 12 -12v-70c0 -8 -5 -13 -13 -13zM280 605h-54c-8 0 -13 5 -8 14l81 137c5 8 11 9 19 9h73c12 0 12 -8 7 -15l-105 -139
c-3 -4 -7 -6 -13 -6z" />
    <glyph glyph-name="zcaron" unicode="&#x17e;" horiz-adv-x="471" 
d="M433 0h-378c-7 0 -13 4 -15 13l-14 44l263 394h-219c-8 0 -13 6 -13 13v70c0 6 3 13 11 13h348c8 0 13 -3 16 -13l13 -44l-262 -395h251c8 0 12 -6 12 -12v-70c0 -8 -5 -13 -13 -13zM289 613h-54c-12 0 -13 1 -20 10l-79 127c-4 6 -3 12 7 12h57c9 0 11 -4 14 -10l49 -86
l48 85c4 7 6 11 16 11h55c10 0 12 -6 8 -12l-82 -127c-5 -7 -8 -10 -19 -10z" />
    <glyph glyph-name="zdotaccent" unicode="&#x17c;" horiz-adv-x="471" 
d="M433 0h-378c-7 0 -13 4 -15 13l-14 44l263 394h-219c-8 0 -13 6 -13 13v70c0 6 3 13 11 13h348c8 0 13 -3 16 -13l13 -44l-262 -395h251c8 0 12 -6 12 -12v-70c0 -8 -5 -13 -13 -13zM307 632h-103c-11 0 -17 5 -17 15v95c0 11 4 18 17 18h102c12 0 17 -6 17 -17v-96
c0 -9 -6 -15 -16 -15z" />
    <glyph glyph-name="eth" unicode="&#xf0;" horiz-adv-x="601" 
d="M540 320v-83c-1 -139 -80 -249 -248 -249c-157 0 -237 80 -237 218v103c0 134 87 216 231 216c63 0 116 -29 133 -43c-13 41 -39 84 -80 121l-35 -37c-5 -6 -13 -5 -18 0l-45 41c-5 4 -6 12 -1 17l34 37c-17 14 -32 24 -46 31c-8 4 -17 13 -6 27l52 61c10 12 23 4 28 0
c15 -13 29 -25 43 -38l37 40c6 7 14 6 19 1l46 -43c5 -4 6 -12 1 -18l-38 -41c90 -94 130 -203 130 -361zM424 214v87c0 89 -63 131 -131 131c-66 0 -123 -42 -123 -130v-96c0 -98 65 -123 122 -123c69 0 132 28 132 131z" />
    <glyph glyph-name="thorn" unicode="&#xfe;" horiz-adv-x="589" 
d="M172 -207h-91c-6 0 -13 4 -13 13v932c0 8 7 12 13 12h86c7 0 13 -4 13 -12v-273c27 35 84 92 171 92c122 0 186 -89 186 -205v-151c0 -138 -91 -212 -192 -212c-86 0 -131 33 -161 72v-255c0 -8 -6 -13 -12 -13zM422 212v119c0 85 -37 130 -105 130
c-77 0 -133 -58 -133 -154v-95c0 -63 36 -128 123 -128c68 0 115 35 115 128z" />
    <glyph glyph-name="grave" unicode="`" horiz-adv-x="298" 
d="M232 601h-54c-6 0 -10 2 -13 6l-105 138c-6 7 -5 16 7 16h73c8 0 14 -1 18 -9l82 -138c4 -8 0 -13 -8 -13z" />
    <glyph glyph-name="acute" unicode="&#xb4;" horiz-adv-x="298" 
d="M120 601h-54c-8 0 -13 5 -8 13l81 138c5 8 11 9 19 9h73c12 0 12 -9 7 -16l-105 -138c-3 -4 -7 -6 -13 -6z" />
    <glyph glyph-name="circumflex" unicode="&#x2c6;" horiz-adv-x="373" 
d="M308 615h-58c-10 0 -12 3 -17 11l-46 84l-48 -86c-4 -6 -6 -9 -14 -9h-59c-10 0 -11 6 -8 12l83 126c6 9 8 11 20 11h53c10 0 14 -4 18 -11l83 -127c4 -6 1 -11 -7 -11z" />
    <glyph glyph-name="caron" unicode="&#x2c7;" horiz-adv-x="371" 
d="M212 617h-54c-12 0 -14 1 -20 10l-80 127c-4 6 -2 11 8 11h57c8 0 10 -3 14 -9l49 -86l48 85c4 7 6 10 15 10h56c10 0 12 -5 8 -11l-83 -127c-4 -7 -8 -10 -18 -10z" />
    <glyph glyph-name="tilde" unicode="&#x2dc;" horiz-adv-x="436" 
d="M338 739l37 -40c4 -5 3 -10 -1 -15c-18 -28 -52 -62 -95 -62c-58 0 -83 43 -116 43c-24 0 -37 -16 -49 -36c-2 -5 -7 -6 -12 -1l-42 39c-4 3 -3 7 0 12c13 22 45 58 87 65c7 2 14 1 21 1c50 -2 79 -42 110 -42c40 0 44 52 60 36z" />
    <glyph glyph-name="dieresis" unicode="&#xa8;" horiz-adv-x="421" 
d="M148 619h-69c-9 0 -15 6 -15 17v88c0 9 4 17 15 17h69c9 0 16 -6 16 -17v-88c0 -11 -7 -17 -16 -17zM342 619h-70c-8 0 -15 6 -15 17v88c0 9 5 17 15 17h70c9 0 16 -6 16 -17v-88c0 -11 -7 -17 -16 -17z" />
    <glyph glyph-name="macron" unicode="&#xaf;" horiz-adv-x="418" 
d="M329 653h-241c-8 0 -12 6 -12 13v60c0 7 4 14 12 14h242c8 0 11 -8 11 -14v-60c0 -7 -4 -13 -12 -13z" />
    <glyph glyph-name="breve" unicode="&#x2d8;" horiz-adv-x="383" 
d="M73 767l58 -7c6 -1 9 -3 9 -11c1 -32 22 -54 52 -54c27 0 51 20 51 54c0 5 2 10 9 11c6 1 48 6 60 7c7 1 8 -4 8 -12c0 -66 -53 -122 -128 -122c-82 0 -128 60 -128 124c0 7 1 11 9 10z" />
    <glyph glyph-name="ring" unicode="&#x2da;" horiz-adv-x="304" 
d="M248 692c0 -53 -43 -91 -97 -91s-95 38 -95 91c0 54 42 92 95 92c54 0 97 -37 97 -92zM151 653c24 0 41 16 41 39c0 24 -16 40 -41 40c-23 0 -40 -17 -40 -40s17 -39 40 -39z" />
    <glyph glyph-name="hungarumlaut" unicode="&#x2dd;" horiz-adv-x="491" 
d="M298 601h-54c-8 0 -12 5 -8 13l82 138c4 8 10 9 18 9h73c12 0 13 -9 7 -16l-105 -138c-3 -4 -7 -6 -13 -6zM147 601h-53c-8 0 -13 5 -8 13l80 138c5 8 11 9 18 9h73c12 0 13 -9 8 -16l-105 -138c-3 -4 -7 -6 -13 -6z" />
    <glyph glyph-name="dotaccent" unicode="&#x2d9;" horiz-adv-x="374" 
d="M239 618h-103c-11 0 -17 6 -17 16v95c0 11 4 18 17 18h102c12 0 17 -6 17 -17v-96c0 -9 -6 -16 -16 -16z" />
    <glyph glyph-name="cedilla" unicode="&#xb8;" horiz-adv-x="446" 
d="M332 -113v-9c0 -41 -39 -84 -110 -84c-51 0 -88 22 -102 32c-4 3 -9 7 -4 16l16 32c3 6 9 6 12 4c14 -8 47 -25 72 -25c28 0 39 14 39 29v3c0 21 -25 38 -80 31v101h73v-53c53 0 84 -37 84 -77z" />
    <glyph glyph-name="ogonek" unicode="&#x2db;" horiz-adv-x="479" 
d="M320 -125l21 -28c5 -6 4 -10 0 -14c-20 -19 -54 -41 -103 -41c-34 0 -105 20 -105 93c0 68 64 99 111 131h80v-7c-17 -13 -38 -23 -67 -49c-27 -23 -39 -38 -39 -67c0 -23 15 -39 42 -39c21 0 37 12 48 21c4 5 8 4 12 0z" />
    <glyph glyph-name="comma" unicode="," horiz-adv-x="223" 
d="M34 -133l-22 25c-7 8 -8 17 0 24c55 47 60 92 60 212c0 9 4 14 15 14h82c13 0 16 -5 16 -14c0 -142 -64 -228 -133 -264c-4 -3 -12 -3 -18 3z" />
    <glyph glyph-name="semicolon" unicode=";" horiz-adv-x="231" 
d="M156 405h-79c-9 0 -15 6 -15 16v109c0 9 4 17 15 17h79c10 0 16 -6 16 -17v-108c0 -11 -6 -17 -16 -17zM24 -133l-22 25c-7 8 -8 17 0 24c55 47 60 92 60 212c0 9 3 14 15 14h82c12 0 15 -5 15 -14c0 -142 -64 -228 -132 -264c-5 -3 -12 -3 -18 3z" />
    <glyph glyph-name="colon" unicode=":" horiz-adv-x="224" 
d="M150 405h-80c-9 0 -15 6 -15 16v109c0 9 5 17 15 17h80c9 0 16 -6 16 -17v-108c0 -11 -7 -17 -16 -17zM150 0h-80c-9 0 -15 6 -15 17v108c0 9 5 17 15 17h80c9 0 16 -6 16 -17v-108c0 -11 -7 -17 -16 -17z" />
    <glyph glyph-name="period" unicode="." horiz-adv-x="231" 
d="M155 0h-80c-9 0 -15 6 -15 17v108c0 9 5 17 15 17h80c9 0 16 -6 16 -17v-108c0 -11 -7 -17 -16 -17z" />
    <glyph glyph-name="ellipsis" unicode="&#x2026;" horiz-adv-x="711" 
d="M146 0h-71c-9 0 -15 6 -15 17v108c0 9 5 17 15 17h71c10 0 16 -6 16 -17v-108c0 -11 -6 -17 -16 -17zM440 0h-71c-9 0 -15 6 -15 17v108c0 9 5 17 15 17h71c10 0 16 -6 16 -17v-108c0 -11 -6 -17 -16 -17zM586 0h-72c-8 0 -15 6 -15 17v108c0 9 5 17 15 17h72
c9 0 16 -6 16 -17v-108c0 -11 -7 -17 -16 -17z" />
    <glyph glyph-name="hyphen" unicode="-" horiz-adv-x="477" 
d="M407 256h-337c-10 0 -14 5 -14 14v63c0 6 3 14 12 14h341c9 0 12 -8 12 -14v-63c0 -9 -4 -14 -14 -14z" />
    <glyph glyph-name="exclam" unicode="!" horiz-adv-x="291" 
d="M172 220h-55c-8 0 -12 3 -12 10l-15 501c0 6 4 11 12 11h86c9 0 13 -5 13 -11l-16 -501c0 -7 -6 -10 -13 -10zM182 0h-74c-9 0 -15 6 -15 17v89c0 9 4 17 15 17h74c9 0 16 -6 16 -17v-89c0 -11 -7 -17 -16 -17z" />
    <glyph glyph-name="exclamdown" unicode="&#xa1;" horiz-adv-x="291" 
d="M188 -185h-86c-8 0 -12 5 -12 12l15 501c0 7 4 10 12 10h55c7 0 13 -3 13 -10l16 -501c0 -7 -4 -12 -13 -12zM182 435h-74c-11 0 -15 7 -15 16v90c0 11 6 17 15 17h74c9 0 16 -6 16 -17v-89c0 -11 -7 -17 -16 -17z" />
    <glyph glyph-name="question" unicode="?" horiz-adv-x="425" 
d="M222 215h-69c-10 0 -15 8 -15 17v36c0 146 150 193 150 291c0 54 -31 93 -96 93c-48 0 -85 -21 -112 -60c-8 -11 -16 -9 -24 0l-43 46c-6 10 -2 18 4 24c41 48 103 88 187 88c123 0 196 -83 196 -180c0 -141 -162 -187 -162 -307v-31c0 -11 -7 -17 -16 -17zM222 0h-69
c-9 0 -15 6 -15 17v89c0 9 5 17 15 17h69c9 0 16 -6 16 -17v-89c0 -11 -7 -17 -16 -17z" />
    <glyph glyph-name="questiondown" unicode="&#xbf;" horiz-adv-x="445" 
d="M383 -61l42 -47c7 -9 2 -17 -4 -24c-40 -47 -102 -87 -186 -87c-124 0 -196 83 -196 179c0 142 162 188 162 308v31c0 11 7 17 16 17h69c10 0 15 -8 15 -17v-36c0 -146 -150 -194 -150 -291c0 -54 30 -93 96 -93c48 0 85 21 112 59c8 12 16 9 24 1zM286 408h-69
c-9 0 -16 6 -16 17v89c0 11 7 17 16 17h69c8 0 15 -6 15 -17v-90c0 -9 -5 -16 -15 -16z" />
    <glyph glyph-name="quoteleft" unicode="&#x2018;" horiz-adv-x="247" 
d="M152 483h-82c-12 0 -15 5 -15 14c0 141 64 218 132 254c5 3 12 3 18 -3l22 -26c7 -7 8 -17 0 -23c-55 -47 -60 -83 -60 -202c0 -9 -3 -14 -15 -14z" />
    <glyph glyph-name="quoteright" unicode="&#x2019;" horiz-adv-x="261" 
d="M56 472l-23 25c-7 8 -7 17 1 24c55 47 59 82 59 202c0 9 4 14 15 14h82c13 0 16 -5 16 -14c0 -142 -64 -218 -132 -254c-5 -3 -13 -3 -18 3z" />
    <glyph glyph-name="quotedblleft" unicode="&#x201c;" horiz-adv-x="450" 
d="M152 487h-82c-12 0 -15 6 -15 14c0 142 64 218 132 255c5 2 12 3 18 -4l22 -25c7 -8 8 -17 0 -24c-55 -46 -60 -82 -60 -202c0 -8 -3 -14 -15 -14zM355 487h-82c-13 0 -16 6 -16 14c0 142 64 218 133 255c4 2 12 3 18 -4l22 -25c7 -8 8 -17 0 -24
c-55 -46 -60 -82 -60 -202c0 -8 -4 -14 -15 -14z" />
    <glyph glyph-name="quotedblright" unicode="&#x201d;" horiz-adv-x="459" 
d="M254 474l-23 25c-7 8 -7 17 1 24c55 46 59 82 59 202c0 8 4 14 15 14h82c13 0 16 -6 16 -14c0 -142 -64 -218 -132 -255c-5 -2 -13 -3 -18 4zM51 474l-22 25c-7 8 -8 17 0 24c55 46 60 82 60 202c0 8 3 14 15 14h82c13 0 15 -6 15 -14c0 -142 -63 -218 -132 -255
c-5 -2 -12 -3 -18 4z" />
    <glyph glyph-name="quotesinglbase" unicode="&#x201a;" horiz-adv-x="223" 
d="M34 -133l-22 25c-7 8 -8 17 0 24c55 47 60 92 60 212c0 9 4 14 15 14h82c13 0 16 -5 16 -14c0 -142 -64 -228 -133 -264c-4 -3 -12 -3 -18 3z" />
    <glyph glyph-name="quotedblbase" unicode="&#x201e;" horiz-adv-x="427" 
d="M34 -150l-22 25c-7 8 -8 17 0 24c55 47 60 82 60 202c0 9 4 14 15 14h82c13 0 16 -5 16 -14c0 -142 -64 -218 -133 -254c-4 -3 -12 -3 -18 3zM238 -150l-22 25c-7 8 -8 17 0 24c55 47 60 82 60 202c0 9 3 14 15 14h82c12 0 15 -5 15 -14c0 -142 -64 -218 -132 -254
c-5 -3 -12 -3 -18 3z" />
    <glyph glyph-name="guilsinglleft" unicode="&#x2039;" horiz-adv-x="332" 
d="M272 102l-54 -33c-9 -6 -19 -2 -24 6l-153 222l153 223c5 7 15 12 24 5l54 -33c9 -5 9 -13 4 -20l-122 -174l122 -176c5 -6 5 -14 -4 -20z" />
    <glyph glyph-name="guilsinglright" unicode="&#x203a;" horiz-adv-x="332" 
d="M117 69l-53 33c-9 6 -9 14 -4 20l122 176l-122 174c-5 7 -5 15 4 20l53 33c10 7 20 2 25 -5l153 -223l-153 -222c-5 -8 -15 -12 -25 -6z" />
    <glyph glyph-name="guillemotleft" unicode="&#xab;" horiz-adv-x="562" 
d="M268 104l-53 -33c-10 -7 -20 -2 -25 5l-153 222l153 223c5 8 15 12 25 6l53 -33c9 -6 9 -14 4 -20l-122 -175l122 -175c5 -7 5 -15 -4 -20zM498 104l-53 -33c-10 -7 -20 -2 -24 5l-153 222l153 223c4 8 14 12 24 6l53 -33c9 -6 9 -14 5 -20l-123 -175l123 -175
c4 -7 4 -15 -5 -20z" />
    <glyph glyph-name="guillemotright" unicode="&#xbb;" horiz-adv-x="562" 
d="M347 69l-53 33c-9 6 -9 14 -5 20l123 176l-123 174c-4 7 -4 15 5 20l53 33c10 7 20 2 24 -5l153 -223l-153 -222c-4 -8 -14 -12 -24 -6zM117 69l-53 33c-9 6 -9 14 -4 20l122 176l-122 174c-5 7 -5 15 4 20l53 33c10 7 20 2 25 -5l153 -223l-153 -222
c-5 -8 -15 -12 -25 -6z" />
    <glyph glyph-name="slash" unicode="/" horiz-adv-x="397" 
d="M91 0h-78c-13 0 -11 7 -7 17l280 709c4 9 7 11 20 11h78c11 0 11 -6 9 -11l-283 -716c-3 -7 -8 -10 -19 -10z" />
    <glyph glyph-name="bar" unicode="|" horiz-adv-x="265" 
d="M173 -263h-81c-9 0 -14 5 -14 14v1037c0 9 6 13 14 13h80c7 0 15 -3 15 -14v-1036c0 -10 -7 -14 -14 -14z" />
    <glyph glyph-name="endash" unicode="&#x2013;" horiz-adv-x="533" 
d="M465 257h-397c-8 0 -12 7 -12 13v61c0 7 4 13 12 13h398c8 0 11 -7 11 -14v-60c0 -6 -4 -13 -12 -13z" />
    <glyph glyph-name="emdash" unicode="&#x2014;" horiz-adv-x="1033" 
d="M965 257h-897c-8 0 -12 7 -12 13v61c0 7 4 13 12 13h898c8 0 11 -7 11 -14v-60c0 -6 -4 -13 -12 -13z" />
    <glyph glyph-name="bullet" unicode="&#x2022;" horiz-adv-x="424" 
d="M212 165c-86 0 -153 68 -153 154c0 84 68 153 153 153c86 0 154 -67 154 -153c0 -85 -69 -154 -154 -154z" />
    <glyph glyph-name="periodcentered" unicode="&#xb7;" horiz-adv-x="251" 
d="M161 239h-72c-9 0 -15 6 -15 17v108c0 9 5 17 15 17h72c9 0 16 -6 16 -17v-108c0 -11 -7 -17 -16 -17z" />
    <glyph glyph-name="parenleft" unicode="(" horiz-adv-x="357" 
d="M272 -73l-53 -42c-14 -12 -21 -8 -30 1c-50 54 -133 220 -133 436c0 194 85 363 148 431c5 5 14 14 26 4l59 -49c9 -7 6 -14 2 -18c-55 -61 -119 -203 -119 -369c0 -171 62 -309 106 -372c7 -11 2 -15 -6 -22z" />
    <glyph glyph-name="parenright" unicode=")" horiz-adv-x="357" 
d="M138 -115l-54 44c-7 6 -12 11 -5 21c45 63 105 203 105 372c0 166 -63 308 -119 369c-3 4 -7 11 2 18l60 49c12 10 21 0 26 -4c64 -73 148 -239 148 -431c0 -216 -83 -382 -133 -436c-8 -9 -16 -13 -30 -2z" />
    <glyph glyph-name="bracketleft" unicode="[" horiz-adv-x="358" 
d="M315 -143h-232v905h232c10 0 13 -7 13 -13v-71c0 -6 -4 -11 -13 -11h-118v-715h118c10 0 13 -7 13 -13v-71c0 -6 -4 -11 -13 -11z" />
    <glyph glyph-name="bracketright" unicode="]" horiz-adv-x="358" 
d="M275 -143h-232c-9 0 -13 5 -13 11v71c0 6 3 13 13 13h118v715h-118c-9 0 -13 5 -13 11v71c0 6 3 13 13 13h232v-905z" />
    <glyph glyph-name="braceleft" unicode="{" horiz-adv-x="376" 
d="M314 -147h-54c-86 0 -128 58 -128 141v184c0 50 -30 79 -87 84c-10 1 -15 3 -15 12v66c0 9 6 12 14 13c70 6 88 33 88 108v158c0 85 39 147 128 147h54c10 0 13 -7 13 -13v-70c0 -7 -5 -12 -13 -12h-31c-34 0 -49 -21 -49 -52v-191c0 -62 -43 -107 -101 -118v-2
c54 -10 101 -56 101 -121v-180c0 -40 15 -59 52 -59h28c10 0 13 -7 13 -13v-70c0 -7 -5 -12 -13 -12z" />
    <glyph glyph-name="braceright" unicode="}" horiz-adv-x="379" 
d="M119 -142h-54c-8 0 -13 6 -13 12v68c0 6 4 13 13 13h28c37 0 52 19 52 59v180c0 64 41 112 96 121v3c-56 8 -96 54 -96 117v188c0 31 -15 50 -48 50h-32c-8 0 -13 6 -13 13v68c0 6 4 12 13 12h54c90 0 128 -60 128 -146v-152c0 -75 19 -102 88 -108c8 -1 14 -3 14 -13
v-65c0 -9 -4 -11 -15 -12c-57 -6 -87 -34 -87 -84v-185c0 -82 -42 -139 -128 -139z" />
    <glyph glyph-name="asterisk" unicode="*" horiz-adv-x="412" 
d="M340 436l-48 -36c-9 -7 -19 -3 -22 3l-64 104l-63 -103c-4 -7 -13 -11 -21 -4l-49 38c-7 6 -5 15 -1 19l79 88l-113 30c-7 1 -11 6 -8 17l19 60c4 10 11 10 18 7l107 -51l-11 122c-1 6 2 12 12 12h67c10 0 12 -6 11 -12l-12 -121l104 48c6 3 14 4 18 -7l18 -60
c4 -10 -1 -15 -7 -17l-113 -28l81 -90c4 -5 6 -13 -2 -19z" />
    <glyph glyph-name="dagger" unicode="&#x2020;" horiz-adv-x="413" 
d="M230 184h-45c-10 0 -13 3 -13 10l-8 313l-136 -13c-9 0 -16 3 -16 15v61c0 14 7 18 16 17l134 -12l-4 155c0 8 3 12 12 12h75c9 0 11 -4 11 -12l-4 -155l132 12c10 1 16 -3 16 -17v-61c0 -12 -7 -15 -15 -15l-134 12l-9 -312c0 -7 -5 -10 -12 -10z" />
    <glyph glyph-name="daggerdbl" unicode="&#x2021;" horiz-adv-x="413" 
d="M230 185h-46c-10 0 -13 3 -13 10l-3 157l-136 -11c-9 -1 -16 2 -16 15v60c0 15 7 19 16 18l135 -11v82l-135 -11c-9 0 -16 3 -16 15v61c0 14 7 18 18 17l129 -11l-5 154c0 8 3 12 12 12h75c9 0 11 -4 11 -13l-5 -153l130 11c9 1 16 -3 16 -17v-61c0 -12 -7 -15 -16 -15
l-134 11v-82l134 11c9 1 16 -3 16 -18v-60c0 -13 -7 -16 -16 -15l-135 11l-3 -157c0 -6 -5 -10 -13 -10z" />
    <glyph glyph-name="section" unicode="&#xa7;" horiz-adv-x="516" 
d="M341 337c0 47 -41 77 -90 77c-46 0 -72 -32 -72 -73c0 -43 42 -78 87 -78c50 0 75 31 75 74zM74 69l67 18c10 3 17 1 20 -11c10 -50 40 -79 96 -79c52 0 77 27 77 71c0 48 -46 78 -124 114c-84 39 -138 79 -138 159c0 56 36 104 91 123c-58 31 -101 73 -101 143
c0 67 57 142 187 142c96 0 160 -49 180 -120c2 -10 0 -15 -7 -18l-77 -24c-9 -3 -14 -1 -16 10c-5 36 -32 66 -80 66c-51 0 -72 -24 -72 -53c0 -30 22 -57 127 -102c98 -43 145 -85 145 -165c0 -60 -42 -107 -96 -128c50 -28 105 -72 105 -147c0 -91 -85 -159 -202 -159
c-97 0 -173 45 -193 139c-4 17 4 18 11 21z" />
    <glyph glyph-name="paragraph" unicode="&#xb6;" horiz-adv-x="597" 
d="M480 -140h-70c-8 0 -14 4 -14 13v776h-63v-423h-71c-151 0 -241 86 -241 232c0 160 109 275 300 275h233c9 0 12 -5 12 -10v-62c0 -8 -4 -12 -13 -12h-58v-775c0 -10 -5 -14 -15 -14z" />
    <glyph glyph-name="asciicircum" unicode="^" horiz-adv-x="525" 
d="M451 330h-78c-10 0 -16 4 -18 12l-94 275l-92 -275c-2 -8 -8 -12 -18 -12h-77c-12 0 -17 7 -10 27l138 358c2 6 7 14 17 14h87c12 0 17 -6 20 -15l138 -367c3 -10 -1 -17 -13 -17z" />
    <glyph glyph-name="asciitilde" unicode="~" horiz-adv-x="527" 
d="M450 377l45 -43c4 -4 4 -9 1 -15c-19 -35 -70 -81 -126 -81c-93 0 -144 54 -206 54c-33 0 -57 -29 -70 -44c-5 -6 -10 -10 -18 -3l-44 44c-4 4 -4 9 -1 15c18 30 71 80 128 80c79 0 140 -54 202 -54c34 0 59 29 71 44c5 6 11 10 18 3z" />
    <glyph glyph-name="brokenbar" unicode="&#xa6;" horiz-adv-x="259" 
d="M171 -265h-83c-5 0 -11 4 -11 13v451c0 9 6 13 11 13h83c6 0 11 -5 11 -13v-451c0 -8 -5 -13 -11 -13zM171 324h-83c-5 0 -11 4 -11 12v452c0 9 6 13 11 13h83c6 0 11 -6 11 -13v-452c0 -7 -5 -12 -11 -12z" />
    <glyph glyph-name="backslash" unicode="\" horiz-adv-x="385" 
d="M390 0h-78c-11 0 -16 3 -19 10l-283 716c-2 5 -2 11 9 11h78c13 0 16 -2 20 -11l280 -709c4 -10 6 -17 -7 -17z" />
    <glyph glyph-name="underscore" unicode="_" horiz-adv-x="385" 
d="M386 -121h-388v56h388v-56z" />
    <glyph glyph-name="quotesingle" unicode="'" horiz-adv-x="208" 
d="M135 454h-48c-10 0 -13 3 -13 10l-16 261c-1 8 3 13 12 13h82c9 0 12 -6 12 -13l-16 -261c0 -6 -6 -10 -13 -10z" />
    <glyph glyph-name="quotedbl" unicode="&#x22;" horiz-adv-x="408" 
d="M135 454h-48c-10 0 -13 3 -13 10l-16 261c-1 8 3 13 12 13h82c9 0 12 -6 12 -13l-16 -261c0 -6 -6 -10 -13 -10zM321 454h-48c-10 0 -12 3 -13 10l-16 261c-1 8 4 13 12 13h83c9 0 12 -6 11 -13l-16 -261c0 -6 -5 -10 -13 -10z" />
    <glyph glyph-name="at" unicode="@" horiz-adv-x="832" 
d="M495 196v86c-144 5 -162 -31 -162 -72v-5c0 -31 26 -55 66 -55c46 0 76 20 96 46zM633 24l18 -49c3 -8 0 -15 -7 -18c-14 -7 -107 -45 -237 -45c-282 0 -351 199 -351 310v143c0 129 98 311 370 311c289 0 350 -173 350 -281v-145c0 -90 -34 -168 -146 -168
c-77 0 -110 51 -110 51c-36 -37 -78 -56 -135 -56c-69 0 -139 45 -139 124v11c0 93 60 144 250 135v14c0 51 -26 85 -85 85c-50 0 -72 -28 -82 -61c-3 -10 -9 -9 -16 -6l-49 23c-7 3 -9 6 -6 15c23 56 77 102 158 102c117 0 169 -67 169 -166v-150c0 -29 20 -52 51 -52
c33 0 60 25 60 76v158c0 89 -56 211 -270 211c-213 0 -280 -124 -280 -248v-113c0 -132 85 -243 260 -243c110 0 182 24 210 37c8 3 14 2 17 -5z" />
    <glyph glyph-name="copyright" unicode="&#xa9;" horiz-adv-x="759" 
d="M475 274l47 -23c7 -4 12 -8 8 -18c-21 -55 -71 -91 -150 -91c-93 0 -161 53 -161 160v100c0 106 74 160 162 160c94 0 145 -51 156 -116c1 -7 -1 -12 -9 -14l-57 -14c-7 -2 -13 -3 -15 8c-5 29 -20 64 -72 64c-44 0 -78 -23 -78 -100v-86c0 -64 28 -91 77 -91
c47 0 66 30 74 55c4 11 11 10 18 6zM738 357c0 -197 -162 -357 -359 -357c-209 0 -358 138 -358 357c0 205 161 354 358 354c217 0 359 -151 359 -354zM380 69c156 0 284 132 284 289c0 158 -114 284 -284 284c-167 0 -284 -128 -284 -284c0 -166 112 -289 284 -289z" />
    <glyph glyph-name="registered" unicode="&#xae;" horiz-adv-x="499" 
d="M460 535c0 -116 -94 -205 -210 -205c-119 0 -211 86 -211 205c0 116 95 209 211 209c118 0 210 -91 210 -209zM412 535c0 95 -71 166 -162 166c-93 0 -163 -73 -163 -166c0 -91 68 -163 163 -163c92 0 162 74 162 163zM288 574v4c0 19 -10 32 -36 32h-32v-70h29
c30 0 39 13 39 34zM330 431h-43c-2 0 -4 1 -5 3l-35 72h-26v-71c0 -2 -1 -4 -3 -4h-38c-2 0 -4 2 -4 4v210h80c53 0 76 -33 76 -65v-6c0 -28 -14 -53 -41 -64l41 -75c1 -2 0 -4 -2 -4z" />
    <glyph glyph-name="trademark" unicode="&#x2122;" horiz-adv-x="557" 
d="M148 437h-44c-4 0 -6 3 -6 6v242h-77c-4 0 -5 5 -5 8v31c0 4 1 8 5 8h211c4 0 5 -4 5 -8v-31c0 -3 -1 -8 -5 -8h-78v-242c0 -3 -2 -6 -6 -6zM527 437h-46c-2 0 -4 2 -5 6v130c0 14 -1 39 0 53l-57 -184c-1 -2 -2 -5 -6 -5h-31c-4 0 -5 2 -6 5l-59 185c2 -16 1 -35 1 -48
v-137c0 -3 -3 -5 -5 -5h-46c-2 0 -4 3 -4 5v284c0 3 2 6 6 6h61c3 0 5 -1 7 -5l36 -122c10 -33 19 -60 25 -90c6 30 16 59 26 90l37 122c1 4 4 5 7 5h58c4 0 6 -2 6 -5v-284c0 -4 -3 -6 -5 -6z" />
    <glyph glyph-name="ordfeminine" unicode="&#xaa;" horiz-adv-x="416" 
d="M276 451v72c-123 4 -151 -22 -151 -63v-4c0 -30 24 -48 58 -48c42 0 73 22 93 43zM359 346h-70c-6 0 -11 2 -11 9v32c-27 -25 -65 -49 -121 -49c-62 0 -117 42 -117 113v6c0 89 69 128 236 126v14c0 46 -22 75 -72 75c-39 0 -65 -22 -79 -51c-4 -8 -9 -9 -15 -6l-46 21
c-6 2 -9 7 -6 14c21 49 67 92 148 92c103 0 164 -55 164 -152v-235c0 -7 -5 -9 -11 -9z" />
    <glyph glyph-name="ordmasculine" unicode="&#xba;" horiz-adv-x="411" 
d="M375 596v-111c0 -102 -75 -147 -170 -147c-104 0 -169 50 -169 147v114c0 97 74 143 169 143c98 0 170 -44 170 -146zM289 491v100c0 54 -30 81 -84 81c-57 0 -83 -33 -83 -81v-100c0 -50 28 -82 83 -82c54 0 84 25 84 82z" />
    <glyph glyph-name="numbersign" unicode="#" horiz-adv-x="643" 
d="M373 304l29 136h-128l-29 -136h128zM388 0h-71c-8 0 -11 5 -9 11l46 209h-126l-47 -210c-1 -7 -6 -10 -15 -10h-72c-9 0 -10 5 -9 10l45 210h-93c-8 0 -15 3 -14 14l11 56c2 11 5 14 19 14h96l29 136h-93c-7 0 -15 2 -13 14l10 57c2 10 8 13 16 13h100l45 203
c2 7 6 10 15 10h74c8 0 9 -5 8 -10l-45 -203h127l43 203c2 7 6 10 15 10h74c8 0 9 -5 8 -9l-44 -204h88c8 0 15 -2 14 -14l-11 -56c-2 -11 -8 -14 -16 -14h-95l-29 -136h89c8 0 16 -3 13 -15l-10 -55c-2 -11 -8 -14 -18 -14h-93l-47 -209c-1 -7 -6 -11 -15 -11z" />
    <glyph glyph-name="currency" unicode="&#xa4;" horiz-adv-x="658" 
d="M547 205l64 -24c15 -6 15 -18 8 -35c-38 -100 -116 -158 -248 -158c-160 0 -254 91 -254 239v20h-73c-9 0 -13 5 -13 14v61c0 7 2 13 12 13h74v60h-73c-9 0 -13 5 -13 14v63c0 8 2 13 12 13h74v19c0 138 100 238 254 238c144 0 232 -78 254 -167c4 -16 0 -25 -12 -29
l-72 -22c-10 -3 -18 2 -21 12c-19 64 -62 107 -149 107c-92 0 -135 -56 -135 -137v-21h179c10 0 14 -6 14 -13v-63c0 -9 -4 -14 -14 -14h-179v-60h181c9 0 12 -7 12 -13v-61c0 -9 -4 -14 -14 -14h-178v-30c0 -83 42 -133 134 -133c89 0 132 44 148 107c4 14 15 18 28 14z
" />
    <glyph glyph-name="Euro" unicode="&#x20ac;" horiz-adv-x="658" 
d="M547 205l64 -24c15 -6 15 -18 8 -35c-38 -100 -116 -158 -248 -158c-160 0 -254 91 -254 239v20h-73c-9 0 -13 5 -13 14v61c0 7 2 13 12 13h74v60h-73c-9 0 -13 5 -13 14v63c0 8 2 13 12 13h74v19c0 138 100 238 254 238c144 0 232 -78 254 -167c4 -16 0 -25 -12 -29
l-72 -22c-10 -3 -18 2 -21 12c-19 64 -62 107 -149 107c-92 0 -135 -56 -135 -137v-21h179c10 0 14 -6 14 -13v-63c0 -9 -4 -14 -14 -14h-179v-60h181c9 0 12 -7 12 -13v-61c0 -9 -4 -14 -14 -14h-178v-30c0 -83 42 -133 134 -133c89 0 132 44 148 107c4 14 15 18 28 14z
" />
    <glyph glyph-name="dollar" unicode="$" horiz-adv-x="566" 
d="M329 -77h-92c-8 0 -14 5 -14 14v82c-92 12 -171 82 -189 160c-3 11 -2 20 10 25l61 25c18 7 26 4 32 -14c13 -45 58 -105 146 -105c85 0 127 36 127 95c0 61 -64 84 -164 125c-115 47 -186 92 -186 196c0 94 63 162 163 183v85c0 9 6 13 14 13h89c10 0 16 -5 16 -14v-86
c97 -11 162 -76 184 -134c5 -14 6 -27 -7 -32l-49 -18c-20 -6 -34 -15 -45 7c-19 47 -63 89 -138 89c-74 0 -112 -38 -112 -82c0 -54 45 -72 160 -121c116 -49 193 -94 193 -197c0 -100 -76 -178 -186 -199v-83c0 -10 -6 -14 -13 -14z" />
    <glyph glyph-name="cent" unicode="&#xa2;" horiz-adv-x="515" 
d="M316 -101h-88c-9 0 -14 4 -14 13v84c-96 18 -159 88 -159 210v135c0 116 67 188 159 208v80c0 9 6 13 14 13h82c13 0 19 -4 19 -19v-72c92 -16 145 -78 157 -152c1 -10 -1 -17 -12 -20l-75 -18c-10 -3 -19 -4 -21 10c-7 39 -28 90 -101 90c-58 0 -107 -33 -107 -137v-115
c0 -86 41 -123 108 -123c65 0 90 43 101 76c6 15 14 13 25 8l61 -32c11 -5 17 -10 12 -23c-24 -62 -75 -106 -148 -119v-84c0 -9 -6 -13 -13 -13z" />
    <glyph glyph-name="sterling" unicode="&#xa3;" horiz-adv-x="585" 
d="M529 0h-443c-7 5 -25 37 -25 46c0 7 11 19 22 36c39 63 58 131 58 203c0 6 0 14 -1 23h-78c-12 0 -16 5 -16 14v71c0 6 3 13 12 13h75c-5 46 -16 79 -16 127c0 135 98 209 229 209c106 0 175 -57 207 -146c5 -12 1 -24 -12 -29l-59 -25c-14 -5 -22 3 -27 15
c-19 58 -52 90 -114 90s-107 -38 -107 -111c0 -41 13 -83 18 -130h152c10 0 12 -7 12 -13v-71c0 -9 -4 -14 -13 -14h-147c1 -89 -21 -161 -51 -210h326c9 0 12 -7 12 -13v-71c0 -9 -4 -14 -14 -14z" />
    <glyph glyph-name="florin" unicode="&#x192;" horiz-adv-x="409" 
d="M109 -137h-51c-11 0 -15 7 -15 15v64c0 12 8 15 14 15h40c52 0 77 36 74 86c-12 120 -37 401 -36 391h-81c-37 0 -30 9 -30 33v47c0 6 4 13 12 13h93s-2 15 -3 34c-2 25 -1 48 2 69c14 80 76 120 158 120c81 0 124 -35 144 -65c7 -9 3 -16 -3 -21l-55 -40
c-7 -5 -11 -4 -17 3c-18 22 -32 32 -57 32c-40 0 -57 -29 -57 -64c0 -34 4 -68 4 -68h148c9 0 12 -7 12 -13v-66c0 -9 -4 -14 -14 -14h-141s22 -236 31 -367c1 -13 1 -26 0 -38c-5 -122 -73 -166 -172 -166z" />
    <glyph glyph-name="yen" unicode="&#xa5;" horiz-adv-x="587" 
d="M342 0h-96c-5 0 -12 4 -12 13v172h-136c-8 0 -12 7 -12 14v67c0 7 4 13 12 13h136v16l-225 423c-4 7 -2 14 5 14h108c8 0 10 -3 13 -9l160 -321l157 321c4 7 8 9 14 9h106c8 0 10 -9 7 -14l-226 -423v-16h134c8 0 12 -7 12 -14v-66c0 -7 -4 -14 -12 -14h-134v-172
c0 -8 -5 -13 -11 -13z" />
    <glyph glyph-name="zero" unicode="0" horiz-adv-x="636" 
d="M572 499v-266c0 -150 -73 -245 -254 -245c-182 0 -254 94 -254 245v265c0 151 72 244 254 244c181 0 254 -92 254 -243zM453 245v241c0 96 -28 151 -135 151c-97 0 -135 -55 -135 -151v-240c0 -97 38 -153 135 -153c107 0 135 55 135 152z" />
    <glyph glyph-name="one" unicode="1" horiz-adv-x="526" 
d="M461 0h-368c-8 0 -12 6 -12 13v79c0 6 3 13 11 13h129v468l-136 -13c-12 -1 -17 4 -18 12l-5 59c-1 9 1 14 10 17c28 7 125 25 156 45c15 9 28 28 34 39h78v-627h121c9 0 12 -7 12 -13v-79c0 -7 -3 -13 -12 -13z" />
    <glyph glyph-name="two" unicode="2" horiz-adv-x="617" 
d="M539 0h-479v70c0 143 40 229 229 310c117 52 148 90 148 149s-32 108 -116 108c-88 0 -123 -45 -143 -97c-4 -13 -11 -20 -24 -17l-68 26c-8 4 -18 8 -12 24c37 102 127 169 247 169c166 0 237 -92 237 -214c0 -112 -62 -172 -211 -239c-152 -68 -163 -101 -163 -170v-14
h355c10 0 13 -7 13 -14v-78c0 -7 -4 -13 -13 -13z" />
    <glyph glyph-name="three" unicode="3" horiz-adv-x="607" 
d="M547 218v-14c0 -132 -112 -216 -246 -216c-157 0 -227 85 -253 169c-3 13 -1 21 11 25l62 24c15 6 25 1 30 -13c18 -57 62 -100 147 -100c76 0 130 42 130 113v6c0 74 -49 118 -130 118h-52c-8 0 -10 5 -10 11v76c0 6 1 12 10 12h53c72 0 117 40 117 98v12
c0 59 -37 98 -115 98c-74 0 -110 -29 -134 -89c-4 -10 -13 -13 -22 -10l-67 23c-9 3 -13 9 -9 22c32 103 117 159 232 159c154 0 234 -76 234 -195v-14c0 -75 -49 -135 -113 -153c64 -15 125 -67 125 -162z" />
    <glyph glyph-name="four" unicode="4" horiz-adv-x="613" 
d="M464 -3h-93c-8 0 -14 4 -14 13v158h-288c-7 0 -10 3 -12 10l-15 65c-2 9 -1 12 4 19l345 478c4 6 12 10 20 5l62 -52c10 -5 8 -16 4 -23l-286 -397h166v121c0 9 7 12 14 12h93c7 0 12 -4 12 -12v-121h76c9 0 12 -7 12 -14v-78c0 -7 -4 -13 -12 -13h-76v-158
c0 -8 -5 -13 -12 -13z" />
    <glyph glyph-name="five" unicode="5" horiz-adv-x="616" 
d="M555 255v-25c0 -159 -104 -242 -247 -242c-162 0 -224 99 -246 165c-6 18 -1 26 8 29l67 25c10 5 22 0 26 -12c18 -57 61 -102 144 -102c82 0 129 55 129 142v18c0 87 -43 136 -126 136c-54 0 -93 -22 -125 -67c-7 -10 -13 -11 -20 -7l-67 34c-7 4 -11 5 -10 19l27 364
h382c9 0 12 -7 12 -14v-78c0 -8 -5 -13 -12 -13h-282l-15 -197l1 -1c26 27 67 57 149 57c119 0 205 -76 205 -231z" />
    <glyph glyph-name="six" unicode="6" horiz-adv-x="632" 
d="M573 252v-29c0 -135 -102 -235 -248 -235c-172 0 -261 103 -261 251v236c0 158 94 267 262 267c153 0 207 -91 227 -145c5 -14 -3 -19 -13 -23l-73 -25c-10 -4 -15 0 -21 15c-17 42 -53 73 -120 73c-91 0 -143 -49 -143 -163v-54l2 -1c31 38 84 67 159 67
c137 0 229 -87 229 -234zM454 233v13c0 87 -46 143 -128 143c-86 0 -143 -56 -143 -143v-13c0 -81 47 -140 142 -140c79 0 129 58 129 140z" />
    <glyph glyph-name="seven" unicode="7" horiz-adv-x="539" 
d="M233 0h-94c-6 0 -13 3 -13 13c0 195 130 447 241 614h-302c-8 0 -13 5 -13 12v79c0 8 4 14 13 14h429c9 0 14 -6 14 -14v-54c0 -10 -2 -14 -9 -24c-122 -174 -253 -436 -253 -627c0 -9 -7 -13 -13 -13z" />
    <glyph glyph-name="eight" unicode="8" horiz-adv-x="650" 
d="M592 214v-18c0 -133 -102 -208 -267 -208s-266 75 -266 208v18c0 94 47 145 130 178c-59 18 -105 70 -105 155v13c0 114 82 182 241 182s242 -68 242 -182v-13c0 -85 -47 -137 -106 -155c83 -33 131 -84 131 -178zM452 536v10c0 72 -41 99 -127 99s-127 -27 -127 -99v-10
c0 -69 46 -103 127 -103s127 34 127 103zM472 208v13c0 78 -46 118 -147 118c-100 0 -147 -40 -147 -118v-13c0 -77 46 -116 147 -116s147 39 147 116z" />
    <glyph glyph-name="nine" unicode="9" horiz-adv-x="631" 
d="M448 473v22c0 90 -49 142 -136 142c-86 0 -137 -50 -137 -140v-18c0 -89 46 -146 136 -146c87 0 137 54 137 140zM448 234v70c-33 -42 -89 -68 -155 -68c-148 0 -237 100 -237 241v28c0 130 95 237 256 237c149 0 255 -86 255 -239v-250c0 -197 -129 -265 -256 -265
c-120 0 -207 56 -241 128c-6 13 -4 23 6 28l68 35c9 4 16 4 22 -8c23 -47 71 -78 141 -78c80 0 141 38 141 141z" />
    <glyph glyph-name="onesuperior" unicode="&#xb9;" horiz-adv-x="283" 
d="M261 347h-214c-4 0 -6 3 -6 7v55c0 3 2 7 6 7h67v215l-75 -7c-6 -1 -9 1 -9 6l-5 43c-1 5 1 9 5 10c16 4 69 16 85 26c8 5 18 22 21 28h62v-321h63c4 0 6 -4 6 -7v-55c0 -3 -2 -7 -6 -7z" />
    <glyph glyph-name="twosuperior" unicode="&#xb2;" horiz-adv-x="339" 
d="M282 347h-255v58c0 70 34 114 98 147c50 26 95 42 95 78c0 22 -14 41 -51 41c-42 0 -62 -20 -73 -45c-4 -9 -6 -13 -14 -11l-46 19c-9 3 -14 7 -5 24c28 53 77 84 142 84c82 0 133 -38 133 -112c0 -65 -56 -98 -131 -134c-51 -24 -63 -43 -63 -77h171c8 0 12 -4 12 -13
v-43c0 -10 -3 -16 -13 -16z" />
    <glyph glyph-name="threesuperior" unicode="&#xb3;" horiz-adv-x="333" 
d="M299 469v-10c0 -65 -48 -117 -133 -117c-79 0 -123 41 -142 84c-3 8 -4 17 5 21l44 18c8 4 13 1 16 -8c13 -31 37 -44 72 -44c31 0 53 17 53 48v6c0 31 -22 51 -58 51h-36c-8 0 -10 4 -10 13v38c0 11 5 14 11 14h35c30 0 58 17 58 44v3c0 25 -17 44 -50 44
c-37 0 -60 -15 -74 -44c-5 -12 -7 -14 -17 -10l-43 16c-7 3 -10 7 -5 17c18 45 68 89 142 89c93 0 132 -47 132 -105v-6c0 -40 -28 -73 -57 -80c30 -11 57 -42 57 -82z" />
    <glyph glyph-name="fraction" unicode="&#x2044;" horiz-adv-x="412" 
d="M95 0h-86c-9 0 -11 5 -7 13l296 713c3 9 8 10 21 10h84c9 0 9 -5 7 -11l-296 -714c-3 -6 -7 -11 -19 -11z" />
    <glyph glyph-name="onequarter" unicode="&#xbc;" horiz-adv-x="752" 
d="M222 0h-54c-14 0 -13 8 -8 17l383 709c4 8 6 11 19 11h60c11 0 11 -6 9 -11l-389 -716c-4 -7 -9 -10 -20 -10zM655 23h-64c-5 0 -9 3 -9 10v71h-156c-4 0 -7 2 -8 8l-8 41c-1 5 0 7 2 12l185 279c2 6 8 8 14 5l47 -31c8 -5 5 -13 2 -17l-153 -228h79v60c0 6 4 8 9 8h60
c5 0 10 -3 10 -8v-60h42c7 0 8 -4 8 -9v-49c0 -5 -2 -11 -8 -11h-42v-71c0 -7 -5 -10 -10 -10zM270 338h-209c-4 0 -6 3 -6 6v55c0 3 2 6 6 6h65v212l-74 -7c-7 -1 -9 1 -10 6l-5 42c-1 5 1 9 6 10c16 4 68 16 84 26c8 5 18 19 22 25h61v-314h60c5 0 7 -3 7 -6v-55
c0 -3 -2 -6 -7 -6z" />
    <glyph glyph-name="onehalf" unicode="&#xbd;" horiz-adv-x="800" 
d="M222 0h-54c-14 0 -13 8 -8 17l383 709c4 8 6 11 19 11h60c11 0 11 -6 9 -11l-389 -716c-4 -7 -8 -10 -20 -10zM270 338h-209c-4 0 -6 3 -6 6v55c0 3 2 6 6 6h65v212l-74 -7c-7 -1 -9 1 -10 6l-5 42c-1 5 1 9 6 10c16 4 68 16 84 26c8 5 18 19 22 25h61v-314h60
c5 0 7 -3 7 -6v-55c0 -3 -2 -6 -7 -6zM739 52h-255v60c0 71 34 114 99 146c50 25 94 42 94 77c0 24 -13 41 -50 41c-42 0 -62 -20 -73 -45c-3 -9 -6 -13 -13 -10l-47 18c-9 3 -13 7 -4 24c28 53 73 85 138 85c82 0 135 -43 135 -112c0 -65 -55 -100 -130 -135
c-52 -24 -64 -42 -64 -77h172c8 0 11 -4 11 -12v-43c0 -10 -3 -17 -13 -17z" />
    <glyph glyph-name="threequarters" unicode="&#xbe;" horiz-adv-x="755" 
d="M225 0h-54c-14 0 -13 8 -8 17l394 709c4 8 6 11 19 11h60c11 0 12 -6 9 -11l-400 -716c-4 -7 -8 -10 -20 -10zM658 23h-64c-5 0 -9 3 -9 10v71h-156c-4 0 -7 2 -8 8l-8 41c-1 5 0 7 2 12l185 279c2 6 8 8 14 5l47 -31c8 -5 5 -13 2 -17l-153 -228h79v60c0 6 4 8 9 8h60
c5 0 10 -3 10 -8v-60h42c7 0 8 -4 8 -9v-49c0 -5 -2 -11 -8 -11h-42v-71c0 -7 -5 -10 -10 -10zM310 440v-10c0 -66 -46 -119 -134 -119c-85 0 -124 42 -142 86c-4 8 -4 17 5 21l46 19c9 4 13 0 16 -8c13 -31 32 -47 70 -47c33 0 53 16 53 50v6c0 31 -18 51 -54 51h-39
c-8 0 -10 4 -10 13v38c0 11 5 14 11 14h35c31 0 57 14 57 44v3c0 23 -13 44 -50 44c-34 0 -59 -18 -71 -46c-5 -11 -9 -15 -19 -10l-41 18c-7 2 -10 7 -6 17c19 46 72 89 140 89c85 0 133 -44 133 -107v-8c0 -40 -28 -69 -57 -76c30 -11 57 -39 57 -82z" />
    <glyph glyph-name="percent" unicode="%" horiz-adv-x="766" 
d="M322 630v-135c0 -79 -64 -117 -144 -117c-81 0 -143 38 -143 117v135c0 79 62 118 143 118s144 -39 144 -118zM731 241v-135c0 -80 -63 -117 -144 -117s-143 37 -143 117v135c0 80 62 120 143 120s144 -40 144 -120zM232 496v133c0 31 -21 47 -54 47s-54 -17 -54 -48
v-132c0 -31 20 -46 54 -46c33 0 54 15 54 46zM641 107v134c0 31 -21 48 -54 48c-34 0 -54 -17 -54 -48v-134c0 -31 20 -46 54 -46c33 0 54 14 54 46zM217 0h-71c-14 0 -13 7 -8 16l384 710c4 9 7 11 20 11h70c11 0 12 -6 9 -11l-385 -715c-4 -8 -7 -11 -19 -11z" />
    <glyph glyph-name="perthousand" unicode="&#x2030;" horiz-adv-x="1120" 
d="M322 630v-135c0 -79 -64 -117 -144 -117c-81 0 -143 38 -143 117v135c0 79 62 118 143 118s144 -39 144 -118zM731 241v-135c0 -80 -63 -117 -144 -117s-143 37 -143 117v135c0 80 62 120 143 120s144 -40 144 -120zM232 496v133c0 31 -21 47 -54 47s-54 -17 -54 -48
v-132c0 -31 20 -46 54 -46c33 0 54 15 54 46zM641 107v134c0 31 -21 48 -54 48c-34 0 -54 -17 -54 -48v-134c0 -31 20 -46 54 -46c33 0 54 14 54 46zM217 0h-71c-14 0 -13 7 -8 16l384 710c4 9 7 11 20 11h70c11 0 12 -6 9 -11l-385 -715c-4 -8 -7 -11 -19 -11zM1081 241
v-135c0 -80 -63 -117 -144 -117s-143 37 -143 117v135c0 80 62 120 143 120c82 0 144 -40 144 -120zM991 107v134c0 31 -20 48 -54 48s-54 -17 -54 -48v-134c0 -31 20 -46 54 -46c33 0 54 14 54 46z" />
    <glyph glyph-name="plus" unicode="+" horiz-adv-x="567" 
d="M319 51h-72c-13 0 -16 7 -16 16v195h-186c-10 0 -16 6 -16 18v59c0 11 7 17 16 17h186v190c0 9 3 16 16 16h72c13 0 16 -7 16 -16v-190h186c9 0 17 -6 17 -17v-59c0 -12 -6 -18 -17 -18h-186v-195c0 -9 -3 -16 -16 -16z" />
    <glyph glyph-name="minus" unicode="&#x2212;" horiz-adv-x="487" 
d="M442 262h-398c-10 0 -15 9 -15 15v64c0 7 5 15 15 15h399c10 0 15 -9 15 -16v-61c0 -9 -5 -17 -16 -17z" />
    <glyph glyph-name="plusminus" unicode="&#xb1;" horiz-adv-x="567" 
d="M518 0h-473c-12 0 -17 9 -17 15v64c0 6 5 15 17 15h186v23v145h-186c-10 0 -16 6 -16 18v59c0 11 7 17 16 17h186v190c0 16 8 16 37 16h51c13 0 16 -7 16 -16v-190h186c9 0 17 -6 17 -17v-59c0 -12 -6 -18 -17 -18h-186v-168h184c22 0 18 -23 18 -34v-43
c0 -9 -5 -17 -19 -17z" />
    <glyph glyph-name="multiply" unicode="&#xd7;" horiz-adv-x="536" 
d="M500 118l-40 -40c-9 -10 -18 -7 -23 -2l-168 169l-172 -171c-4 -5 -12 -6 -20 2l-41 42c-9 9 -8 16 -1 22l169 169l-165 166c-7 6 -10 14 -2 22l44 43c7 7 15 7 20 2l168 -168l167 168c5 4 13 6 20 -2l43 -42c8 -7 8 -15 0 -23l-166 -166l169 -168c5 -5 8 -13 -2 -23z
" />
    <glyph glyph-name="divide" unicode="&#xf7;" horiz-adv-x="569" 
d="M528 262h-487c-8 0 -12 6 -12 13v68c0 7 4 13 12 13h488c8 0 11 -7 11 -14v-67c0 -7 -4 -13 -12 -13zM320 48h-71c-9 0 -15 6 -15 17v108c0 9 4 17 15 17h71c9 0 16 -6 16 -17v-108c0 -11 -7 -17 -16 -17zM320 436h-71c-9 0 -15 6 -15 16v109c0 9 4 17 15 17h71
c9 0 16 -6 16 -17v-108c0 -11 -7 -17 -16 -17z" />
    <glyph glyph-name="equal" unicode="=" horiz-adv-x="495" 
d="M440 342h-385c-10 0 -14 5 -14 14v67c0 6 3 13 12 13h388c10 0 12 -7 12 -13v-67c0 -9 -4 -14 -13 -14zM440 182h-385c-10 0 -14 5 -14 14v67c0 6 3 14 12 14h388c10 0 12 -8 12 -14v-67c0 -9 -4 -14 -13 -14z" />
    <glyph glyph-name="less" unicode="&#x3c;" horiz-adv-x="512" 
d="M423 134l-359 122c-7 2 -14 9 -14 19v66c0 11 5 17 14 19l368 126c9 3 16 -1 16 -14v-70c0 -10 -3 -15 -11 -18l-262 -76l261 -76c9 -2 12 -7 12 -17v-70c0 -14 -6 -18 -25 -11z" />
    <glyph glyph-name="greater" unicode="&#x3e;" horiz-adv-x="512" 
d="M448 256l-359 -122c-19 -7 -25 -3 -25 11v70c0 10 3 15 12 17l261 76l-262 76c-8 3 -11 8 -11 18v70c0 13 7 17 16 14l368 -126c9 -2 14 -8 14 -19v-66c0 -10 -7 -17 -14 -19z" />
    <glyph glyph-name="lessequal" unicode="&#x2264;" horiz-adv-x="522" 
d="M441 0h-374c-8 0 -12 6 -12 13v68c0 7 4 13 12 13h375c8 0 11 -7 11 -14v-67c0 -7 -4 -13 -12 -13zM428 134l-359 122c-7 2 -14 9 -14 19v66c0 11 5 17 14 19l368 126c9 3 16 -1 16 -14v-70c0 -10 -3 -15 -11 -18l-262 -76l261 -76c9 -2 12 -7 12 -17v-70
c0 -14 -6 -18 -25 -11z" />
    <glyph glyph-name="greaterequal" unicode="&#x2265;" horiz-adv-x="522" 
d="M455 0h-374c-8 0 -12 6 -12 13v68c0 7 4 13 12 13h375c8 0 11 -7 11 -14v-67c0 -7 -4 -13 -12 -13zM454 256l-359 -122c-20 -7 -26 -3 -26 11v70c0 10 4 15 12 17l261 76l-261 76c-8 3 -12 8 -12 18v70c0 13 7 17 17 14l368 -126c8 -2 13 -8 13 -19v-66
c0 -10 -7 -17 -13 -19z" />
    <glyph glyph-name="logicalnot" unicode="&#xac;" horiz-adv-x="550" 
d="M514 83h-54c-7 0 -13 4 -13 12v176h-419c-8 0 -12 7 -12 14v58c0 7 4 13 12 13h500v-262c0 -8 -7 -11 -14 -11z" />
    <glyph glyph-name="degree" unicode="&#xb0;" horiz-adv-x="410" 
d="M370 587c0 -90 -75 -161 -165 -161c-95 0 -165 65 -165 161c0 90 75 162 165 162c96 0 165 -66 165 -162zM289 587c0 47 -34 85 -85 85c-46 0 -85 -35 -85 -85c0 -46 35 -85 85 -85c46 0 85 35 85 85z" />
    <glyph glyph-name="mu" unicode="&#xb5;" horiz-adv-x="580" 
d="M502 0h-82c-7 0 -13 5 -13 13v60c-22 -43 -62 -84 -128 -84c-54 0 -87 27 -99 52v-245c0 -8 -6 -13 -13 -13h-86c-7 0 -13 5 -13 13v737c0 9 4 14 13 14h85c8 0 14 -5 14 -13v-328c0 -60 37 -104 100 -104c67 0 114 60 119 89v343c0 8 5 13 13 13h90c6 0 13 -4 13 -12
v-522c0 -8 -6 -13 -13 -13z" />
    <glyph glyph-name="ampersand" unicode="&#x26;" horiz-adv-x="711" 
d="M688 0h-106c-6 0 -12 3 -18 10l-53 59c-54 -51 -125 -80 -220 -80c-142 0 -262 91 -262 227c0 106 59 171 144 223c-47 56 -78 95 -78 155c0 75 60 156 176 156c123 0 174 -83 187 -151c3 -11 -3 -16 -11 -18l-79 -19c-7 -2 -15 -3 -18 13c-13 63 -46 81 -81 81
c-38 0 -62 -29 -62 -62c0 -41 45 -81 89 -131l205 -231c6 27 8 58 8 89v54c0 9 4 14 12 14h82c7 0 12 -5 12 -14v-55c-1 -64 -12 -123 -40 -173l120 -133c8 -9 0 -14 -7 -14zM445 141l-204 230c-70 -40 -94 -88 -94 -150c0 -80 66 -137 154 -137c63 0 110 21 144 57z" />
    <glyph glyph-name="nbspace" unicode="&#xa0;" horiz-adv-x="188" 
 />
    <glyph glyph-name="uni00AD" unicode="&#xad;" horiz-adv-x="484" 
d="M420 256h-338c-9 0 -13 5 -13 14v63c0 6 2 13 12 13h340c10 0 12 -7 12 -13v-63c0 -9 -4 -14 -13 -14z" />
    <glyph glyph-name="Itilde" unicode="&#x128;" horiz-adv-x="272" 
d="M182 0h-93c-6 0 -13 4 -13 13v706c0 9 7 13 13 13h93c8 0 13 -5 13 -13v-706c0 -8 -5 -13 -13 -13zM256 938l37 -40c4 -5 3 -10 -1 -15c-18 -28 -52 -62 -95 -62c-58 0 -83 43 -116 43c-24 0 -37 -16 -49 -36c-2 -5 -7 -6 -12 -1l-42 39c-4 3 -3 7 0 12
c13 22 45 58 87 65c7 2 14 1 21 1c50 -2 79 -42 110 -42c40 0 44 52 60 36z" />
    <glyph glyph-name="itilde" unicode="&#x129;" horiz-adv-x="249" 
d="M167 0h-85c-10 0 -15 4 -15 14v516c0 11 7 17 15 17h85c9 0 15 -7 15 -16v-517c0 -12 -7 -14 -15 -14zM244 739l38 -40c4 -5 2 -10 -1 -14c-18 -28 -52 -63 -96 -63c-58 0 -82 43 -116 43c-23 0 -37 -16 -48 -36c-3 -4 -7 -5 -12 0l-42 38c-4 4 -3 8 -1 12
c14 22 46 59 88 65c7 2 13 2 20 1c50 -2 79 -42 110 -42c41 0 44 53 60 36z" />
    <glyph glyph-name="uni012A" unicode="&#x12a;" horiz-adv-x="272" 
d="M182 0h-93c-6 0 -13 4 -13 13v706c0 9 7 13 13 13h93c8 0 13 -5 13 -13v-706c0 -8 -5 -13 -13 -13zM256 828h-241c-8 0 -12 7 -12 14v60c0 7 4 13 12 13h242c8 0 11 -7 11 -14v-59c0 -7 -4 -14 -12 -14z" />
    <glyph glyph-name="kgreenlandic" unicode="&#x138;" horiz-adv-x="531" 
d="M513 0h-115c-10 0 -15 3 -18 9l-133 252l-65 -71v-176c0 -9 -6 -14 -13 -14h-89c-8 0 -13 5 -13 14v520c0 8 5 13 13 13h88c7 0 14 -5 14 -13v-207l186 211c6 6 8 9 18 9h113c10 0 14 -9 8 -16l-169 -194l183 -322c5 -9 1 -15 -8 -15z" />
    <glyph glyph-name="Eng" unicode="&#x14a;" horiz-adv-x="691" 
d="M455 -207h-61c-11 0 -14 6 -14 15v63c0 13 7 15 13 15h40c53 0 71 25 71 84v30h-26c-10 0 -15 7 -18 13l-189 380c-36 73 -63 139 -93 211h-3c6 -63 10 -125 10 -193v-398c0 -7 -6 -13 -12 -13h-90c-6 0 -12 5 -12 13v703c0 8 2 16 14 16h136c9 0 13 -5 16 -11l180 -371
c39 -77 70 -152 95 -222h3c-6 67 -10 150 -10 214v378c0 5 5 12 12 12h90c6 0 12 -6 12 -12v-723c0 -144 -68 -204 -164 -204z" />
    <glyph glyph-name="eng" unicode="&#x14b;" 
d="M347 -207h-58c-11 0 -14 6 -14 15v63c0 13 7 15 13 15h40c53 0 71 27 71 86v383c0 54 -12 107 -87 107c-64 0 -108 -48 -130 -95v-354c0 -9 -6 -13 -13 -13h-88c-9 0 -14 4 -14 13v521c0 8 5 13 13 13h86c8 0 13 -5 13 -13v-69c36 43 96 92 179 92
c105 0 156 -75 156 -169v-404c0 -133 -71 -191 -167 -191z" />
    <glyph glyph-name="Tbar" unicode="&#x166;" horiz-adv-x="544" 
d="M319 0h-95c-6 0 -12 5 -12 13v447h-190c-9 0 -12 8 -12 14v59c0 6 3 14 12 14h190v86h-200c-9 0 -12 7 -12 13v72c0 6 3 14 12 14h520c9 0 12 -8 12 -14v-72c0 -6 -3 -13 -12 -13h-200v-86h190c9 0 12 -8 12 -14v-59c0 -6 -3 -14 -12 -14h-190v-447c0 -8 -6 -13 -13 -13z
" />
    <glyph glyph-name="tbar" unicode="&#x167;" horiz-adv-x="375" 
d="M316 0h-50c-98 0 -173 35 -173 159v133h-47c-9 0 -13 5 -13 14v59c0 6 2 13 12 13h48v56h-66c-8 0 -12 6 -12 13v67c0 6 4 13 12 13h66v124c0 8 5 13 12 13h88c6 0 12 -5 12 -13v-124h103c8 0 11 -7 11 -13v-67c0 -8 -4 -13 -12 -13h-99v-56h78c9 0 12 -7 12 -13v-59
c0 -9 -4 -14 -14 -14h-76v-117c0 -63 19 -80 79 -80h32c9 0 13 -6 13 -12v-69c0 -8 -3 -14 -16 -14z" />
    <glyph glyph-name="Utilde" unicode="&#x168;" horiz-adv-x="658" 
d="M477 256v463c0 6 5 13 11 13h92c7 0 13 -6 13 -13v-502c0 -136 -99 -229 -265 -229c-175 0 -263 93 -263 229v502c0 6 5 13 11 13h96c7 0 12 -6 12 -13v-482c0 -92 44 -144 144 -144c112 0 149 59 149 163zM450 939l38 -40c4 -5 2 -10 -1 -14c-18 -28 -52 -63 -95 -63
c-58 0 -83 43 -116 43c-24 0 -37 -15 -49 -36c-3 -4 -7 -5 -12 0l-42 38c-4 4 -3 8 0 12c13 23 45 59 87 66c7 1 14 1 20 1c51 -3 79 -43 111 -43c40 0 44 53 59 36z" />
    <glyph glyph-name="utilde" unicode="&#x169;" 
d="M498 0h-87c-7 0 -13 5 -13 13v51c-41 -38 -95 -75 -175 -75c-105 0 -161 61 -161 164v381c0 8 5 13 14 13h89c7 0 13 -4 13 -12v-356c0 -67 31 -95 79 -95c49 0 102 28 138 77v373c0 17 25 13 40 13h62c7 0 14 -4 14 -12v-522c0 -8 -6 -13 -13 -13zM412 739l37 -40
c4 -5 3 -10 -1 -15c-18 -28 -52 -62 -95 -62c-58 0 -83 43 -116 43c-24 0 -37 -16 -49 -36c-2 -5 -7 -6 -12 -1l-42 39c-4 3 -3 7 0 12c13 22 45 58 87 65c7 2 14 1 21 1c50 -2 79 -42 110 -42c40 0 44 52 60 36z" />
    <glyph glyph-name="uni021A" unicode="&#x21a;" horiz-adv-x="529" 
d="M311 0h-95c-6 0 -12 5 -12 13v615h-197c-9 0 -12 7 -12 13v77c0 6 3 14 12 14h515c8 0 12 -8 12 -14v-77c0 -6 -4 -13 -12 -13h-198v-615c0 -8 -6 -13 -13 -13zM174 -323l-23 25c-7 8 -7 17 1 24c55 47 59 92 59 212c0 9 4 14 15 14h82c13 0 16 -5 16 -14
c0 -142 -64 -228 -132 -264c-5 -3 -13 -3 -18 3z" />
    <glyph glyph-name="uni021B" unicode="&#x21b;" horiz-adv-x="374" 
d="M316 0h-50c-98 0 -173 35 -173 159v275h-66c-8 0 -12 6 -12 13v67c0 6 4 13 12 13h66v124c0 8 5 13 12 13h88c6 0 12 -5 12 -13v-124h103c8 0 11 -7 11 -13v-67c0 -8 -4 -13 -12 -13h-99v-259c0 -63 19 -80 79 -80h32c9 0 13 -6 13 -12v-69c0 -8 -3 -14 -16 -14z
M144 -323l-22 25c-7 8 -8 17 0 24c55 47 60 92 60 212c0 9 3 14 15 14h82c13 0 15 -5 15 -14c0 -142 -63 -228 -132 -264c-5 -3 -12 -3 -18 3z" />
    <glyph glyph-name="pi" unicode="&#x3c0;" horiz-adv-x="623" 
d="M584 11h-73c-95 0 -153 67 -153 193v246h-119v-436c0 -10 -6 -14 -13 -14h-88c-9 0 -14 5 -14 14v436h-90c-10 0 -14 7 -14 14v68c0 9 5 15 14 15h538c9 0 13 -7 13 -15v-68c0 -7 -3 -14 -14 -14h-98v-262c0 -50 19 -90 72 -90h39c7 0 14 -3 14 -15v-57
c0 -9 -4 -15 -14 -15z" />
    <glyph glyph-name="afii00208" unicode="&#x2015;" horiz-adv-x="1058" 
d="M977 257h-897c-8 0 -12 7 -12 13v61c0 7 4 13 12 13h898c8 0 11 -7 11 -14v-60c0 -6 -4 -13 -12 -13z" />
    <glyph glyph-name="Omega" unicode="&#x2126;" horiz-adv-x="708" 
d="M668 0h-246v94c53 9 96 65 96 135v272c0 97 -72 144 -164 144c-76 0 -165 -36 -165 -124v-293c0 -70 50 -125 99 -134v-94h-247c-8 0 -12 6 -12 13v72c0 7 4 13 12 13h86c-15 11 -56 58 -56 136v294c0 153 130 215 283 215c155 0 283 -61 283 -235v-274
c0 -77 -41 -123 -58 -136h89c8 0 12 -6 12 -13v-72c0 -7 -4 -13 -12 -13z" />
    <glyph glyph-name="partialdiff" unicode="&#x2202;" horiz-adv-x="603" 
d="M543 335v-98c0 -139 -80 -250 -248 -250c-163 0 -240 97 -240 230v94c0 134 92 231 232 231c56 0 92 -23 110 -33c-27 75 -112 155 -171 181c-9 4 -18 13 -7 28l51 64c10 13 23 4 28 0c148 -106 245 -242 245 -447zM427 222v96c0 89 -63 131 -131 131
c-66 0 -123 -42 -123 -130v-106c0 -98 65 -128 122 -128c69 0 132 34 132 137z" />
    <glyph glyph-name="Delta" unicode="&#x2206;" horiz-adv-x="804" 
d="M766 0h-729l314 732h99zM595 94l-205 485l-206 -485h411z" />
    <glyph glyph-name="product" unicode="&#x220f;" horiz-adv-x="759" 
d="M343 162h-64c-4 0 -7 3 -7 7v370h135c91 0 133 -50 133 -122v-16c0 -73 -48 -114 -134 -114h-56v-118c0 -4 -3 -7 -7 -7zM462 406v8c0 35 -16 54 -65 54h-47v-110h46c49 0 66 10 66 48zM738 357c0 -197 -162 -357 -359 -357c-207 0 -358 141 -358 357
c0 205 161 354 358 354c215 0 359 -153 359 -354zM664 358c0 156 -116 284 -284 284c-167 0 -285 -128 -285 -284c0 -165 114 -289 285 -289c156 0 284 132 284 289z" />
    <glyph glyph-name="summation" unicode="&#x2211;" horiz-adv-x="589" 
d="M541 0h-516v65l268 313l-258 289v65h496c9 0 12 -7 12 -14v-72c0 -6 -5 -13 -13 -13h-316l228 -254l-238 -281h337c11 0 13 -8 13 -14v-71c0 -7 -4 -13 -13 -13z" />
    <glyph glyph-name="radical" unicode="&#x221a;" horiz-adv-x="500" 
d="M284 0h-101c-10 0 -15 5 -18 13l-133 371c-3 8 0 14 9 14h99c8 0 12 -3 15 -12l33 -96c22 -61 34 -98 46 -147h2c10 49 20 88 37 149l121 428c2 8 8 12 14 12h93c8 0 11 -7 8 -15l-208 -704c-3 -9 -10 -13 -17 -13z" />
    <glyph glyph-name="infinity" unicode="&#x221e;" horiz-adv-x="763" 
d="M379 250c-56 -49 -118 -94 -183 -94c-95 0 -147 70 -147 150c0 87 62 156 151 156c62 0 122 -40 184 -94c56 49 119 94 182 94c94 0 148 -74 148 -156c0 -85 -59 -150 -153 -150c-60 0 -119 39 -182 94zM450 306c48 -42 83 -62 115 -62c36 0 59 24 59 62
c0 41 -25 69 -62 69c-34 0 -86 -46 -112 -69zM313 306c-46 42 -81 69 -115 69s-59 -31 -59 -69c0 -40 24 -62 62 -62c30 0 66 21 112 62z" />
    <glyph glyph-name="integral" unicode="&#x222b;" horiz-adv-x="352" 
d="M115 -113h-82c-11 0 -14 7 -14 15v68c0 12 7 15 13 15h59c24 0 28 13 28 28v594c0 79 46 125 118 125h83c10 0 13 -8 13 -14v-70c0 -9 -4 -14 -14 -14h-49c-24 0 -37 -6 -37 -35v-587c0 -90 -41 -125 -118 -125z" />
    <glyph glyph-name="approxequal" unicode="&#x2248;" horiz-adv-x="513" 
d="M433 452l43 -41c3 -3 3 -8 0 -14c-18 -33 -66 -77 -119 -77c-88 0 -137 52 -195 52c-31 0 -54 -28 -66 -42c-5 -5 -10 -10 -17 -2l-42 41c-4 4 -4 9 -1 14c17 28 67 76 122 76c74 0 131 -51 191 -51c32 0 55 27 67 42c4 5 9 9 17 2zM433 292l43 -41c3 -4 3 -8 0 -14
c-18 -33 -66 -77 -119 -77c-88 0 -137 52 -195 52c-31 0 -54 -28 -66 -42c-5 -5 -10 -10 -17 -2l-42 41c-4 4 -4 9 -1 14c17 28 67 76 122 76c74 0 131 -51 191 -51c32 0 55 27 67 42c4 5 9 9 17 2z" />
    <glyph glyph-name="notequal" unicode="&#x2260;" horiz-adv-x="536" 
d="M461 182h-232l-72 -110c-6 -9 -15 -13 -22 -13h-64c-9 0 -12 5 -6 14l71 109h-61c-9 0 -13 5 -13 14v67c0 6 2 14 12 14h124l43 65h-166c-9 0 -13 5 -13 14v67c0 6 2 13 12 13h229l74 113c6 9 14 13 22 13h64c7 0 14 -4 7 -14l-74 -112h66c10 0 12 -7 12 -13v-67
c0 -9 -4 -14 -13 -14h-127l-43 -65h171c10 0 12 -8 12 -14v-67c0 -9 -4 -14 -13 -14z" />
    <glyph glyph-name="lozenge" unicode="&#x25ca;" horiz-adv-x="728" 
d="M387 0h-37c-10 0 -15 3 -23 11l-295 361l297 357c8 8 11 11 24 11h28c10 0 13 -4 19 -11l296 -358l-290 -360c-6 -8 -12 -11 -19 -11zM367 130l190 239l-193 235l-190 -231z" />
    <glyph glyph-name="dummy1" horiz-adv-x="0" 
 />
    <glyph glyph-name="dummy2" horiz-adv-x="0" 
 />
    <glyph glyph-name="zero.pnum" horiz-adv-x="621" 
d="M565 499v-266c0 -150 -73 -245 -255 -245s-254 94 -254 245v265c0 151 72 244 254 244s255 -92 255 -243zM446 245v241c0 96 -29 151 -136 151c-97 0 -135 -55 -135 -151v-240c0 -97 38 -153 135 -153c107 0 136 55 136 152z" />
    <glyph glyph-name="one.pnum" horiz-adv-x="451" 
d="M423 0h-369c-8 0 -12 6 -12 13v79c0 6 3 13 11 13h129v468l-136 -13c-12 -1 -16 4 -17 12l-6 59c-1 9 1 14 10 17c29 7 125 25 156 45c15 9 28 28 34 39h79v-627h121c8 0 12 -7 12 -13v-79c0 -7 -4 -13 -12 -13z" />
    <glyph glyph-name="two.pnum" horiz-adv-x="576" 
d="M522 0h-480v70c0 143 40 229 229 310c118 52 149 90 149 149s-32 108 -116 108c-89 0 -123 -45 -143 -97c-5 -13 -12 -20 -25 -17l-67 26c-9 4 -19 8 -13 24c38 102 128 169 247 169c166 0 238 -92 238 -214c0 -112 -63 -172 -212 -239c-151 -68 -163 -101 -163 -170v-14
h356c9 0 13 -7 13 -14v-78c0 -7 -5 -13 -13 -13z" />
    <glyph glyph-name="three.pnum" 
d="M536 218v-14c0 -132 -113 -216 -247 -216c-156 0 -227 85 -252 169c-3 13 -1 21 11 25l62 24c14 6 25 1 30 -13c18 -57 61 -100 147 -100c76 0 130 42 130 113v6c0 74 -49 118 -130 118h-52c-8 0 -10 5 -10 11v76c0 6 1 12 10 12h53c71 0 117 40 117 98v12
c0 59 -37 98 -115 98c-75 0 -110 -29 -134 -89c-4 -10 -13 -13 -22 -10l-68 23c-8 3 -12 9 -8 22c32 103 117 159 232 159c153 0 234 -76 234 -195v-14c0 -75 -50 -135 -113 -153c64 -15 125 -67 125 -162z" />
    <glyph glyph-name="four.pnum" horiz-adv-x="573" 
d="M444 -3h-93c-8 0 -14 4 -14 13v158h-288c-7 0 -10 3 -12 10l-15 65c-2 9 -1 12 4 19l345 478c4 6 12 10 20 5l62 -52c10 -5 8 -16 4 -23l-286 -397h166v121c0 9 7 12 14 12h93c7 0 12 -4 12 -12v-121h76c9 0 12 -7 12 -14v-78c0 -7 -4 -13 -12 -13h-76v-158
c0 -8 -5 -13 -12 -13z" />
    <glyph glyph-name="five.pnum" horiz-adv-x="575" 
d="M540 255v-25c0 -159 -104 -242 -247 -242c-162 0 -224 99 -246 165c-6 18 -1 26 8 29l67 25c10 5 22 0 26 -12c18 -57 61 -102 144 -102c82 0 129 55 129 142v18c0 87 -43 136 -126 136c-54 0 -93 -22 -125 -67c-7 -10 -13 -11 -20 -7l-67 34c-7 4 -11 5 -10 19l27 364
h382c9 0 12 -7 12 -14v-78c0 -8 -5 -13 -12 -13h-282l-15 -197l1 -1c26 27 67 57 149 57c119 0 205 -76 205 -231z" />
    <glyph glyph-name="six.pnum" horiz-adv-x="611" 
d="M566 252v-29c0 -135 -103 -235 -248 -235c-172 0 -262 103 -262 251v236c0 158 95 267 262 267c153 0 208 -91 228 -145c5 -14 -3 -19 -14 -23l-72 -25c-10 -4 -15 0 -22 15c-16 42 -53 73 -120 73c-91 0 -142 -49 -143 -163v-54l2 -1c31 38 84 67 159 67
c137 0 230 -87 230 -234zM447 233v13c0 87 -47 143 -128 143c-86 0 -143 -56 -143 -143v-13c0 -81 47 -140 142 -140c78 0 129 58 129 140z" />
    <glyph glyph-name="seven.pnum" horiz-adv-x="469" 
d="M193 0h-94c-6 0 -13 3 -13 13c0 195 130 447 241 614h-302c-8 0 -13 5 -13 12v79c0 8 4 14 13 14h429c9 0 14 -6 14 -14v-54c0 -10 -2 -14 -9 -24c-122 -174 -253 -436 -253 -627c0 -9 -7 -13 -13 -13z" />
    <glyph glyph-name="eight.pnum" horiz-adv-x="637" 
d="M585 214v-18c0 -133 -101 -208 -266 -208s-267 75 -267 208v18c0 94 48 145 131 178c-59 18 -106 70 -106 155v13c0 114 83 182 242 182s241 -68 241 -182v-13c0 -85 -46 -137 -105 -155c82 -33 130 -84 130 -178zM445 536v10c0 72 -40 99 -126 99
c-87 0 -127 -27 -127 -99v-10c0 -69 46 -103 127 -103s126 34 126 103zM466 208v13c0 78 -47 118 -147 118c-101 0 -148 -40 -148 -118v-13c0 -77 47 -116 148 -116s147 39 147 116z" />
    <glyph glyph-name="nine.pnum" horiz-adv-x="603" 
d="M428 473v22c0 90 -49 142 -136 142c-86 0 -137 -50 -137 -140v-18c0 -89 46 -146 136 -146c87 0 137 54 137 140zM428 234v70c-33 -42 -89 -68 -155 -68c-148 0 -237 100 -237 241v28c0 130 95 237 256 237c149 0 255 -86 255 -239v-250c0 -197 -129 -265 -256 -265
c-120 0 -207 56 -241 128c-6 13 -4 23 6 28l68 35c9 4 16 4 22 -8c23 -47 71 -78 141 -78c80 0 141 38 141 141z" />
    <glyph glyph-name="afii10058" unicode="&#x409;" horiz-adv-x="976" 
d="M737 0h-245v631h-222v-213c0 -168 -6 -318 -180 -428c-10 -6 -15 1 -18 6l-51 69c-5 8 0 11 8 17c112 80 122 174 122 339v294c0 13 6 17 20 17h420c16 0 21 -4 21 -17v-254h122c164 0 231 -91 231 -209v-43c0 -126 -71 -209 -228 -209zM846 218v23
c0 78 -28 121 -125 121h-109v-263h109c97 0 125 43 125 119z" />
    <glyph glyph-name="afii10059" unicode="&#x40a;" horiz-adv-x="914" 
d="M668 0h-245v354h-233v-339c0 -9 -4 -15 -16 -15h-86c-12 0 -17 6 -17 15v700c0 12 3 17 18 17h85c15 0 16 -5 16 -17v-259h233v259c0 12 3 17 17 17h86c15 0 16 -5 16 -17v-254h122c165 0 232 -91 232 -209v-43c0 -126 -72 -209 -228 -209zM776 218v23
c0 78 -27 121 -124 121h-110v-263h110c97 0 124 43 124 119z" />
    <glyph glyph-name="afii10061" unicode="&#x40c;" horiz-adv-x="623" 
d="M607 0h-107c-12 0 -15 5 -18 12l-92 217c-31 74 -57 101 -125 101h-75v-317c0 -9 -4 -13 -15 -13h-89c-11 0 -15 4 -15 13v707c0 6 4 12 14 12h93c8 0 12 -5 12 -12v-291h62l218 293c5 7 8 10 20 10h101c12 0 15 -7 10 -13l-232 -304c62 -18 90 -60 136 -161l112 -240
c4 -9 -1 -14 -10 -14zM343 801h-54c-8 0 -12 5 -8 13l82 137c4 9 10 10 18 10h73c12 0 13 -9 7 -16l-105 -138c-3 -4 -7 -6 -13 -6z" />
    <glyph glyph-name="afii10060" unicode="&#x40b;" horiz-adv-x="720" 
d="M644 0h-89c-11 0 -14 6 -14 15v250c0 68 -37 103 -108 103c-42 0 -94 -12 -129 -31v-323c0 -9 -4 -14 -15 -14h-89c-12 0 -15 5 -15 14v614h-177c-8 0 -13 3 -13 15v72c0 12 4 17 14 17h516c12 0 15 -4 15 -19v-70c0 -11 -3 -15 -15 -15h-221v-199c45 23 109 38 160 38
c124 0 196 -65 196 -188v-264c0 -10 -3 -15 -16 -15z" />
    <glyph glyph-name="afii10017" unicode="&#x410;" horiz-adv-x="600" 
d="M583 0h-97c-8 0 -14 5 -16 14l-54 186h-239l-56 -186c-4 -12 -9 -14 -18 -14h-87c-8 0 -11 7 -8 15l224 703c4 11 10 17 20 17h101c11 0 17 -6 20 -17l219 -703c3 -8 -2 -15 -9 -15zM388 299l-87 304l-94 -304h181z" />
    <glyph glyph-name="afii10019" unicode="&#x412;" horiz-adv-x="601" 
d="M331 0h-260v732h255c139 0 215 -72 215 -180v-19c0 -74 -42 -134 -106 -153c72 -14 126 -76 126 -167v-17c0 -113 -81 -196 -230 -196zM190 105h111c93 0 141 25 141 113c-1 76 -48 110 -127 110h-125v-223zM424 520v13c0 67 -43 97 -132 97h-102v-207h112
c80 0 122 36 122 97z" />
    <glyph glyph-name="afii10022" unicode="&#x415;" horiz-adv-x="523" 
d="M465 0h-394v732h393c9 0 12 -8 12 -15v-77c0 -7 -4 -13 -12 -13h-274v-204h249c9 0 12 -7 12 -13v-76c0 -6 -4 -13 -12 -13h-249v-216h274c11 0 13 -8 13 -14v-78c0 -7 -4 -13 -12 -13z" />
    <glyph glyph-name="afii10030" unicode="&#x41c;" horiz-adv-x="812" 
d="M729 0h-86c-6 0 -11 5 -11 13v452c0 50 3 107 6 143h-2l-176 -596c-2 -6 -6 -12 -15 -12h-91c-9 0 -12 5 -14 11l-168 597v-28c2 -38 6 -82 6 -131v-436c0 -9 -6 -13 -12 -13h-83c-6 0 -12 5 -12 13v704c0 7 4 15 14 15h140c7 0 12 -3 15 -11l113 -379
c21 -72 43 -163 53 -234c8 71 34 160 56 235l105 339c4 13 8 27 12 41c5 13 35 9 54 9h93c10 0 14 -6 14 -13v-706c0 -9 -5 -13 -11 -13z" />
    <glyph glyph-name="afii10031" unicode="&#x41d;" horiz-adv-x="686" 
d="M601 0h-92c-6 0 -14 3 -14 13v301h-305v-301c0 -9 -6 -13 -12 -13h-94c-6 0 -13 3 -13 13v707c0 8 7 12 13 12h93c8 0 13 -4 13 -12v-301h305v301c0 8 7 12 13 12h93c9 0 14 -4 14 -12v-707c0 -11 -8 -13 -14 -13z" />
    <glyph glyph-name="afii10032" unicode="&#x41e;" horiz-adv-x="673" 
d="M612 491v-231c0 -166 -82 -272 -276 -272c-180 0 -275 100 -275 252v230c0 160 82 272 275 272c180 0 276 -103 276 -251zM493 252v225c0 98 -49 160 -157 160s-156 -60 -156 -159v-225c0 -98 48 -160 156 -160s157 62 157 159z" />
    <glyph glyph-name="afii10034" unicode="&#x420;" horiz-adv-x="576" 
d="M178 0h-95c-6 0 -12 5 -12 13v719h225c170 0 242 -84 242 -221v-36c0 -138 -73 -221 -244 -221h-104v-241c0 -8 -5 -13 -12 -13zM419 482v21c0 85 -30 125 -133 125h-96v-270h96c103 0 133 40 133 124z" />
    <glyph glyph-name="afii10035" unicode="&#x421;" horiz-adv-x="595" 
d="M483 208l67 -27c15 -5 13 -16 8 -33c-23 -72 -103 -160 -237 -160c-176 0 -260 90 -260 251v249c0 151 91 254 262 254c140 0 212 -73 239 -166c4 -15 1 -25 -12 -29l-68 -22c-14 -5 -23 0 -27 15c-18 60 -58 97 -133 97c-90 0 -142 -58 -142 -158v-227
c0 -97 47 -159 142 -159c76 0 117 44 132 101c4 14 14 18 29 14z" />
    <glyph glyph-name="afii10036" unicode="&#x422;" horiz-adv-x="529" 
d="M311 0h-95c-6 0 -12 5 -12 13v615h-197c-9 0 -12 7 -12 13v77c0 6 3 14 12 14h515c8 0 12 -8 12 -14v-77c0 -6 -4 -13 -12 -13h-198v-615c0 -8 -6 -13 -13 -13z" />
    <glyph glyph-name="afii10039" unicode="&#x425;" horiz-adv-x="602" 
d="M588 0h-102c-11 0 -15 3 -19 10l-168 273l-162 -271c-4 -6 -8 -12 -19 -12h-104c-9 0 -12 8 -8 15l229 352l-215 350c-5 10 1 15 7 15h106c8 0 12 -4 16 -10l156 -265l156 266c4 7 8 9 14 9h104c8 0 10 -9 7 -14l-220 -346l231 -359c3 -6 1 -13 -9 -13z" />
    <glyph glyph-name="afii10057" unicode="&#x408;" horiz-adv-x="455" 
d="M277 201v518c0 9 7 13 13 13h93c9 0 14 -5 14 -14v-508c0 -150 -78 -222 -205 -222c-78 0 -132 30 -180 76c-9 9 -6 21 1 28l46 56c9 10 18 11 28 1c22 -26 56 -48 102 -48c55 0 88 34 88 100z" />
    <glyph glyph-name="afii10055" unicode="&#x406;" horiz-adv-x="272" 
d="M182 0h-93c-6 0 -13 4 -13 13v706c0 9 7 13 13 13h93c8 0 13 -5 13 -13v-706c0 -8 -5 -13 -13 -13z" />
    <glyph glyph-name="afii10105" unicode="&#x458;" horiz-adv-x="258" 
d="M175 621h-84c-10 0 -15 7 -15 16v96c0 9 4 17 15 17h84c9 0 16 -5 16 -18v-95c0 -11 -7 -16 -16 -16zM52 -209l-60 54c-9 8 -4 17 4 24c53 41 80 91 80 178v484c0 9 6 16 14 16h86c8 0 15 -6 15 -17v-482c0 -137 -69 -216 -119 -258c-7 -6 -15 -4 -20 1z" />
    <glyph glyph-name="afii10054" unicode="&#x405;" horiz-adv-x="547" 
d="M38 173l73 24c11 4 19 3 23 -13c14 -57 57 -94 138 -94c56 0 118 28 118 98c0 64 -40 91 -139 136c-131 59 -205 108 -205 226c0 117 97 192 221 192c138 0 207 -70 234 -150c4 -10 0 -18 -11 -22l-72 -26c-10 -4 -18 0 -21 10c-22 58 -67 86 -128 86
c-70 0 -106 -33 -106 -90c0 -60 55 -82 161 -132c116 -53 186 -106 187 -224c0 -120 -95 -206 -241 -206c-150 0 -220 78 -243 163c-3 11 2 19 11 22z" />
    <glyph glyph-name="afii10102" unicode="&#x455;" horiz-adv-x="458" 
d="M407 410l-76 -20c-9 -2 -13 0 -15 11c-6 35 -34 63 -88 63c-50 0 -77 -22 -77 -60c0 -95 274 -60 274 -254c0 -92 -74 -161 -199 -161c-99 0 -171 44 -194 129c-2 15 0 18 11 21l72 27c8 3 17 2 20 -11c7 -42 42 -75 101 -75c50 0 83 27 83 65c0 104 -273 69 -273 253
c0 94 75 159 188 159c104 0 166 -54 181 -130c2 -10 -1 -15 -8 -17z" />
    <glyph glyph-name="afii10023" unicode="&#x401;" horiz-adv-x="523" 
d="M211 819h-70c-8 0 -15 6 -15 17v88c0 9 5 17 15 17h70c9 0 16 -6 16 -17v-88c0 -11 -7 -17 -16 -17zM404 819h-69c-9 0 -15 6 -15 17v88c0 9 5 17 15 17h69c10 0 16 -6 16 -17v-88c0 -11 -6 -17 -16 -17zM465 0h-394v732h393c9 0 12 -8 12 -15v-77c0 -7 -4 -13 -12 -13
h-274v-204h249c9 0 12 -7 12 -13v-76c0 -6 -4 -13 -12 -13h-249v-216h274c11 0 13 -8 13 -14v-78c0 -7 -4 -13 -12 -13z" />
    <glyph glyph-name="afii10071" unicode="&#x451;" horiz-adv-x="540" 
d="M383 313v34c0 60 -27 115 -110 115c-76 0 -108 -54 -108 -121v-28h218zM415 161l60 -29c10 -6 15 -13 8 -26c-37 -77 -109 -117 -207 -117c-148 0 -225 84 -225 215v134c0 137 91 219 222 219c137 0 221 -72 221 -232v-69c0 -16 -10 -24 -26 -24h-303v-30
c0 -71 32 -118 111 -118c65 0 99 33 116 69c4 10 11 14 23 8zM216 619h-70c-8 0 -15 6 -15 17v88c0 9 5 17 15 17h70c9 0 16 -6 16 -17v-88c0 -11 -7 -17 -16 -17zM409 619h-69c-9 0 -15 6 -15 17v88c0 9 5 17 15 17h69c10 0 16 -6 16 -17v-88c0 -11 -6 -17 -16 -17z" />
    <glyph glyph-name="afii10065" unicode="&#x430;" horiz-adv-x="532" 
d="M355 145v101c-160 6 -203 -23 -203 -85v-4c0 -41 30 -73 79 -73c50 0 93 21 124 61zM454 0h-82c-7 0 -14 2 -14 13v53c-34 -41 -81 -77 -158 -77c-98 0 -163 69 -163 158v6c0 113 77 183 318 166v28c0 80 -29 115 -98 115c-51 0 -83 -28 -97 -71c-5 -13 -15 -12 -23 -8
l-60 31c-8 4 -13 10 -9 19c37 81 94 124 201 124c118 0 199 -72 199 -204v-340c0 -11 -6 -13 -14 -13z" />
    <glyph glyph-name="afii10070" unicode="&#x435;" horiz-adv-x="540" 
d="M383 313v34c0 60 -27 115 -110 115c-76 0 -108 -54 -108 -121v-28h218zM415 161l60 -29c10 -6 15 -13 8 -26c-37 -77 -109 -117 -207 -117c-148 0 -225 84 -225 215v134c0 137 91 219 222 219c137 0 221 -72 221 -232v-69c0 -16 -10 -24 -26 -24h-303v-30
c0 -71 32 -118 111 -118c65 0 99 33 116 69c4 10 11 14 23 8z" />
    <glyph glyph-name="afii10080" unicode="&#x43e;" horiz-adv-x="568" 
d="M517 345v-144c0 -134 -85 -212 -233 -212c-149 0 -233 77 -233 207v149c0 135 85 212 234 212c148 0 232 -77 232 -212zM402 208v130c0 89 -49 124 -118 124c-68 0 -117 -35 -117 -125v-129c0 -90 49 -124 117 -124s118 35 118 124z" />
    <glyph glyph-name="afii10082" unicode="&#x440;" horiz-adv-x="587" 
d="M420 217v105c0 91 -36 139 -110 139c-64 0 -128 -51 -128 -133v-118c0 -72 46 -126 123 -126c62 0 115 31 115 133zM170 -208h-91c-6 0 -12 4 -12 13v730c0 8 6 12 12 12h87c7 0 13 -4 13 -12v-70c30 43 89 92 168 92c116 0 189 -78 189 -216v-136
c0 -143 -99 -216 -208 -216c-82 0 -126 41 -146 75v-259c0 -8 -6 -13 -12 -13z" />
    <glyph glyph-name="afii10083" unicode="&#x441;" horiz-adv-x="519" 
d="M404 169l59 -31c10 -5 16 -10 12 -23c-29 -76 -93 -126 -203 -126c-127 0 -221 71 -221 216v137c0 142 103 215 223 215c108 0 183 -57 204 -157c2 -10 -1 -17 -12 -20l-72 -19c-10 -2 -18 -3 -21 11c-8 46 -33 90 -99 90c-63 0 -107 -37 -107 -129v-126
c0 -86 42 -123 109 -123c66 0 92 40 103 76c5 15 14 14 25 9z" />
    <glyph glyph-name="afii10087" unicode="&#x445;" horiz-adv-x="490" 
d="M461 0h-95c-10 0 -15 5 -19 12l-104 179l-105 -180c-5 -8 -8 -11 -17 -11h-94c-7 0 -13 6 -8 14l166 261l-160 255c-6 8 -2 17 6 17h95c9 0 12 -3 17 -11l110 -179l108 179c4 7 8 11 16 11h88c12 0 15 -9 9 -17l-164 -256l160 -260c4 -6 2 -14 -9 -14z" />
    <glyph glyph-name="afii10103" unicode="&#x456;" horiz-adv-x="249" 
d="M167 0h-85c-10 0 -15 4 -15 14v516c0 11 7 17 15 17h85c9 0 15 -7 15 -16v-517c0 -12 -7 -14 -15 -14zM166 621h-84c-9 0 -15 6 -15 17v95c0 9 4 17 15 17h84c10 0 16 -6 16 -17v-95c0 -11 -7 -17 -16 -17z" />
    <glyph glyph-name="afii10056" unicode="&#x407;" horiz-adv-x="270" 
d="M179 0h-88c-9 0 -14 5 -14 14v723c0 9 6 13 14 13h87c7 0 14 -3 14 -14v-722c0 -10 -6 -14 -13 -14zM72 819h-69c-9 0 -15 6 -15 17v88c0 9 5 17 15 17h69c10 0 16 -6 16 -17v-88c0 -11 -6 -17 -16 -17zM266 819h-69c-9 0 -15 6 -15 17v88c0 9 5 17 15 17h69
c9 0 16 -6 16 -17v-88c0 -11 -7 -17 -16 -17z" />
    <glyph glyph-name="afii10104" unicode="&#x457;" horiz-adv-x="269" 
d="M177 0h-86c-9 0 -15 4 -15 14v516c0 11 8 17 16 17h85c9 0 15 -7 15 -16v-517c0 -12 -8 -14 -15 -14zM72 621h-70c-8 0 -15 6 -15 17v88c0 9 5 17 15 17h70c9 0 16 -6 16 -17v-88c0 -11 -7 -17 -16 -17zM265 621h-69c-9 0 -15 6 -15 17v88c0 9 5 17 15 17h69
c10 0 16 -6 16 -17v-88c0 -11 -6 -17 -16 -17z" />
    <glyph glyph-name="afii10018" unicode="&#x411;" horiz-adv-x="580" 
d="M296 0h-225v732h393c9 0 12 -8 12 -15v-77c0 -7 -4 -13 -12 -13h-274v-150h104c171 0 244 -83 244 -220v-37c0 -137 -72 -220 -242 -220zM419 228v21c0 85 -31 124 -133 124h-96v-269h95c103 0 134 39 134 124z" />
    <glyph glyph-name="afii10020" unicode="&#x413;" horiz-adv-x="452" 
d="M177 0h-92c-9 0 -14 4 -14 13v719h410v-104h-291v-615c0 -10 -4 -13 -13 -13z" />
    <glyph glyph-name="afii10021" unicode="&#x414;" horiz-adv-x="718" 
d="M656 -168h-65c-12 0 -15 4 -15 11l-8 157h-445l-8 -157c0 -8 -2 -11 -18 -11h-60c-10 0 -15 2 -16 11l-14 261h59c79 64 85 204 85 308v305c0 8 3 15 13 15h437c11 0 15 -5 15 -15v-613h68l-14 -261c0 -7 -3 -11 -14 -11zM496 104v524h-227v-216c0 -111 -3 -230 -61 -308
h288z" />
    <glyph glyph-name="afii10024" unicode="&#x416;" horiz-adv-x="902" 
d="M885 0h-107c-13 0 -16 5 -18 12l-82 214c-30 78 -55 104 -121 104h-46v-317c0 -9 -5 -13 -16 -13h-89c-10 0 -15 4 -15 13v317h-46c-66 0 -91 -26 -121 -104l-82 -214c-2 -7 -5 -12 -18 -12h-107c-8 0 -13 5 -9 14l103 240c43 103 70 140 135 158l-215 307
c-5 6 -2 13 10 13h101c12 0 15 -3 20 -10l199 -293h30v291c0 6 5 12 14 12h93c8 0 13 -5 13 -12v-291h30l199 293c5 7 8 10 20 10h101c12 0 15 -7 10 -13l-215 -307c65 -18 92 -55 135 -158l103 -240c4 -9 -1 -14 -9 -14z" />
    <glyph glyph-name="afii10026" unicode="&#x418;" horiz-adv-x="713" 
d="M630 0h-90c-7 0 -12 7 -12 12v378c0 63 1 154 7 221h-3c-30 -66 -87 -180 -120 -248l-177 -352c-3 -6 -8 -11 -16 -11h-134c-12 0 -14 7 -14 15v704c0 8 6 13 12 13h90c6 0 12 -6 12 -13v-398c0 -68 -1 -124 -7 -187h3c31 72 61 133 97 205l198 380c3 6 8 13 17 13h135
c10 0 14 -6 14 -14v-706c0 -7 -6 -12 -12 -12z" />
    <glyph glyph-name="afii10028" unicode="&#x41a;" horiz-adv-x="623" 
d="M607 0h-107c-12 0 -15 5 -18 12l-90 214c-33 77 -59 104 -125 104h-77v-317c0 -9 -4 -13 -15 -13h-89c-11 0 -15 4 -15 13v707c0 6 4 12 14 12h93c8 0 12 -5 12 -12v-291h62l218 293c5 7 8 10 20 10h101c12 0 15 -7 10 -13l-235 -307c65 -18 92 -56 139 -157l112 -241
c4 -9 -1 -14 -10 -14z" />
    <glyph glyph-name="afii10029" unicode="&#x41b;" horiz-adv-x="678" 
d="M591 0h-88c-13 0 -15 3 -15 15v616h-233v-213c0 -168 -6 -318 -180 -428c-10 -6 -15 1 -18 6l-51 69c-5 8 0 11 8 17c112 80 122 174 122 339v294c0 13 6 17 20 17h431c15 0 20 -4 20 -17v-700c0 -12 -2 -15 -16 -15z" />
    <glyph glyph-name="afii10033" unicode="&#x41f;" horiz-adv-x="668" 
d="M581 0h-87c-12 0 -17 4 -17 13v618h-287v-616c0 -10 -3 -15 -13 -15h-91c-12 0 -15 5 -15 15v704c0 6 4 13 14 13h494c13 0 17 -5 17 -16v-703c0 -7 -2 -13 -15 -13z" />
    <glyph glyph-name="afii10037" unicode="&#x423;" horiz-adv-x="605" 
d="M270 201l-256 514c-5 8 -3 17 14 17h87c19 0 26 -4 31 -14l180 -383l148 386c4 8 4 11 19 11h97c14 0 18 -6 14 -15l-213 -509c-51 -121 -101 -220 -239 -220c-31 0 -63 5 -93 20c-7 4 -12 8 -8 21l17 61c5 13 12 15 22 11c12 -5 25 -10 49 -10c74 0 107 44 131 110z" />
    <glyph glyph-name="afii10038" unicode="&#x424;" horiz-adv-x="750" 
d="M417 -47h-85c-10 0 -15 5 -15 13v67c-153 4 -262 81 -262 229v207c0 148 107 226 262 231v64c0 11 5 16 17 16h80c11 0 18 -5 18 -16v-64c155 -4 263 -83 263 -231v-207c0 -149 -110 -225 -263 -229v-67c0 -8 -4 -13 -15 -13zM579 268v195c0 89 -53 139 -147 142v-478
c95 2 147 53 147 141zM317 127v478c-94 -3 -147 -53 -147 -142v-195c0 -87 53 -139 147 -141z" />
    <glyph glyph-name="afii10040" unicode="&#x426;" horiz-adv-x="696" 
d="M648 -160h-94l-8 160h-461c-9 0 -14 4 -14 13v702c0 10 2 17 18 17h84c15 0 17 -7 17 -17v-613h285v616c0 9 4 14 15 14h89c12 0 15 -5 15 -14v-616h68z" />
    <glyph glyph-name="afii10041" unicode="&#x427;" horiz-adv-x="626" 
d="M539 0h-87c-12 0 -16 4 -16 13v283c-50 -26 -110 -37 -167 -37c-118 0 -222 59 -222 203v256c0 7 3 14 14 14h92c11 0 14 -7 14 -14v-245c0 -86 61 -116 130 -116c53 0 102 14 139 35v326c0 9 4 14 13 14h93c9 0 13 -5 13 -13v-706c0 -9 -5 -13 -16 -13z" />
    <glyph glyph-name="afii10042" unicode="&#x428;" horiz-adv-x="913" 
d="M828 0h-743c-9 0 -14 5 -14 13v707c0 6 4 12 13 12h92c11 0 14 -6 14 -12v-618h207v617c0 9 4 13 14 13h89c14 0 16 -5 16 -13v-617h207v618c0 6 3 12 13 12h92c11 0 14 -6 14 -12v-706c0 -9 -4 -14 -14 -14z" />
    <glyph glyph-name="afii10043" unicode="&#x429;" horiz-adv-x="942" 
d="M885 -167h-74c-8 0 -10 3 -10 10l-8 157h-703c-17 0 -19 6 -19 18v702c0 6 4 12 13 12h92c11 0 14 -6 14 -12v-618h207v617c0 9 4 13 14 13h89c14 0 16 -5 16 -13v-617h207v618c0 6 3 12 13 12h92c11 0 14 -6 14 -12v-618h67l-14 -259c0 -7 -3 -10 -10 -10z" />
    <glyph glyph-name="afii10044" unicode="&#x42a;" horiz-adv-x="622" 
d="M376 0h-245v631h-126v101h245v-271h122c165 0 231 -91 231 -209v-42c0 -126 -71 -210 -227 -210zM484 219v22c0 78 -28 121 -125 121h-109v-263h109c97 0 125 42 125 120z" />
    <glyph glyph-name="afii10045" unicode="&#x42b;" horiz-adv-x="804" 
d="M316 0h-245v719c0 8 4 13 15 13h92c9 0 12 -5 12 -13v-258h122c165 0 232 -91 232 -209v-42c0 -126 -72 -210 -228 -210zM424 219v22c0 78 -27 121 -124 121h-110v-263h110c97 0 124 42 124 120zM719 0h-93c-6 0 -13 4 -13 13v706c0 9 7 13 13 13h93c8 0 13 -5 13 -13
v-706c0 -8 -5 -13 -13 -13z" />
    <glyph glyph-name="afii10046" unicode="&#x42c;" horiz-adv-x="572" 
d="M326 0h-255v719c0 8 4 13 15 13h92c9 0 12 -5 12 -13v-258h132c165 0 232 -91 232 -209v-42c0 -126 -72 -210 -228 -210zM434 219v22c0 78 -27 121 -124 121h-120v-263h120c97 0 124 42 124 120z" />
    <glyph glyph-name="afii10047" unicode="&#x42d;" horiz-adv-x="587" 
d="M406 240v84h-243c-9 0 -16 4 -16 14v71c0 11 7 14 16 14h243v68c0 98 -48 146 -131 146c-76 0 -117 -32 -151 -81c-5 -6 -13 -12 -26 -1l-60 44c-11 9 -7 20 3 33c46 59 111 110 239 110c150 0 246 -80 246 -241v-281c0 -149 -97 -232 -254 -232c-124 0 -200 58 -236 113
c-10 15 -5 23 4 29l57 47c8 5 17 4 23 -6c34 -51 74 -79 151 -79c75 0 135 45 135 148z" />
    <glyph glyph-name="afii10048" unicode="&#x42e;" horiz-adv-x="908" 
d="M846 495v-259c0 -153 -80 -248 -260 -248c-183 0 -260 90 -260 247v94h-136v-316c0 -8 -5 -13 -13 -13h-93c-6 0 -13 4 -13 13v706c0 9 7 13 13 13h93c8 0 13 -5 13 -13v-283h136v58c0 149 80 248 260 248c184 0 260 -94 260 -247zM727 238v253c0 98 -33 156 -141 156
s-141 -56 -141 -154v-254c0 -99 33 -155 141 -155s141 57 141 154z" />
    <glyph glyph-name="afii10049" unicode="&#x42f;" horiz-adv-x="635" 
d="M551 0h-91c-10 0 -14 5 -14 14v286h-113c-74 0 -99 -37 -127 -112l-64 -175c-3 -11 -9 -13 -24 -13h-95c-14 0 -17 7 -14 16l84 199c26 62 51 114 114 132c-71 18 -121 72 -121 152v48c0 106 66 185 229 185h249v-718c0 -8 -2 -14 -13 -14zM446 399v235h-118
c-86 0 -124 -31 -124 -103v-22c0 -63 35 -110 115 -110h127z" />
    <glyph glyph-name="afii10027" unicode="&#x419;" horiz-adv-x="713" 
d="M630 0h-90c-7 0 -12 7 -12 12v378c0 63 1 154 7 221h-3c-30 -66 -87 -180 -120 -248l-177 -352c-3 -6 -8 -11 -16 -11h-134c-12 0 -14 7 -14 15v704c0 8 6 13 12 13h90c6 0 12 -6 12 -13v-398c0 -68 -1 -124 -7 -187h3c30 72 61 133 97 205l198 380c3 6 8 13 17 13h135
c10 0 14 -6 14 -14v-706c0 -7 -6 -12 -12 -12zM249 958l58 -7c5 -1 8 -3 8 -12c1 -32 23 -53 52 -53c27 0 52 19 52 54c0 5 1 10 8 11c6 1 48 6 60 7c7 0 8 -4 8 -13c0 -66 -52 -122 -128 -122c-81 0 -128 60 -128 124c0 8 1 12 10 11z" />
    <glyph glyph-name="afii10050" unicode="&#x490;" horiz-adv-x="486" 
d="M174 0h-87c-11 0 -16 5 -16 17v715h326l10 156c0 9 4 13 15 13h77c10 0 15 -5 15 -13l1 -258h-325v-613c0 -12 -4 -17 -16 -17z" />
    <glyph glyph-name="afii10051" unicode="&#x402;" horiz-adv-x="710" 
d="M541 189v72c0 73 -38 107 -110 107c-41 0 -91 -12 -127 -31v-323c0 -9 -4 -14 -15 -14h-89c-12 0 -15 5 -15 14v614h-177c-8 0 -13 3 -13 15v72c0 12 4 17 14 17h516c12 0 15 -4 15 -19v-70c0 -11 -3 -15 -15 -15h-221v-199c45 22 105 38 156 38c125 0 200 -60 200 -191
v-95c0 -116 -75 -193 -189 -193c-29 0 -53 3 -68 8c-11 4 -12 12 -11 22l6 63c2 17 7 18 16 16s24 -4 34 -4c57 0 93 26 93 96z" />
    <glyph glyph-name="afii10099" unicode="&#x452;" horiz-adv-x="584" 
d="M335 -202l-38 55c-8 12 -5 18 9 26c79 42 100 99 100 187v275c0 59 -22 95 -78 95c-62 0 -122 -58 -139 -95v-328c0 -9 -6 -13 -14 -13h-89c-10 0 -12 4 -12 13v581h-63c-6 0 -11 1 -11 10v63c0 9 4 11 11 11h63v60c0 8 3 12 14 12h88c10 0 13 -4 13 -12v-60h216
c9 0 12 -4 12 -11v-64c0 -6 -4 -9 -11 -9h-217v-139c11 14 72 85 176 85c100 0 156 -71 156 -171v-303c0 -132 -38 -216 -162 -277c-11 -5 -18 0 -24 9z" />
    <glyph glyph-name="afii10098" unicode="&#x491;" horiz-adv-x="428" 
d="M168 0h-84c-11 0 -16 5 -16 17v524h256l7 137c1 8 4 12 16 12h66c10 0 15 -4 15 -12l1 -229h-245v-432c0 -12 -5 -17 -16 -17z" />
    <glyph glyph-name="afii10053" unicode="&#x404;" horiz-adv-x="585" 
d="M493 180l54 -49c8 -7 14 -14 4 -29c-35 -55 -108 -114 -233 -114c-152 0 -257 83 -257 232v280c0 157 105 242 256 242c127 0 188 -44 232 -105c10 -12 13 -22 2 -31l-58 -49c-13 -11 -21 -4 -25 0c-32 47 -65 80 -147 80s-141 -47 -141 -145v-69h240c9 0 16 -3 16 -14
v-69c0 -11 -7 -14 -16 -14h-240v-86c0 -104 65 -148 140 -148c76 0 117 31 150 83c6 10 15 11 23 5z" />
    <glyph glyph-name="afii10101" unicode="&#x454;" horiz-adv-x="508" 
d="M409 141l43 -34c10 -9 10 -18 1 -29c-30 -46 -89 -90 -179 -90c-135 0 -219 66 -219 203v160c0 126 86 206 222 206c96 0 160 -44 192 -94c9 -14 9 -25 -3 -32l-52 -33c-8 -5 -19 -6 -24 5c-21 37 -50 63 -108 63c-76 0 -114 -42 -114 -123v-29h182c9 0 13 -3 13 -14v-59
c0 -7 -4 -12 -13 -12h-182v-37c0 -75 38 -113 113 -113c50 0 83 26 106 60c6 8 13 10 22 2z" />
    <glyph glyph-name="afii10106" unicode="&#x459;" horiz-adv-x="802" 
d="M585 0h-216v447h-149v-149c0 -121 -24 -218 -135 -304c-10 -7 -21 -10 -29 0l-48 48c-11 13 -7 21 3 29c88 66 94 141 94 230v228c0 7 6 12 15 12h351c9 0 13 -5 13 -11v-182h113c134 0 187 -59 187 -144v-63c0 -85 -55 -141 -199 -141zM670 152v38c0 42 -26 74 -92 74
h-94v-180h88c71 0 98 22 98 68z" />
    <glyph glyph-name="afii10107" unicode="&#x45a;" horiz-adv-x="786" 
d="M569 0h-216v257h-171v-245c0 -7 -3 -12 -13 -12h-90c-9 0 -12 5 -12 12v517c0 7 4 12 13 12h90c9 0 12 -5 12 -12v-184h171v184c0 8 3 12 12 12h91c8 0 13 -4 13 -12v-183h113c128 0 187 -54 187 -142v-63c0 -91 -63 -141 -200 -141zM655 152v37c0 42 -29 73 -92 73h-94
v-178h87c70 0 99 22 99 68z" />
    <glyph glyph-name="afii10108" unicode="&#x45b;" horiz-adv-x="588" 
d="M509 0h-85c-12 0 -14 5 -14 14v329c0 58 -24 93 -77 93c-65 0 -125 -62 -140 -95v-326c0 -9 -4 -15 -15 -15h-87c-11 0 -14 6 -14 15v579h-62c-6 0 -11 1 -11 10v63c0 9 4 11 11 11h62v60c0 8 4 12 15 12h88c10 0 13 -4 13 -12v-60h215c9 0 13 -4 13 -11v-64
c0 -6 -4 -9 -11 -9h-217v-139c11 14 72 85 177 85c99 0 155 -72 155 -170v-356c0 -8 -3 -14 -16 -14z" />
    <glyph glyph-name="afii10145" unicode="&#x40f;" horiz-adv-x="666" 
d="M577 0h-189l-8 -158c0 -6 -5 -10 -16 -10h-61c-10 0 -17 4 -17 11l-8 157h-191c-11 0 -16 6 -16 15v705c0 7 5 12 14 12h92c10 0 13 -5 13 -12v-619h285v619c0 8 7 12 13 12h92c9 0 14 -4 14 -12v-705c0 -9 -5 -15 -17 -15z" />
    <glyph glyph-name="afii10193" unicode="&#x45f;" horiz-adv-x="581" 
d="M499 0h-158l-7 -138c-1 -9 -5 -12 -14 -12h-60c-7 0 -12 3 -12 12l-8 138h-159c-10 0 -14 6 -14 13v512c0 11 7 16 15 16h85c9 0 15 -7 15 -16v-432h217v432c0 11 7 16 15 16h85c9 0 15 -7 15 -16v-512c0 -7 -3 -13 -15 -13z" />
    <glyph glyph-name="afii10097" unicode="&#x44f;" horiz-adv-x="544" 
d="M367 300v156h-89c-71 0 -98 -25 -98 -71v-13c0 -42 25 -72 89 -72h98zM462 0h-80c-10 0 -15 4 -15 14v201h-92c-49 0 -71 -24 -92 -77l-51 -127c-3 -7 -10 -11 -21 -11h-87c-12 0 -14 7 -10 16l59 143c17 42 37 77 84 96c-52 13 -90 51 -90 115v27c0 84 65 144 199 144
h212v-527c0 -12 -8 -14 -16 -14z" />
    <glyph glyph-name="afii10066" unicode="&#x431;" horiz-adv-x="590" 
d="M538 331v-134c0 -137 -109 -209 -239 -209c-144 0 -239 77 -239 213v205c0 87 9 179 78 239c33 29 79 45 124 54c53 9 89 15 96 40c3 9 6 11 19 11h85c10 0 11 -7 11 -15c0 -35 -21 -58 -50 -75c-56 -35 -150 -25 -202 -71c-27 -23 -48 -53 -49 -115c43 45 99 65 156 65
c122 0 210 -77 210 -208zM423 195v131c0 78 -49 117 -123 117c-79 0 -125 -56 -125 -129v-116c0 -75 43 -118 124 -118c73 0 124 38 124 115z" />
    <glyph glyph-name="afii10067" unicode="&#x432;" horiz-adv-x="534" 
d="M303 0h-236v541h243c108 0 170 -47 170 -130v-16c0 -56 -38 -94 -88 -108c54 -10 105 -55 105 -121v-25c0 -81 -58 -141 -194 -141zM369 388v7c0 38 -23 61 -86 61h-105v-132h108c56 0 83 23 83 64zM385 152v14c0 48 -30 73 -95 73h-112v-154h112c64 0 95 20 95 67z" />
    <glyph glyph-name="afii10068" unicode="&#x433;" horiz-adv-x="397" 
d="M167 0h-85c-10 0 -15 4 -15 15v526h352c9 0 12 -4 12 -11v-73c0 -6 -4 -10 -11 -10h-238v-433c0 -12 -7 -14 -15 -14z" />
    <glyph glyph-name="afii10069" unicode="&#x434;" horiz-adv-x="606" 
d="M556 -150h-63c-10 0 -12 4 -12 10l-7 140h-364l-7 -140c0 -4 -3 -10 -12 -10h-63c-8 0 -10 6 -10 10l-13 233h54c56 55 67 110 67 209v227c0 7 5 12 15 12h364c9 0 13 -5 13 -11v-437h62l-13 -233c0 -6 -4 -10 -11 -10zM402 93v355h-161v-156c0 -78 -10 -144 -52 -199
h213z" />
    <glyph glyph-name="afii10072" unicode="&#x436;" horiz-adv-x="754" 
d="M737 0h-93c-9 0 -14 3 -17 11l-62 147c-22 55 -43 79 -91 79h-41v-223c0 -12 -8 -14 -15 -14h-82c-8 0 -15 2 -15 14v223h-41c-48 0 -69 -24 -91 -79l-62 -147c-3 -8 -8 -11 -18 -11h-92c-10 0 -13 7 -11 13l79 179c32 77 57 104 102 117l-162 216c-5 7 -2 16 10 16h94
c15 0 18 -3 24 -11l143 -205h25v201c0 8 4 15 13 15h85c9 0 14 -7 14 -15v-201h25l143 205c6 8 9 11 24 11h93c13 0 16 -9 11 -16l-162 -216c45 -13 70 -40 102 -117l78 -179c3 -6 0 -13 -10 -13z" />
    <glyph glyph-name="afii10074" unicode="&#x438;" horiz-adv-x="614" 
d="M532 0h-83c-10 0 -14 6 -14 15v228c0 55 1 139 6 187c-10 -8 -38 -76 -46 -92l-39 -73c-46 -84 -90 -168 -136 -251c-9 -17 -32 -14 -57 -14h-78c-13 0 -18 4 -18 17v508c0 9 5 16 15 16h82c10 0 15 -7 15 -16v-227c0 -59 -1 -128 -5 -186h2c26 59 61 125 85 169l132 245
c9 18 32 15 59 15h79c10 0 16 -7 16 -16v-510c0 -9 -3 -15 -15 -15z" />
    <glyph glyph-name="afii10076" unicode="&#x43a;" horiz-adv-x="531" 
d="M513 0h-93c-10 0 -15 3 -18 11l-69 148c-23 54 -41 78 -94 78h-57v-223c0 -12 -7 -14 -15 -14h-85c-8 0 -15 2 -15 14v512c0 8 4 15 12 15h90c8 0 13 -7 13 -15v-201h46l153 205c6 8 9 11 23 11h92c13 0 16 -9 11 -16l-172 -216c45 -11 70 -44 105 -120l84 -176
c3 -6 0 -13 -11 -13z" />
    <glyph glyph-name="afii10077" unicode="&#x43b;" horiz-adv-x="557" 
d="M475 0h-85c-8 0 -15 2 -15 14v434h-161v-150c0 -121 -24 -218 -135 -304c-10 -7 -21 -10 -29 0l-48 48c-11 13 -7 21 3 29c88 66 94 141 94 230v228c0 7 6 12 15 12h364c9 0 13 -6 13 -12v-515c0 -12 -8 -14 -16 -14z" />
    <glyph glyph-name="afii10078" unicode="&#x43c;" horiz-adv-x="703" 
d="M623 0h-80c-9 0 -14 4 -14 12v312c0 26 1 56 4 82h-3l-126 -394c-2 -7 -7 -12 -16 -12h-75c-10 0 -15 3 -18 11l-124 394h-2c3 -26 5 -54 5 -82v-311c0 -9 -4 -12 -15 -12h-79c-10 0 -13 3 -13 12v510c0 12 4 19 18 19h111c17 0 22 -6 25 -18l82 -252
c19 -57 38 -113 50 -170c12 57 32 116 50 172l82 250c3 11 6 18 25 18h108c12 0 18 -7 18 -19v-510c0 -8 -4 -12 -13 -12z" />
    <glyph glyph-name="afii10079" unicode="&#x43d;" horiz-adv-x="591" 
d="M509 0h-86c-9 0 -15 4 -15 14v226h-226v-226c0 -12 -7 -14 -15 -14h-86c-9 0 -14 4 -14 15v512c0 11 7 15 15 15h85c9 0 15 -6 15 -15v-194h226v194c0 11 8 15 16 15h85c9 0 15 -6 15 -15v-513c0 -12 -8 -14 -15 -14z" />
    <glyph glyph-name="afii10081" unicode="&#x43f;" horiz-adv-x="582" 
d="M500 0h-85c-10 0 -15 4 -15 14v434h-218v-434c0 -12 -7 -14 -15 -14h-86c-9 0 -14 4 -14 15v511c0 9 5 15 16 15h417c10 0 15 -6 15 -15v-512c0 -12 -7 -14 -15 -14z" />
    <glyph glyph-name="afii10084" unicode="&#x442;" horiz-adv-x="449" 
d="M267 0h-86c-9 0 -14 4 -14 14v433h-160c-8 0 -12 4 -12 13v66c0 12 4 15 14 15h429c11 0 16 -3 16 -15v-66c0 -9 -5 -13 -13 -13h-159v-433c0 -12 -7 -14 -15 -14z" />
    <glyph glyph-name="afii10085" unicode="&#x443;" horiz-adv-x="517" 
d="M101 -211l-34 61c-6 10 -7 19 6 25c45 22 102 60 129 134l-194 521c-2 5 -1 12 8 12h105c6 0 9 -2 12 -10l132 -395l126 394c2 7 6 11 12 11h101c9 0 11 -5 8 -12l-207 -545c-37 -97 -106 -162 -179 -198c-12 -5 -21 -6 -25 2z" />
    <glyph glyph-name="afii10086" unicode="&#x444;" horiz-adv-x="660" 
d="M369 -207h-78c-9 0 -14 5 -14 14v184c-139 6 -227 78 -227 216v131c0 138 89 210 227 216v183c0 9 6 13 14 13h77c7 0 15 -3 15 -15v-181c139 -6 227 -78 227 -216v-131c0 -138 -90 -210 -227 -216v-184c0 -10 -7 -14 -14 -14zM499 211v123c0 77 -37 123 -116 126v-376
c80 4 116 51 116 127zM277 84v376c-79 -3 -116 -49 -116 -126v-123c0 -76 37 -123 116 -127z" />
    <glyph glyph-name="afii10088" unicode="&#x446;" horiz-adv-x="603" 
d="M550 -152h-60c-9 0 -12 6 -12 12l-7 140h-389c-11 0 -15 6 -15 14v512c0 11 5 15 14 15h86c8 0 15 -3 15 -15v-433h217v434c0 10 5 14 15 14h85c8 0 15 -2 15 -15v-433h62l-12 -233c0 -6 -4 -12 -14 -12z" />
    <glyph glyph-name="afii10089" unicode="&#x447;" horiz-adv-x="530" 
d="M448 0h-85c-10 0 -15 4 -15 14v195c-37 -17 -86 -26 -132 -26c-92 0 -178 43 -178 158v184c0 13 6 16 15 16h85c8 0 16 -3 16 -14v-175c0 -49 35 -72 90 -72c39 0 80 10 104 21v226c0 10 5 14 15 14h85c8 0 15 -2 15 -14v-513c0 -12 -7 -14 -15 -14z" />
    <glyph glyph-name="afii10090" unicode="&#x448;" horiz-adv-x="747" 
d="M667 0h-586c-9 0 -14 5 -14 13v514c0 11 7 15 15 15h82c9 0 15 -6 15 -15v-433h138v433c0 11 8 15 16 15h82c9 0 15 -6 15 -15v-433h138v433c0 11 8 15 15 15h83c8 0 15 -6 15 -15v-515c0 -7 -4 -12 -14 -12z" />
    <glyph glyph-name="afii10091" unicode="&#x449;" horiz-adv-x="769" 
d="M716 -152h-60c-9 0 -12 6 -12 12l-7 140h-556c-9 0 -14 5 -14 13v514c0 11 7 15 15 15h82c9 0 15 -6 15 -15v-433h138v433c0 11 8 15 16 15h82c9 0 15 -6 15 -15v-433h138v433c0 11 8 15 15 15h83c8 0 15 -6 15 -15v-434h62l-13 -233c0 -6 -4 -12 -14 -12z" />
    <glyph glyph-name="afii10092" unicode="&#x44a;" horiz-adv-x="559" 
d="M425 152v38c0 42 -24 74 -91 74h-93v-180h87c72 0 97 22 97 68zM342 0h-217v447h-108c-10 0 -15 4 -15 13v66c0 12 4 15 15 15h211c9 0 13 -5 13 -11v-182h113c134 0 187 -59 187 -144v-63c0 -85 -56 -141 -199 -141z" />
    <glyph glyph-name="afii10093" unicode="&#x44b;" horiz-adv-x="728" 
d="M367 152v38c0 42 -25 74 -91 74h-94v-180h88c71 0 97 22 97 68zM283 0h-216v526c0 12 4 15 14 15h88c9 0 13 -5 13 -11v-182h113c134 0 187 -59 187 -144v-63c0 -85 -55 -141 -199 -141zM646 0h-85c-10 0 -15 4 -15 14v511c0 11 7 16 15 16h85c9 0 15 -7 15 -16v-511
c0 -12 -7 -14 -15 -14z" />
    <glyph glyph-name="afii10094" unicode="&#x44c;" horiz-adv-x="500" 
d="M367 152v38c0 42 -25 74 -91 74h-94v-180h88c71 0 97 22 97 68zM283 0h-216v526c0 12 4 15 14 15h88c9 0 13 -5 13 -11v-182h113c134 0 187 -59 187 -144v-63c0 -85 -55 -141 -199 -141z" />
    <glyph glyph-name="afii10095" unicode="&#x44d;" horiz-adv-x="497" 
d="M333 192v37h-182c-9 0 -13 5 -13 12v59c0 11 4 14 13 14h182v29c0 81 -29 123 -104 123c-59 0 -94 -26 -115 -63c-5 -11 -16 -10 -24 -5l-45 34c-12 7 -12 19 -3 32c32 50 96 93 192 93c135 0 212 -75 212 -206v-160c0 -137 -74 -203 -210 -203c-89 0 -156 44 -186 90
c-8 11 -9 20 2 29l43 34c9 8 16 6 22 -2c23 -34 63 -60 113 -60c75 0 103 38 103 113z" />
    <glyph glyph-name="afii10096" unicode="&#x44e;" horiz-adv-x="779" 
d="M728 340v-134c0 -137 -79 -217 -219 -217s-219 80 -219 217v34h-108v-226c0 -12 -7 -14 -15 -14h-85c-10 0 -15 4 -15 15v510c0 11 7 16 15 16h85c9 0 15 -7 15 -16v-193h108v15c0 119 72 210 219 210c140 0 219 -80 219 -217zM613 208v131c0 77 -24 124 -104 124
s-103 -46 -103 -124v-132c0 -78 23 -124 103 -124s104 47 104 125z" />
    <glyph glyph-name="afii10110" unicode="&#x45e;" horiz-adv-x="502" 
d="M93 -211l-34 61c-5 10 -6 19 7 25c45 22 102 60 128 134l-194 521c-2 5 -1 12 8 12h106c6 0 9 -2 12 -10l131 -395l126 394c2 7 6 11 12 11h102c9 0 11 -5 8 -12l-207 -545c-38 -97 -106 -162 -179 -198c-13 -5 -21 -6 -26 2zM144 767l59 -7c5 -1 8 -3 8 -11
c1 -32 23 -54 52 -54c27 0 52 20 52 54c0 5 1 10 8 11c6 1 48 6 60 7c7 1 8 -4 8 -12c0 -66 -52 -122 -128 -122c-81 0 -128 60 -128 124c0 7 1 11 9 10z" />
    <glyph glyph-name="afii10075" unicode="&#x439;" horiz-adv-x="614" 
d="M532 0h-83c-10 0 -14 6 -14 15v228c0 55 1 139 6 187c-10 -8 -38 -76 -46 -92l-39 -73c-46 -84 -90 -168 -136 -251c-9 -17 -32 -14 -57 -14h-78c-13 0 -18 4 -18 17v508c0 9 5 16 15 16h82c10 0 15 -7 15 -16v-227c0 -59 -1 -128 -5 -186h2c26 59 61 125 85 169l132 245
c9 18 32 15 59 15h79c10 0 16 -7 16 -16v-510c0 -9 -3 -15 -15 -15zM415 763l36 4c7 1 8 -4 8 -12c0 -66 -52 -122 -128 -122c-81 0 -128 60 -128 124c0 7 1 11 10 10l58 -7c5 -1 8 -3 8 -11c1 -32 23 -54 52 -54c27 0 52 20 52 54c0 10 0 11 32 14z" />
    <glyph glyph-name="afii10109" unicode="&#x45c;" horiz-adv-x="531" 
d="M513 0h-93c-10 0 -15 3 -18 11l-69 148c-23 54 -41 78 -94 78h-57v-223c0 -12 -7 -14 -15 -14h-85c-8 0 -15 2 -15 14v512c0 8 4 15 12 15h90c8 0 13 -7 13 -15v-201h46l153 205c6 8 9 11 23 11h92c13 0 16 -9 11 -16l-172 -216c45 -11 73 -43 105 -120l84 -176
c3 -6 0 -13 -11 -13zM300 601h-53c-8 0 -13 5 -8 13l81 138c5 8 11 9 18 9h73c12 0 13 -9 8 -16l-106 -138c-3 -4 -7 -6 -13 -6z" />
    <glyph glyph-name="afii10052" unicode="&#x403;" horiz-adv-x="486" 
d="M175 0h-88c-10 0 -16 4 -16 15v717h431c9 0 13 -4 13 -12v-81c0 -6 -5 -9 -12 -9h-313v-616c0 -12 -7 -14 -15 -14zM322 801h-53c-8 0 -13 6 -8 14l81 137c5 8 11 9 18 9h73c12 0 13 -8 8 -15l-106 -139c-3 -3 -7 -6 -13 -6z" />
    <glyph glyph-name="afii10100" unicode="&#x453;" horiz-adv-x="426" 
d="M167 0h-85c-10 0 -15 4 -15 15v526h352c9 0 12 -4 12 -11v-73c0 -6 -4 -10 -11 -10h-238v-433c0 -12 -7 -14 -15 -14zM277 605h-54c-8 0 -12 5 -8 13l82 138c4 8 10 9 18 9h73c12 0 13 -9 7 -16l-105 -138c-3 -4 -7 -6 -13 -6z" />
    <glyph glyph-name="afii10062" unicode="&#x40e;" horiz-adv-x="598" 
d="M261 201l-258 519c-4 7 0 12 9 12h106c11 0 14 -4 18 -12l181 -385l148 383c4 10 6 14 22 14h94c13 0 19 -4 15 -14l-216 -514c-49 -116 -98 -216 -238 -216c-36 0 -72 8 -94 23c-5 3 -7 10 -5 18l23 62c5 12 11 15 19 10c11 -7 29 -14 53 -14c70 0 103 54 123 114z
M198 958l58 -7c5 -1 8 -3 8 -12c1 -32 23 -53 52 -53c27 0 52 19 52 54c0 5 1 10 8 11c6 1 48 6 60 7c7 0 8 -4 8 -13c0 -66 -52 -122 -128 -122c-81 0 -128 60 -128 124c0 8 1 12 10 11z" />
    <glyph glyph-name="afii10025" unicode="&#x417;" horiz-adv-x="581" 
d="M534 220v-17c0 -132 -111 -215 -245 -215c-156 0 -227 85 -252 169c-3 13 -1 21 11 25l62 24c14 6 25 1 30 -13c18 -57 61 -100 147 -100c76 0 127 41 127 112v6c0 82 -50 116 -127 116h-93c-8 0 -10 5 -10 11v82c0 6 1 12 10 12h96c69 0 115 40 115 101v10
c0 54 -37 94 -112 94c-81 0 -118 -28 -136 -88c-3 -10 -13 -13 -23 -10l-70 22c-9 3 -13 8 -9 22c30 97 110 159 238 159c151 0 233 -78 233 -199v-10c0 -68 -47 -129 -115 -153c64 -14 123 -67 123 -160z" />
    <glyph glyph-name="afii10073" unicode="&#x437;" horiz-adv-x="489" 
d="M448 169v-23c0 -104 -97 -158 -216 -158c-90 0 -157 45 -188 91c-8 11 -8 20 2 29l45 35c9 7 16 6 21 -2c24 -35 61 -62 116 -62c64 0 104 27 104 75v13c0 39 -27 70 -85 70h-83c-9 0 -14 4 -14 12v57c0 11 5 14 14 14h84c50 0 79 31 79 70v7c0 45 -33 69 -96 69
c-59 0 -94 -24 -118 -64c-7 -10 -18 -11 -25 -5l-38 33c-11 9 -12 19 -2 32c40 57 97 95 185 95c134 0 205 -54 205 -155v-15c0 -49 -35 -93 -76 -108c41 -10 86 -61 86 -110z" />
    <glyph glyph-name="g.alt" horiz-adv-x="589" 
d="M407 238v91c0 62 -40 126 -120 126c-71 0 -120 -30 -120 -146v-77c0 -96 37 -141 115 -141c88 0 125 57 125 147zM406 12v53c-24 -42 -72 -76 -152 -76c-115 0 -203 76 -203 205v152c0 129 85 211 207 211c83 0 128 -37 152 -78v59c0 8 5 9 11 9h90c6 0 11 -1 11 -9v-500
c0 -189 -115 -255 -249 -255c-94 0 -169 42 -196 70c-6 6 -10 11 -3 20l38 62c5 9 11 10 20 1c20 -21 78 -60 146 -60c69 0 128 40 128 136z" />
    <glyph glyph-name="ampersand.alt" horiz-adv-x="666" 
d="M642 0h-106c-6 0 -9 1 -16 8l-47 57c-59 -55 -114 -77 -197 -77c-155 0 -244 86 -244 199c0 101 51 157 146 222c-71 78 -93 120 -93 177c0 93 84 162 182 162c114 0 185 -73 185 -164c0 -85 -52 -131 -127 -189l135 -157c9 26 10 60 10 83v26c0 10 5 14 15 14h82
c10 0 15 -5 15 -14v-26c0 -81 -22 -139 -45 -173l113 -131c7 -9 -2 -17 -8 -17zM404 147l-164 189c-60 -45 -91 -75 -91 -140c0 -57 44 -110 129 -110c56 0 99 22 126 61zM261 465c50 36 79 60 79 111s-29 76 -73 76c-43 0 -70 -29 -70 -74c0 -39 21 -65 64 -113z" />
    <glyph glyph-name="afii61352" unicode="&#x2116;" horiz-adv-x="1094" 
d="M607 0h-122c-10 0 -15 7 -18 13c-78 159 -208 412 -288 591h-2c8 -80 10 -148 10 -222v-369c0 -7 -6 -13 -12 -13h-92c-6 0 -12 5 -12 13v703c0 8 2 16 14 16h130c9 0 13 -5 16 -11c192 -385 236 -475 281 -572h2c-6 60 -7 115 -7 183v388c0 5 5 12 12 12h90
c6 0 12 -6 12 -12v-707c0 -8 -4 -13 -14 -13zM1058 578v-109c0 -105 -78 -159 -179 -159c-109 0 -176 55 -176 159v112c0 105 71 156 176 156s179 -54 179 -159zM1034 155h-308c-8 0 -12 6 -12 13v63c0 7 4 14 12 14h308c8 0 12 -8 12 -14v-63c0 -7 -4 -13 -12 -13zM964 471
v100c0 54 -30 81 -85 81c-57 0 -83 -26 -83 -81v-100c0 -54 26 -80 83 -80c55 0 85 27 85 80z" />
    </font>
</defs>
</svg>
