<?xml version="1.0" standalone="no"?>
<!DOCTYPE svg PUBLIC "-//W3C//DTD SVG 1.1//EN" "http://www.w3.org/Graphics/SVG/1.1/DTD/svg11.dtd" >
<svg xmlns="http://www.w3.org/2000/svg" xmlns:xlink="http://www.w3.org/1999/xlink" version="1.1">
<metadata>
Created by FontForge 20190801 at Thu Jun 30 12:09:33 2016
 By Jimmy Wärting
copyright missing
</metadata>
<defs>
<font id="Frank-Light" horiz-adv-x="600" >
  <font-face 
    font-family="Frank Light"
    font-weight="300"
    font-stretch="normal"
    units-per-em="1000"
    panose-1="0 0 4 0 0 0 0 0 0 0"
    ascent="800"
    descent="-200"
    x-height="700"
    cap-height="700"
    bbox="-674 -297 1250 961"
    underline-thickness="50"
    underline-position="-100"
    unicode-range="U+0020-2212"
  />
<missing-glyph horiz-adv-x="525" 
d="M431 800v-1050h-333v1050h333zM350 730h-174v-35h69v-39h-70v-34h175v34h-70v39h70v35zM280 594h-105v-109h175v36h-70v73zM245 559v-38h-35v38h35zM350 457h-175v-35h70v-39h-70v-34h105v73h70v35zM350 394h-35v-70h-140v-35h175v105zM350 266h-105v-59h35v24h35v-49
h-105v84h-35v-119h175v119zM350 84h-175v-119h175v119zM315 49v-49h-105v49h105zM350 -59h-175v-35h74l-74 -49v-35h175v35h-107l73 49h34v35z" />
    <glyph glyph-name=".notdef" horiz-adv-x="525" 
d="M431 800v-1050h-333v1050h333zM350 730h-174v-35h69v-39h-70v-34h175v34h-70v39h70v35zM280 594h-105v-109h175v36h-70v73zM245 559v-38h-35v38h35zM350 457h-175v-35h70v-39h-70v-34h105v73h70v35zM350 394h-35v-70h-140v-35h175v105zM350 266h-105v-59h35v24h35v-49
h-105v84h-35v-119h175v119zM350 84h-175v-119h175v119zM315 49v-49h-105v49h105zM350 -59h-175v-35h74l-74 -49v-35h175v35h-107l73 49h34v35z" />
    <glyph glyph-name="A" unicode="A" horiz-adv-x="612" 
d="M63 0h-53l281 700h31l280 -700h-53l-69 171h-349zM150 220h312l-156 394z" />
    <glyph glyph-name="Aacute" unicode="&#xc1;" horiz-adv-x="612" 
d="M325 750h-35l52 156h54zM63 0h-53l281 700h31l280 -700h-53l-69 171h-349zM150 220h312l-156 394z" />
    <glyph glyph-name="Abreve" unicode="&#x102;" horiz-adv-x="612" 
d="M306 750c-69 0 -124 55 -124 124h48c0 -42 34 -76 76 -76c41 0 76 34 76 76h48c0 -69 -56 -124 -124 -124zM63 0h-53l281 700h31l280 -700h-53l-69 171h-349zM150 220h312l-156 394z" />
    <glyph glyph-name="Acircumflex" unicode="&#xc2;" horiz-adv-x="612" 
d="M178 797l109 73h39l109 -73l-27 -39l-101 74l-102 -74zM63 0h-53l281 700h31l280 -700h-53l-69 171h-349zM150 220h312l-156 394z" />
    <glyph glyph-name="Adieresis" unicode="&#xc4;" horiz-adv-x="612" 
d="M222 750c-27 0 -48 17 -48 43c0 27 21 43 48 43c26 0 48 -16 48 -43c0 -26 -22 -43 -48 -43zM392 750c-27 0 -48 17 -48 43c0 27 21 43 48 43c26 0 48 -16 48 -43c0 -26 -22 -43 -48 -43zM63 0h-53l281 700h31l280 -700h-53l-69 171h-349zM150 220h312l-156 394z" />
    <glyph glyph-name="Agrave" unicode="&#xc0;" horiz-adv-x="612" 
d="M288 757l-71 156h54l52 -156h-35zM63 0h-53l281 700h31l280 -700h-53l-69 171h-349zM150 220h312l-156 394z" />
    <glyph glyph-name="Amacron" unicode="&#x100;" horiz-adv-x="612" 
d="M172 796h269v-46h-269v46zM63 0h-53l281 700h31l280 -700h-53l-69 171h-349zM150 220h312l-156 394z" />
    <glyph glyph-name="Aogonek" unicode="&#x104;" horiz-adv-x="612" 
d="M645 -79l27 -24c-48 -56 -126 -55 -153 9c-9 20 -8 56 28 94h2l-69 171h-349l-68 -171h-53l281 700h31l280 -700c-1 0 -67 -41 -50 -80c16 -37 60 -36 93 1zM150 220h312l-156 394z" />
    <glyph glyph-name="Aring" unicode="&#xc5;" horiz-adv-x="612" 
d="M307 780c-51 0 -91 40 -91 91c0 50 40 90 91 90c50 0 90 -40 90 -90c0 -51 -40 -91 -90 -91zM307 824c25 0 45 21 45 47c0 25 -20 46 -45 46c-28 0 -47 -21 -47 -46c0 -26 19 -47 47 -47zM63 0h-53l281 700h31l280 -700h-53l-69 171h-349zM150 220h312l-156 394z" />
    <glyph glyph-name="Atilde" unicode="&#xc3;" horiz-adv-x="612" 
d="M138 770c0 65 42 109 100 109c73 0 93 -61 148 -61c32 0 40 34 40 61h46c0 -62 -34 -107 -86 -107c-76 0 -84 61 -148 61c-38 0 -54 -31 -54 -63h-46zM63 0h-53l281 700h31l280 -700h-53l-69 171h-349zM150 220h312l-156 394z" />
    <glyph glyph-name="AE" unicode="&#xc6;" horiz-adv-x="911" 
d="M50 0l281 700h530v-49h-426v-276h319v-50h-319v-276h426v-49h-475v171h-215l-68 -171h-53zM190 220h196v430l-25 1z" />
    <glyph glyph-name="B" unicode="B" 
d="M50 0v700h273c179 0 255 -229 111 -338c189 -78 134 -362 -70 -362h-314zM99 374h224c180 0 180 277 0 277h-224v-277zM99 49h265c180 0 183 277 0 277h-265v-277z" />
    <glyph glyph-name="C" unicode="C" 
d="M237 0c-103 0 -187 84 -187 187v326c0 103 84 187 187 187h126c103 0 187 -84 187 -187h-49c0 76 -62 138 -138 138h-126c-76 0 -138 -62 -138 -138v-326c0 -76 62 -138 138 -138h126c76 0 138 62 138 138h49c0 -103 -84 -187 -187 -187h-126z" />
    <glyph glyph-name="Cacute" unicode="&#x106;" 
d="M312 757h-35l52 156h54zM237 0c-103 0 -187 84 -187 187v326c0 103 84 187 187 187h126c103 0 187 -84 187 -187h-49c0 76 -62 138 -138 138h-126c-76 0 -138 -62 -138 -138v-326c0 -76 62 -138 138 -138h126c76 0 138 62 138 138h49c0 -103 -84 -187 -187 -187h-126z
" />
    <glyph glyph-name="Ccaron" unicode="&#x10c;" 
d="M172 823l27 39l102 -76l101 76l27 -39l-109 -73h-39zM237 0c-103 0 -187 84 -187 187v326c0 103 84 187 187 187h126c103 0 187 -84 187 -187h-49c0 76 -62 138 -138 138h-126c-76 0 -138 -62 -138 -138v-326c0 -76 62 -138 138 -138h126c76 0 138 62 138 138h49
c0 -103 -84 -187 -187 -187h-126z" />
    <glyph glyph-name="Ccedilla" unicode="&#xc7;" 
d="M237 0c-103 0 -187 84 -187 187v326c0 103 84 187 187 187h126c103 0 187 -84 187 -187h-49c0 76 -62 138 -138 138h-126c-76 0 -138 -62 -138 -138v-326c0 -76 62 -138 138 -138h126c76 0 138 62 138 138h49c0 -103 -84 -187 -187 -187h-126zM294 -44h35l-52 -156h-54z
" />
    <glyph glyph-name="Cdotaccent" unicode="&#x10a;" 
d="M300 750c-27 0 -48 17 -48 43c0 27 21 43 48 43c26 0 48 -16 48 -43c0 -26 -22 -43 -48 -43zM237 0c-103 0 -187 84 -187 187v326c0 103 84 187 187 187h126c103 0 187 -84 187 -187h-49c0 76 -62 138 -138 138h-126c-76 0 -138 -62 -138 -138v-326
c0 -76 62 -138 138 -138h126c76 0 138 62 138 138h49c0 -103 -84 -187 -187 -187h-126z" />
    <glyph glyph-name="D" unicode="D" 
d="M50 0v700h313c102 0 186 -83 187 -185v-330c-1 -102 -85 -185 -187 -185h-313zM99 49h264c75 0 138 62 138 138v326c0 76 -63 138 -138 138h-264v-602z" />
    <glyph glyph-name="Eth" unicode="&#xd0;" horiz-adv-x="729" 
d="M492 700c102 0 186 -83 187 -185v-330c-1 -102 -85 -185 -187 -185h-313v327h-129v46h129v327h313zM630 187v326c0 76 -63 138 -138 138h-264v-278h127v-46h-127v-278h264c75 0 138 62 138 138z" />
    <glyph glyph-name="Dcaron" unicode="&#x10e;" 
d="M172 823l27 39l102 -76l101 76l27 -39l-109 -73h-39zM50 0v700h313c102 0 186 -83 187 -185v-330c-1 -102 -85 -185 -187 -185h-313zM99 49h264c75 0 138 62 138 138v326c0 76 -63 138 -138 138h-264v-602z" />
    <glyph glyph-name="Dcroat" unicode="&#x110;" horiz-adv-x="729" 
d="M492 700c102 0 186 -83 187 -185v-330c-1 -102 -85 -185 -187 -185h-313v327h-129v46h129v327h313zM630 187v326c0 76 -63 138 -138 138h-264v-278h127v-46h-127v-278h264c75 0 138 62 138 138z" />
    <glyph glyph-name="E" unicode="E" horiz-adv-x="575" 
d="M50 0v700h475v-49h-426v-276h319v-50h-319v-276h426v-49h-475z" />
    <glyph glyph-name="Eacute" unicode="&#xc9;" horiz-adv-x="575" 
d="M312 757h-35l52 156h54zM50 0v700h475v-49h-426v-276h319v-50h-319v-276h426v-49h-475z" />
    <glyph glyph-name="Ecaron" unicode="&#x11a;" horiz-adv-x="575" 
d="M159 823l27 39l102 -76l101 76l27 -39l-109 -73h-39zM50 0v700h475v-49h-426v-276h319v-50h-319v-276h426v-49h-475z" />
    <glyph glyph-name="Ecircumflex" unicode="&#xca;" horiz-adv-x="575" 
d="M159 797l109 73h39l109 -73l-27 -39l-101 74l-102 -74zM50 0v700h475v-49h-426v-276h319v-50h-319v-276h426v-49h-475z" />
    <glyph glyph-name="Edieresis" unicode="&#xcb;" horiz-adv-x="575" 
d="M202 750c-27 0 -48 17 -48 43c0 27 21 43 48 43c26 0 48 -16 48 -43c0 -26 -22 -43 -48 -43zM372 750c-27 0 -48 17 -48 43c0 27 21 43 48 43c26 0 48 -16 48 -43c0 -26 -22 -43 -48 -43zM50 0v700h475v-49h-426v-276h319v-50h-319v-276h426v-49h-475z" />
    <glyph glyph-name="Edotaccent" unicode="&#x116;" horiz-adv-x="575" 
d="M287 750c-27 0 -48 17 -48 43c0 27 21 43 48 43c26 0 48 -16 48 -43c0 -26 -22 -43 -48 -43zM50 0v700h475v-49h-426v-276h319v-50h-319v-276h426v-49h-475z" />
    <glyph glyph-name="Egrave" unicode="&#xc8;" horiz-adv-x="575" 
d="M308 757l-71 156h54l52 -156h-35zM50 0v700h475v-49h-426v-276h319v-50h-319v-276h426v-49h-475z" />
    <glyph glyph-name="Emacron" unicode="&#x112;" horiz-adv-x="575" 
d="M153 796h269v-46h-269v46zM50 0v700h475v-49h-426v-276h319v-50h-319v-276h426v-49h-475z" />
    <glyph glyph-name="Eogonek" unicode="&#x118;" horiz-adv-x="575" 
d="M50 0v700h475v-49h-426v-276h319v-50h-319v-276h426v-49h-475zM480 -44l71 -156h-54l-52 156h35z" />
    <glyph glyph-name="F" unicode="F" horiz-adv-x="575" 
d="M50 0v700h475v-49h-426v-276h319v-50h-319v-325h-49z" />
    <glyph glyph-name="G" unicode="G" 
d="M237 0c-103 0 -187 84 -187 187v326c0 103 84 187 187 187h126c103 0 187 -64 187 -167h-49c0 76 -62 118 -138 118h-126c-76 0 -138 -62 -138 -138v-326c0 -76 62 -138 138 -138h126c76 0 138 62 138 138v98h-182v50h231v-148c0 -103 -84 -187 -187 -187h-126z" />
    <glyph glyph-name="Gbreve" unicode="&#x11e;" 
d="M300 750c-69 0 -124 55 -124 124h48c0 -42 34 -76 76 -76c41 0 76 34 76 76h48c0 -69 -56 -124 -124 -124zM237 0c-103 0 -187 84 -187 187v326c0 103 84 187 187 187h126c103 0 187 -64 187 -167h-49c0 76 -62 118 -138 118h-126c-76 0 -138 -62 -138 -138v-326
c0 -76 62 -138 138 -138h126c76 0 138 62 138 138v98h-182v50h231v-148c0 -103 -84 -187 -187 -187h-126z" />
    <glyph glyph-name="Gcommaaccent" unicode="&#x122;" 
d="M237 0c-103 0 -187 84 -187 187v326c0 103 84 187 187 187h126c103 0 187 -64 187 -167h-49c0 76 -62 118 -138 118h-126c-76 0 -138 -62 -138 -138v-326c0 -76 62 -138 138 -138h126c76 0 138 62 138 138v98h-182v50h231v-148c0 -103 -84 -187 -187 -187h-126zM357 -193
c0 -59 -44 -104 -113 -104v48c42 0 65 24 65 56c0 31 -24 56 -66 56v48c69 0 114 -46 114 -104z" />
    <glyph glyph-name="Gdotaccent" unicode="&#x120;" 
d="M300 750c-27 0 -48 17 -48 43c0 27 21 43 48 43c26 0 48 -16 48 -43c0 -26 -22 -43 -48 -43zM237 0c-103 0 -187 84 -187 187v326c0 103 84 187 187 187h126c103 0 187 -64 187 -167h-49c0 76 -62 118 -138 118h-126c-76 0 -138 -62 -138 -138v-326
c0 -76 62 -138 138 -138h126c76 0 138 62 138 138v98h-182v50h231v-148c0 -103 -84 -187 -187 -187h-126z" />
    <glyph glyph-name="H" unicode="H" 
d="M50 0v700h49v-325h402v325h49v-700h-49v325h-402v-325h-49z" />
    <glyph glyph-name="Hbar" unicode="&#x126;" 
d="M628 557v-46h-78v-511h-49v325h-402v-325h-49v511h-81v46h81v143h49v-143h402v143h49v-143h78zM501 375v136h-402v-136h402z" />
    <glyph glyph-name="I" unicode="I" horiz-adv-x="198" 
d="M75 0v700h48v-700h-48z" />
    <glyph glyph-name="Iacute" unicode="&#xcd;" horiz-adv-x="148" 
d="M120 757h-35l52 156h54zM75 0v700h48v-700h-48z" />
    <glyph glyph-name="Icircumflex" unicode="&#xce;" horiz-adv-x="207" 
d="M-25 797l109 73h39l109 -73l-27 -39l-101 74l-102 -74zM75 0v700h48v-700h-48z" />
    <glyph glyph-name="Idieresis" unicode="&#xcf;" horiz-adv-x="166" 
d="M11 750c-27 0 -48 17 -48 43c0 27 21 43 48 43c26 0 48 -16 48 -43c0 -26 -22 -43 -48 -43zM181 750c-27 0 -48 17 -48 43c0 27 21 43 48 43c26 0 48 -16 48 -43c0 -26 -22 -43 -48 -43zM75 0v700h48v-700h-48z" />
    <glyph glyph-name="Idotaccent" unicode="&#x130;" horiz-adv-x="196" 
d="M98 750c-27 0 -48 17 -48 43c0 27 21 43 48 43c26 0 48 -16 48 -43c0 -26 -22 -43 -48 -43zM75 0v700h48v-700h-48z" />
    <glyph glyph-name="Igrave" unicode="&#xcc;" horiz-adv-x="206" 
d="M77 757l-71 156h54l52 -156h-35zM75 0v700h48v-700h-48z" />
    <glyph glyph-name="Imacron" unicode="&#x12a;" horiz-adv-x="193" 
d="M-38 796h269v-46h-269v46zM75 0v700h48v-700h-48z" />
    <glyph glyph-name="Iogonek" unicode="&#x12e;" horiz-adv-x="148" 
d="M50 0v700h48v-700h-48zM82 -28l45 -98h-34l-33 98h22z" />
    <glyph glyph-name="J" unicode="J" 
d="M237 0c-103 0 -187 84 -187 187h49c0 -76 62 -138 138 -138h126c76 0 138 62 138 138v513h49v-513c0 -103 -84 -187 -187 -187h-126z" />
    <glyph glyph-name="K" unicode="K" horiz-adv-x="639" 
d="M526 0l-307 372l-120 -112v-260h-49v700h49v-376l414 376h67l-324 -295l333 -405h-63z" />
    <glyph glyph-name="Kcommaaccent" unicode="&#x136;" horiz-adv-x="639" 
d="M526 0l-307 372l-120 -112v-260h-49v700h49v-376l414 376h67l-324 -295l333 -405h-63zM357 -193c0 -59 -44 -104 -113 -104v48c42 0 65 24 65 56c0 31 -24 56 -66 56v48c69 0 114 -46 114 -104z" />
    <glyph glyph-name="L" unicode="L" horiz-adv-x="536" 
d="M50 0v700h49v-651h387v-49h-436z" />
    <glyph glyph-name="Lacute" unicode="&#x139;" horiz-adv-x="476" 
d="M93 757h-35l52 156h54zM50 0v700h49v-651h387v-49h-436z" />
    <glyph glyph-name="Lcaron" unicode="&#x13d;" horiz-adv-x="476" 
d="M380 608c0 -59 -44 -104 -113 -104v48c42 0 65 24 65 56c0 31 -24 56 -66 56v48c69 0 114 -46 114 -104zM50 0v700h49v-651h387v-49h-436z" />
    <glyph glyph-name="Lcommaaccent" unicode="&#x13b;" horiz-adv-x="476" 
d="M50 0v700h49v-651h387v-49h-436zM357 -193c0 -59 -44 -104 -113 -104v48c42 0 65 24 65 56c0 31 -24 56 -66 56v48c69 0 114 -46 114 -104z" />
    <glyph glyph-name="Lslash" unicode="&#x141;" horiz-adv-x="576" 
d="M99 49h387v-49h-436v309l-65 -80h-46l111 137v334h49v-273l59 73h46l-105 -130v-321z" />
    <glyph glyph-name="M" unicode="M" horiz-adv-x="700" 
d="M50 0v700h38l262 -384l263 384h37v-700h-49v600l-230 -338h-42l-230 339v-601h-49z" />
    <glyph glyph-name="N" unicode="N" 
d="M50 0v700h38l411 -595l2 595h49v-700h-40l-411 592v-592h-49z" />
    <glyph glyph-name="Nacute" unicode="&#x143;" 
d="M282 757h-35l52 156h54zM50 0v700h38l411 -595l2 595h49v-700h-40l-411 592v-592h-49z" />
    <glyph glyph-name="Ncaron" unicode="&#x147;" 
d="M171 823l27 39l102 -76l101 76l27 -39l-109 -73h-39zM50 0v700h38l411 -595l2 595h49v-700h-40l-411 592v-592h-49z" />
    <glyph glyph-name="Ncommaaccent" unicode="&#x145;" 
d="M50 0v700h38l411 -595l2 595h49v-700h-40l-411 592v-592h-49zM357 -193c0 -59 -44 -104 -113 -104v48c42 0 65 24 65 56c0 31 -24 56 -66 56v48c69 0 114 -46 114 -104z" />
    <glyph glyph-name="Eng" unicode="&#x14a;" 
d="M501 700h49v-778c0 -103 -84 -187 -187 -187c-112 0 -193 84 -193 187h49c0 -78 61 -138 144 -138c76 0 138 62 138 138v91l-402 579v-592h-49v700h38l411 -595z" />
    <glyph glyph-name="Ntilde" unicode="&#xd1;" 
d="M133 750c0 65 42 109 100 109c73 0 93 -61 148 -61c32 0 40 34 40 61h46c0 -62 -34 -107 -86 -107c-76 0 -84 61 -148 61c-38 0 -54 -31 -54 -63h-46zM50 0v700h38l411 -595l2 595h49v-700h-40l-411 592v-592h-49z" />
    <glyph glyph-name="O" unicode="O" 
d="M237 0c-103 0 -187 84 -187 187l1 326c0 103 82 187 186 187h126c101 0 185 -82 187 -184v-330c-1 -103 -84 -186 -187 -186h-126zM237 49h126c76 0 138 62 138 138v324c0 80 -65 140 -138 140h-126c-75 0 -137 -63 -137 -138l-1 -326c0 -76 62 -138 138 -138z" />
    <glyph glyph-name="Oacute" unicode="&#xd3;" 
d="M312 757h-35l52 156h54zM237 0c-103 0 -187 84 -187 187l1 326c0 103 82 187 186 187h126c101 0 185 -82 187 -184v-330c-1 -103 -84 -186 -187 -186h-126zM237 49h126c76 0 138 62 138 138v324c0 80 -65 140 -138 140h-126c-75 0 -137 -63 -137 -138l-1 -326
c0 -76 62 -138 138 -138z" />
    <glyph glyph-name="Ocircumflex" unicode="&#xd4;" 
d="M172 797l109 73h39l109 -73l-27 -39l-101 74l-102 -74zM237 0c-103 0 -187 84 -187 187l1 326c0 103 82 187 186 187h126c101 0 185 -82 187 -184v-330c-1 -103 -84 -186 -187 -186h-126zM237 49h126c76 0 138 62 138 138v324c0 80 -65 140 -138 140h-126
c-75 0 -137 -63 -137 -138l-1 -326c0 -76 62 -138 138 -138z" />
    <glyph glyph-name="Odieresis" unicode="&#xd6;" 
d="M215 750c-27 0 -48 17 -48 43c0 27 21 43 48 43c26 0 48 -16 48 -43c0 -26 -22 -43 -48 -43zM385 750c-27 0 -48 17 -48 43c0 27 21 43 48 43c26 0 48 -16 48 -43c0 -26 -22 -43 -48 -43zM237 0c-103 0 -187 84 -187 187l1 326c0 103 82 187 186 187h126
c101 0 185 -82 187 -184v-330c-1 -103 -84 -186 -187 -186h-126zM237 49h126c76 0 138 62 138 138v324c0 80 -65 140 -138 140h-126c-75 0 -137 -63 -137 -138l-1 -326c0 -76 62 -138 138 -138z" />
    <glyph glyph-name="Ograve" unicode="&#xd2;" 
d="M308 757l-71 156h54l52 -156h-35zM237 0c-103 0 -187 84 -187 187l1 326c0 103 82 187 186 187h126c101 0 185 -82 187 -184v-330c-1 -103 -84 -186 -187 -186h-126zM237 49h126c76 0 138 62 138 138v324c0 80 -65 140 -138 140h-126c-75 0 -137 -63 -137 -138l-1 -326
c0 -76 62 -138 138 -138z" />
    <glyph glyph-name="Ohungarumlaut" unicode="&#x150;" 
d="M274 757h-35l52 156h54zM364 757h-35l52 156h54zM237 0c-103 0 -187 84 -187 187l1 326c0 103 82 187 186 187h126c101 0 185 -82 187 -184v-330c-1 -103 -84 -186 -187 -186h-126zM237 49h126c76 0 138 62 138 138v324c0 80 -65 140 -138 140h-126
c-75 0 -137 -63 -137 -138l-1 -326c0 -76 62 -138 138 -138z" />
    <glyph glyph-name="Omacron" unicode="&#x14c;" 
d="M166 809h269v-46h-269v46zM237 0c-103 0 -187 84 -187 187l1 326c0 103 82 187 186 187h126c101 0 185 -82 187 -184v-330c-1 -103 -84 -186 -187 -186h-126zM237 49h126c76 0 138 62 138 138v324c0 80 -65 140 -138 140h-126c-75 0 -137 -63 -137 -138l-1 -326
c0 -76 62 -138 138 -138z" />
    <glyph glyph-name="Oslash" unicode="&#xd8;" 
d="M624 724l-98 -121c15 -26 23 -55 24 -87v-330c-1 -103 -84 -186 -187 -186h-126c-58 0 -109 26 -144 67l-62 -77h-46l87 108c-14 27 -22 57 -22 89l1 326c0 103 82 187 186 187h126c57 0 108 -26 142 -66l73 90h46zM99 187c0 -16 3 -32 8 -46l367 454
c-26 34 -67 56 -111 56h-126c-75 0 -137 -63 -137 -138zM501 511c0 18 -3 34 -9 50l-367 -455c25 -34 66 -57 112 -57h126c76 0 138 62 138 138v324z" />
    <glyph glyph-name="Otilde" unicode="&#xd5;" 
d="M133 750c0 65 42 109 100 109c73 0 93 -61 148 -61c32 0 40 34 40 61h46c0 -62 -34 -107 -86 -107c-76 0 -84 61 -148 61c-38 0 -54 -31 -54 -63h-46zM237 0c-103 0 -187 84 -187 187l1 326c0 103 82 187 186 187h126c101 0 185 -82 187 -184v-330
c-1 -103 -84 -186 -187 -186h-126zM237 49h126c76 0 138 62 138 138v324c0 80 -65 140 -138 140h-126c-75 0 -137 -63 -137 -138l-1 -326c0 -76 62 -138 138 -138z" />
    <glyph glyph-name="OE" unicode="&#x152;" horiz-adv-x="886" 
d="M237 0c-103 0 -187 84 -187 187l1 326c0 103 82 187 186 187h599v-49h-426v-276h319v-50h-319v-276h426v-49h-599zM237 49h124v602h-124c-75 0 -137 -63 -137 -138l-1 -326c0 -76 62 -138 138 -138z" />
    <glyph glyph-name="P" unicode="P" 
d="M50 0v700h315c247 0 246 -415 0 -415h-266v-285h-49zM99 335h266c182 0 182 316 0 316h-266v-316z" />
    <glyph glyph-name="Thorn" unicode="&#xde;" 
d="M365 538c247 0 246 -375 0 -375h-266v-163h-49v700h49v-162h266zM365 213c182 0 182 276 0 276h-266v-276h266z" />
    <glyph glyph-name="Q" unicode="Q" 
d="M583 11l-35 -35l-66 66c-33 -26 -74 -42 -119 -42h-126c-103 0 -187 84 -187 187l1 326c0 103 82 187 186 187h126c101 0 185 -82 187 -184v-330c0 -40 -13 -77 -35 -107zM363 49c31 0 60 11 84 28l-72 72l35 35l70 -70c13 21 21 46 21 73v324c0 80 -65 140 -138 140
h-126c-75 0 -137 -63 -137 -138l-1 -326c0 -76 62 -138 138 -138h126z" />
    <glyph glyph-name="R" unicode="R" 
d="M50 0v700h312c248 0 251 -415 -10 -415l200 -285h-58l-198 285h-197v-285h-49zM99 335h243c206 0 202 316 20 316h-263v-316z" />
    <glyph glyph-name="Racute" unicode="&#x154;" 
d="M282 757h-35l52 156h54zM50 0v700h312c248 0 251 -415 -10 -415l200 -285h-58l-198 285h-197v-285h-49zM99 335h243c206 0 202 316 20 316h-263v-316z" />
    <glyph glyph-name="Rcaron" unicode="&#x158;" 
d="M172 823l27 39l102 -76l101 76l27 -39l-109 -73h-39zM50 0v700h312c248 0 251 -415 -10 -415l200 -285h-58l-198 285h-197v-285h-49zM99 335h243c206 0 202 316 20 316h-263v-316z" />
    <glyph glyph-name="Rcommaaccent" unicode="&#x156;" 
d="M50 0v700h312c248 0 251 -415 -10 -415l200 -285h-58l-198 285h-197v-285h-49zM99 335h243c206 0 202 316 20 316h-263v-316zM357 -193c0 -59 -44 -104 -113 -104v48c42 0 65 24 65 56c0 31 -24 56 -66 56v48c69 0 114 -46 114 -104z" />
    <glyph glyph-name="S" unicode="S" horiz-adv-x="534" 
d="M50 167h48c-10 -111 73 -118 165 -118c122 0 192 36 192 138c0 214 -398 86 -398 315c0 129 55 198 206 198c99 0 214 -22 204 -167h-49c10 107 -79 118 -155 118c-123 0 -157 -51 -157 -147c0 -185 398 -52 398 -317c0 -103 -59 -187 -241 -187c-118 0 -223 26 -213 167
z" />
    <glyph glyph-name="Sacute" unicode="&#x15a;" horiz-adv-x="534" 
d="M289 757h-35l52 156h54zM50 167h48c-10 -111 73 -118 165 -118c122 0 192 36 192 138c0 214 -398 86 -398 315c0 129 55 198 206 198c99 0 214 -22 204 -167h-49c10 107 -79 118 -155 118c-123 0 -157 -51 -157 -147c0 -185 398 -52 398 -317c0 -103 -59 -187 -241 -187
c-118 0 -223 26 -213 167z" />
    <glyph glyph-name="Scaron" unicode="&#x160;" horiz-adv-x="534" 
d="M138 823l27 39l102 -76l101 76l27 -39l-109 -73h-39zM50 167h48c-10 -111 73 -118 165 -118c122 0 192 36 192 138c0 214 -398 86 -398 315c0 129 55 198 206 198c99 0 214 -22 204 -167h-49c10 107 -79 118 -155 118c-123 0 -157 -51 -157 -147c0 -185 398 -52 398 -317
c0 -103 -59 -187 -241 -187c-118 0 -223 26 -213 167z" />
    <glyph glyph-name="Scedilla" unicode="&#x15e;" horiz-adv-x="534" 
d="M50 167h48c-10 -111 73 -118 165 -118c122 0 192 36 192 138c0 214 -398 86 -398 315c0 129 55 198 206 198c99 0 214 -22 204 -167h-49c10 107 -79 118 -155 118c-123 0 -157 -51 -157 -147c0 -185 398 -52 398 -317c0 -103 -59 -187 -241 -187c-118 0 -223 26 -213 167
zM288 -34h35l-52 -156h-54z" />
    <glyph glyph-name="Scommaaccent" unicode="&#x218;" horiz-adv-x="534" 
d="M50 167h48c-10 -111 73 -118 165 -118c122 0 192 36 192 138c0 214 -398 86 -398 315c0 129 55 198 206 198c99 0 214 -22 204 -167h-49c10 107 -79 118 -155 118c-123 0 -157 -51 -157 -147c0 -185 398 -52 398 -317c0 -103 -59 -187 -241 -187c-118 0 -223 26 -213 167
zM357 -193c0 -59 -44 -104 -113 -104v48c42 0 65 24 65 56c0 31 -24 56 -66 56v48c69 0 114 -46 114 -104z" />
    <glyph glyph-name="T" unicode="T" 
d="M275 0v651h-225v49h500v-49h-225v-651h-50z" />
    <glyph glyph-name="Tbar" unicode="&#x166;" 
d="M550 651h-225v-272h204v-46h-204v-333h-50v333h-194v46h194v272h-225v49h500v-49z" />
    <glyph glyph-name="Tcaron" unicode="&#x164;" 
d="M172 823l27 39l102 -76l101 76l27 -39l-109 -73h-39zM275 0v651h-225v49h500v-49h-225v-651h-50z" />
    <glyph glyph-name="uni0162" unicode="&#x162;" 
d="M275 0v651h-225v49h500v-49h-225v-651h-50zM281 -44h35l-52 -156h-54z" />
    <glyph glyph-name="uni021A" unicode="&#x21a;" 
d="M275 0v651h-225v49h500v-49h-225v-651h-50zM357 -193c0 -59 -44 -104 -113 -104v48c42 0 65 24 65 56c0 31 -24 56 -66 56v48c69 0 114 -46 114 -104z" />
    <glyph glyph-name="U" unicode="U" 
d="M237 0c-103 0 -187 84 -187 187l1 513h49l-1 -513c0 -76 62 -138 138 -138h126c94 0 138 62 138 138v513h49v-514c0 -102 -64 -186 -187 -186h-126z" />
    <glyph glyph-name="Uacute" unicode="&#xda;" 
d="M312 757h-35l52 156h54zM237 0c-103 0 -187 84 -187 187l1 513h49l-1 -513c0 -76 62 -138 138 -138h126c94 0 138 62 138 138v513h49v-514c0 -102 -64 -186 -187 -186h-126z" />
    <glyph glyph-name="Ucircumflex" unicode="&#xdb;" 
d="M172 797l109 73h39l109 -73l-27 -39l-101 74l-102 -74zM237 0c-103 0 -187 84 -187 187l1 513h49l-1 -513c0 -76 62 -138 138 -138h126c94 0 138 62 138 138v513h49v-514c0 -102 -64 -186 -187 -186h-126z" />
    <glyph glyph-name="Udieresis" unicode="&#xdc;" 
d="M215 750c-27 0 -48 17 -48 43c0 27 21 43 48 43c26 0 48 -16 48 -43c0 -26 -22 -43 -48 -43zM385 750c-27 0 -48 17 -48 43c0 27 21 43 48 43c26 0 48 -16 48 -43c0 -26 -22 -43 -48 -43zM237 0c-103 0 -187 84 -187 187l1 513h49l-1 -513c0 -76 62 -138 138 -138h126
c94 0 138 62 138 138v513h49v-514c0 -102 -64 -186 -187 -186h-126z" />
    <glyph glyph-name="Ugrave" unicode="&#xd9;" 
d="M308 757l-71 156h54l52 -156h-35zM237 0c-103 0 -187 84 -187 187l1 513h49l-1 -513c0 -76 62 -138 138 -138h126c94 0 138 62 138 138v513h49v-514c0 -102 -64 -186 -187 -186h-126z" />
    <glyph glyph-name="Uhungarumlaut" unicode="&#x170;" 
d="M278 757h-35l52 156h54zM368 757h-35l52 156h54zM237 0c-103 0 -187 84 -187 187l1 513h49l-1 -513c0 -76 62 -138 138 -138h126c94 0 138 62 138 138v513h49v-514c0 -102 -64 -186 -187 -186h-126z" />
    <glyph glyph-name="Umacron" unicode="&#x16a;" 
d="M165 796h269v-46h-269v46zM237 0c-103 0 -187 84 -187 187l1 513h49l-1 -513c0 -76 62 -138 138 -138h126c94 0 138 62 138 138v513h49v-514c0 -102 -64 -186 -187 -186h-126z" />
    <glyph glyph-name="Uogonek" unicode="&#x172;" 
d="M237 0c-103 0 -187 84 -187 187l1 513h49l-1 -513c0 -76 62 -138 138 -138h126c94 0 138 62 138 138v513h49v-514c0 -102 -64 -186 -187 -186h-126zM309 -44l71 -156h-54l-52 156h35z" />
    <glyph glyph-name="Uring" unicode="&#x16e;" 
d="M301 750c-51 0 -91 40 -91 91c0 50 40 90 91 90c50 0 90 -40 90 -90c0 -51 -40 -91 -90 -91zM301 794c25 0 45 21 45 47c0 25 -20 46 -45 46c-28 0 -47 -21 -47 -46c0 -26 19 -47 47 -47zM237 0c-103 0 -187 84 -187 187l1 513h49l-1 -513c0 -76 62 -138 138 -138h126
c94 0 138 62 138 138v513h49v-514c0 -102 -64 -186 -187 -186h-126z" />
    <glyph glyph-name="V" unicode="V" horiz-adv-x="542" 
d="M254 0l-244 700h53l208 -618l208 618h53l-244 -700h-34z" />
    <glyph glyph-name="W" unicode="W" horiz-adv-x="700" 
d="M50 700h49v-599l227 342h48l227 -341v598h49v-700h-34l-266 389l-265 -389h-35v700z" />
    <glyph glyph-name="Wacute" unicode="&#x1e82;" horiz-adv-x="700" 
d="M367 757h-35l52 156h54zM50 700h49v-599l227 342h48l227 -341v598h49v-700h-34l-266 389l-265 -389h-35v700z" />
    <glyph glyph-name="Wcircumflex" unicode="&#x174;" horiz-adv-x="700" 
d="M222 797l109 73h39l109 -73l-27 -39l-101 74l-102 -74zM50 700h49v-599l227 342h48l227 -341v598h49v-700h-34l-266 389l-265 -389h-35v700z" />
    <glyph glyph-name="Wdieresis" unicode="&#x1e84;" horiz-adv-x="700" 
d="M265 750c-27 0 -48 17 -48 43c0 27 21 43 48 43c26 0 48 -16 48 -43c0 -26 -22 -43 -48 -43zM435 750c-27 0 -48 17 -48 43c0 27 21 43 48 43c26 0 48 -16 48 -43c0 -26 -22 -43 -48 -43zM50 700h49v-599l227 342h48l227 -341v598h49v-700h-34l-266 389l-265 -389h-35
v700z" />
    <glyph glyph-name="Wgrave" unicode="&#x1e80;" horiz-adv-x="700" 
d="M328 757l-71 156h54l52 -156h-35zM50 700h49v-599l227 342h48l227 -341v598h49v-700h-34l-266 389l-265 -389h-35v700z" />
    <glyph glyph-name="X" unicode="X" horiz-adv-x="645" 
d="M50 0l242 350l-242 351l61 -1l212 -310l212 310h60l-240 -350l240 -350h-60l-212 310l-212 -310h-61z" />
    <glyph glyph-name="Y" unicode="Y" horiz-adv-x="646" 
d="M299 0l-1 343l-248 357h61l212 -308l212 308h61l-248 -357l1 -343h-50z" />
    <glyph glyph-name="Yacute" unicode="&#xdd;" horiz-adv-x="646" 
d="M340 757h-35l52 156h54zM299 0l-1 343l-248 357h61l212 -308l212 308h61l-248 -357l1 -343h-50z" />
    <glyph glyph-name="Ycircumflex" unicode="&#x176;" horiz-adv-x="646" 
d="M195 797l109 73h39l109 -73l-27 -39l-101 74l-102 -74zM299 0l-1 343l-248 357h61l212 -308l212 308h61l-248 -357l1 -343h-50z" />
    <glyph glyph-name="Ydieresis" unicode="&#x178;" horiz-adv-x="646" 
d="M238 750c-27 0 -48 17 -48 43c0 27 21 43 48 43c26 0 48 -16 48 -43c0 -26 -22 -43 -48 -43zM408 750c-27 0 -48 17 -48 43c0 27 21 43 48 43c26 0 48 -16 48 -43c0 -26 -22 -43 -48 -43zM299 0l-1 343l-248 357h61l212 -308l212 308h61l-248 -357l1 -343h-50z" />
    <glyph glyph-name="Ygrave" unicode="&#x1ef2;" horiz-adv-x="646" 
d="M308 757l-71 156h54l52 -156h-35zM299 0l-1 343l-248 357h61l212 -308l212 308h61l-248 -357l1 -343h-50z" />
    <glyph glyph-name="Z" unicode="Z" horiz-adv-x="591" 
d="M50 0v40l423 611h-423v49h491v-40l-423 -611h423v-49h-491z" />
    <glyph glyph-name="Zacute" unicode="&#x179;" horiz-adv-x="591" 
d="M312 757h-35l52 156h54zM50 0v40l423 611h-423v49h491v-40l-423 -611h423v-49h-491z" />
    <glyph glyph-name="Zcaron" unicode="&#x17d;" horiz-adv-x="591" 
d="M167 823l27 39l102 -76l101 76l27 -39l-109 -73h-39zM50 0v40l423 611h-423v49h491v-40l-423 -611h423v-49h-491z" />
    <glyph glyph-name="Zdotaccent" unicode="&#x17b;" horiz-adv-x="591" 
d="M295 750c-27 0 -48 17 -48 43c0 27 21 43 48 43c26 0 48 -16 48 -43c0 -26 -22 -43 -48 -43zM50 0v40l423 611h-423v49h491v-40l-423 -611h423v-49h-491z" />
    <glyph glyph-name="S.001" horiz-adv-x="534" 
d="M50 167h48c-10 -111 73 -118 165 -118c122 0 192 36 192 138c0 214 -398 86 -398 315c0 129 55 198 206 198c99 0 214 -22 204 -167h-49c10 107 -79 118 -155 118c-123 0 -157 -51 -157 -147c0 -185 398 -52 398 -317c0 -103 -59 -187 -241 -187c-118 0 -223 26 -213 167
z" />
    <glyph glyph-name="a" unicode="a" horiz-adv-x="612" 
d="M63 0h-53l281 700h31l280 -700h-53l-69 171h-349zM150 220h312l-156 394z" />
    <glyph glyph-name="aacute" unicode="&#xe1;" horiz-adv-x="612" 
d="M325 750h-35l52 156h54zM63 0h-53l281 700h31l280 -700h-53l-69 171h-349zM150 220h312l-156 394z" />
    <glyph glyph-name="abreve" unicode="&#x103;" horiz-adv-x="612" 
d="M306 750c-69 0 -124 55 -124 124h48c0 -42 34 -76 76 -76c41 0 76 34 76 76h48c0 -69 -56 -124 -124 -124zM63 0h-53l281 700h31l280 -700h-53l-69 171h-349zM150 220h312l-156 394z" />
    <glyph glyph-name="acircumflex" unicode="&#xe2;" horiz-adv-x="612" 
d="M178 797l109 73h39l109 -73l-27 -39l-101 74l-102 -74zM63 0h-53l281 700h31l280 -700h-53l-69 171h-349zM150 220h312l-156 394z" />
    <glyph glyph-name="adieresis" unicode="&#xe4;" horiz-adv-x="612" 
d="M222 750c-27 0 -48 17 -48 43c0 27 21 43 48 43c26 0 48 -16 48 -43c0 -26 -22 -43 -48 -43zM392 750c-27 0 -48 17 -48 43c0 27 21 43 48 43c26 0 48 -16 48 -43c0 -26 -22 -43 -48 -43zM63 0h-53l281 700h31l280 -700h-53l-69 171h-349zM150 220h312l-156 394z" />
    <glyph glyph-name="agrave" unicode="&#xe0;" horiz-adv-x="612" 
d="M288 757l-71 156h54l52 -156h-35zM63 0h-53l281 700h31l280 -700h-53l-69 171h-349zM150 220h312l-156 394z" />
    <glyph glyph-name="amacron" unicode="&#x101;" horiz-adv-x="612" 
d="M165 796h269v-46h-269v46zM63 0h-53l281 700h31l280 -700h-53l-69 171h-349zM150 220h312l-156 394z" />
    <glyph glyph-name="aogonek" unicode="&#x105;" horiz-adv-x="612" 
d="M63 0h-53l281 700h31l280 -700h-53l-69 171h-349zM150 220h312l-156 394zM332 -44l71 -156h-54l-52 156h35z" />
    <glyph glyph-name="aring" unicode="&#xe5;" horiz-adv-x="612" 
d="M307 780c-51 0 -91 40 -91 91c0 50 40 90 91 90c50 0 90 -40 90 -90c0 -51 -40 -91 -90 -91zM307 824c25 0 45 21 45 47c0 25 -20 46 -45 46c-28 0 -47 -21 -47 -46c0 -26 19 -47 47 -47zM63 0h-53l281 700h31l280 -700h-53l-69 171h-349zM150 220h312l-156 394z" />
    <glyph glyph-name="atilde" unicode="&#xe3;" horiz-adv-x="612" 
d="M138 770c0 65 42 109 100 109c73 0 93 -61 148 -61c32 0 40 34 40 61h46c0 -62 -34 -107 -86 -107c-76 0 -84 61 -148 61c-38 0 -54 -31 -54 -63h-46zM63 0h-53l281 700h31l280 -700h-53l-69 171h-349zM150 220h312l-156 394z" />
    <glyph glyph-name="ae" unicode="&#xe6;" horiz-adv-x="911" 
d="M50 0l281 700h530v-49h-426v-276h319v-50h-319v-276h426v-49h-475v171h-215l-68 -171h-53zM190 220h196v430l-25 1z" />
    <glyph glyph-name="b" unicode="b" 
d="M50 0v700h273c179 0 255 -229 111 -338c189 -78 134 -362 -70 -362h-314zM99 374h224c180 0 180 277 0 277h-224v-277zM99 49h265c180 0 183 277 0 277h-265v-277z" />
    <glyph glyph-name="c" unicode="c" 
d="M237 0c-103 0 -187 84 -187 187v326c0 103 84 187 187 187h126c103 0 187 -84 187 -187h-49c0 76 -62 138 -138 138h-126c-76 0 -138 -62 -138 -138v-326c0 -76 62 -138 138 -138h126c76 0 138 62 138 138h49c0 -103 -84 -187 -187 -187h-126z" />
    <glyph glyph-name="cacute" unicode="&#x107;" 
d="M312 757h-35l52 156h54zM237 0c-103 0 -187 84 -187 187v326c0 103 84 187 187 187h126c103 0 187 -84 187 -187h-49c0 76 -62 138 -138 138h-126c-76 0 -138 -62 -138 -138v-326c0 -76 62 -138 138 -138h126c76 0 138 62 138 138h49c0 -103 -84 -187 -187 -187h-126z
" />
    <glyph glyph-name="ccaron" unicode="&#x10d;" 
d="M171 823l27 39l102 -76l101 76l27 -39l-109 -73h-39zM237 0c-103 0 -187 84 -187 187v326c0 103 84 187 187 187h126c103 0 187 -84 187 -187h-49c0 76 -62 138 -138 138h-126c-76 0 -138 -62 -138 -138v-326c0 -76 62 -138 138 -138h126c76 0 138 62 138 138h49
c0 -103 -84 -187 -187 -187h-126z" />
    <glyph glyph-name="ccedilla" unicode="&#xe7;" 
d="M237 0c-103 0 -187 84 -187 187v326c0 103 84 187 187 187h126c103 0 187 -84 187 -187h-49c0 76 -62 138 -138 138h-126c-76 0 -138 -62 -138 -138v-326c0 -76 62 -138 138 -138h126c76 0 138 62 138 138h49c0 -103 -84 -187 -187 -187h-126zM294 -44h35l-52 -156h-54z
" />
    <glyph glyph-name="cdotaccent" unicode="&#x10b;" 
d="M300 750c-27 0 -48 17 -48 43c0 27 21 43 48 43c26 0 48 -16 48 -43c0 -26 -22 -43 -48 -43zM237 0c-103 0 -187 84 -187 187v326c0 103 84 187 187 187h126c103 0 187 -84 187 -187h-49c0 76 -62 138 -138 138h-126c-76 0 -138 -62 -138 -138v-326
c0 -76 62 -138 138 -138h126c76 0 138 62 138 138h49c0 -103 -84 -187 -187 -187h-126z" />
    <glyph glyph-name="d" unicode="d" 
d="M50 0v700h313c102 0 186 -83 187 -185v-330c-1 -102 -85 -185 -187 -185h-313zM99 49h264c75 0 138 62 138 138v326c0 76 -63 138 -138 138h-264v-602z" />
    <glyph glyph-name="eth" unicode="&#xf0;" horiz-adv-x="729" 
d="M492 700c102 0 186 -83 187 -185v-330c-1 -102 -85 -185 -187 -185h-313v327h-129v46h129v327h313zM630 187v326c0 76 -63 138 -138 138h-264v-278h127v-46h-127v-278h264c75 0 138 62 138 138z" />
    <glyph glyph-name="dcaron" unicode="&#x10f;" 
d="M172 823l27 39l102 -76l101 76l27 -39l-109 -73h-39zM50 0v700h313c102 0 186 -83 187 -185v-330c-1 -102 -85 -185 -187 -185h-313zM99 49h264c75 0 138 62 138 138v326c0 76 -63 138 -138 138h-264v-602z" />
    <glyph glyph-name="dcroat" unicode="&#x111;" 
d="M363 700c102 0 186 -83 187 -185v-330c-1 -102 -85 -185 -187 -185h-313v327h-171v46h171v327h313zM501 187v326c0 76 -63 138 -138 138h-264v-278h228v-46h-228v-278h264c75 0 138 62 138 138z" />
    <glyph glyph-name="e" unicode="e" horiz-adv-x="575" 
d="M50 0v700h475v-49h-426v-276h319v-50h-319v-276h426v-49h-475z" />
    <glyph glyph-name="eacute" unicode="&#xe9;" horiz-adv-x="575" 
d="M312 757h-35l52 156h54zM50 0v700h475v-49h-426v-276h319v-50h-319v-276h426v-49h-475z" />
    <glyph glyph-name="ecaron" unicode="&#x11b;" 
d="M171 823l27 39l102 -76l101 76l27 -39l-109 -73h-39zM50 0v700h475v-49h-426v-276h319v-50h-319v-276h426v-49h-475z" />
    <glyph glyph-name="ecircumflex" unicode="&#xea;" horiz-adv-x="575" 
d="M159 797l109 73h39l109 -73l-27 -39l-101 74l-102 -74zM50 0v700h475v-49h-426v-276h319v-50h-319v-276h426v-49h-475z" />
    <glyph glyph-name="edieresis" unicode="&#xeb;" horiz-adv-x="575" 
d="M202 750c-27 0 -48 17 -48 43c0 27 21 43 48 43c26 0 48 -16 48 -43c0 -26 -22 -43 -48 -43zM372 750c-27 0 -48 17 -48 43c0 27 21 43 48 43c26 0 48 -16 48 -43c0 -26 -22 -43 -48 -43zM50 0v700h475v-49h-426v-276h319v-50h-319v-276h426v-49h-475z" />
    <glyph glyph-name="edotaccent" unicode="&#x117;" 
d="M300 750c-27 0 -48 17 -48 43c0 27 21 43 48 43c26 0 48 -16 48 -43c0 -26 -22 -43 -48 -43zM50 0v700h475v-49h-426v-276h319v-50h-319v-276h426v-49h-475z" />
    <glyph glyph-name="egrave" unicode="&#xe8;" horiz-adv-x="575" 
d="M308 757l-71 156h54l52 -156h-35zM50 0v700h475v-49h-426v-276h319v-50h-319v-276h426v-49h-475z" />
    <glyph glyph-name="emacron" unicode="&#x113;" 
d="M165 796h269v-46h-269v46zM50 0v700h475v-49h-426v-276h319v-50h-319v-276h426v-49h-475z" />
    <glyph glyph-name="eogonek" unicode="&#x119;" 
d="M50 0v700h475v-49h-426v-276h319v-50h-319v-276h426v-49h-475zM332 -44l71 -156h-54l-52 156h35z" />
    <glyph glyph-name="f" unicode="f" horiz-adv-x="575" 
d="M50 0v700h475v-49h-426v-276h319v-50h-319v-325h-49z" />
    <glyph glyph-name="g" unicode="g" 
d="M237 0c-103 0 -187 84 -187 187v326c0 103 84 187 187 187h126c103 0 187 -64 187 -167h-49c0 76 -62 118 -138 118h-126c-76 0 -138 -62 -138 -138v-326c0 -76 62 -138 138 -138h126c76 0 138 62 138 138v98h-182v50h231v-148c0 -103 -84 -187 -187 -187h-126z" />
    <glyph glyph-name="gbreve" unicode="&#x11f;" 
d="M300 750c-69 0 -124 55 -124 124h48c0 -42 34 -76 76 -76c41 0 76 34 76 76h48c0 -69 -56 -124 -124 -124zM237 0c-103 0 -187 84 -187 187v326c0 103 84 187 187 187h126c103 0 187 -64 187 -167h-49c0 76 -62 118 -138 118h-126c-76 0 -138 -62 -138 -138v-326
c0 -76 62 -138 138 -138h126c76 0 138 62 138 138v98h-182v50h231v-148c0 -103 -84 -187 -187 -187h-126z" />
    <glyph glyph-name="gcommaaccent" unicode="&#x123;" 
d="M300 750c-27 0 -48 17 -48 43c-1 29 3 53 15 71c20 29 47 35 74 35v-31c-31 0 -42 -15 -45 -32h4c26 0 48 -16 48 -43c0 -26 -22 -43 -48 -43zM319 285v50h231v-148c0 -103 -84 -187 -187 -187h-126c-103 0 -187 84 -187 187v326c0 103 84 187 187 187h126
c103 0 187 -64 187 -167h-49c0 76 -62 118 -138 118h-126c-76 0 -138 -62 -138 -138v-326c0 -76 62 -138 138 -138h126c76 0 138 62 138 138v98h-182z" />
    <glyph glyph-name="gdotaccent" unicode="&#x121;" 
d="M300 750c-27 0 -48 17 -48 43c0 27 21 43 48 43c26 0 48 -16 48 -43c0 -26 -22 -43 -48 -43zM237 0c-103 0 -187 84 -187 187v326c0 103 84 187 187 187h126c103 0 187 -64 187 -167h-49c0 76 -62 118 -138 118h-126c-76 0 -138 -62 -138 -138v-326
c0 -76 62 -138 138 -138h126c76 0 138 62 138 138v98h-182v50h231v-148c0 -103 -84 -187 -187 -187h-126z" />
    <glyph glyph-name="h" unicode="h" 
d="M50 0v700h49v-325h402v325h49v-700h-49v325h-402v-325h-49z" />
    <glyph glyph-name="hbar" unicode="&#x127;" 
d="M628 557v-46h-78v-511h-49v325h-402v-325h-49v511h-81v46h81v143h49v-143h402v143h49v-143h78zM501 375v136h-402v-136h402z" />
    <glyph glyph-name="i" unicode="i" horiz-adv-x="198" 
d="M75 0v700h48v-700h-48z" />
    <glyph glyph-name="dotlessi" unicode="&#x131;" horiz-adv-x="198" 
d="M75 0v700h48v-700h-48z" />
    <glyph glyph-name="iacute" unicode="&#xed;" horiz-adv-x="148" 
d="M120 757h-35l52 156h54zM75 0v700h48v-700h-48z" />
    <glyph glyph-name="icircumflex" unicode="&#xee;" horiz-adv-x="148" 
d="M-25 797l109 73h39l109 -73l-27 -39l-101 74l-102 -74zM75 0v700h48v-700h-48z" />
    <glyph glyph-name="idieresis" unicode="&#xef;" horiz-adv-x="166" 
d="M11 750c-27 0 -48 17 -48 43c0 27 21 43 48 43c26 0 48 -16 48 -43c0 -26 -22 -43 -48 -43zM181 750c-27 0 -48 17 -48 43c0 27 21 43 48 43c26 0 48 -16 48 -43c0 -26 -22 -43 -48 -43zM75 0v700h48v-700h-48z" />
    <glyph glyph-name="i.loclTRK" horiz-adv-x="197" 
d="M99 750c-27 0 -48 17 -48 43c0 27 21 43 48 43c26 0 48 -16 48 -43c0 -26 -22 -43 -48 -43zM75 0v700h48v-700h-48z" />
    <glyph glyph-name="igrave" unicode="&#xec;" horiz-adv-x="206" 
d="M77 757l-71 156h54l52 -156h-35zM75 0v700h48v-700h-48z" />
    <glyph glyph-name="imacron" unicode="&#x12b;" horiz-adv-x="193" 
d="M-38 796h269v-46h-269v46zM75 0v700h48v-700h-48z" />
    <glyph glyph-name="iogonek" unicode="&#x12f;" horiz-adv-x="148" 
d="M50 0v700h48v-700h-48zM82 -28l45 -98h-34l-33 98h22z" />
    <glyph glyph-name="j" unicode="j" 
d="M237 0c-103 0 -187 84 -187 187h49c0 -76 62 -138 138 -138h126c76 0 138 62 138 138v513h49v-513c0 -103 -84 -187 -187 -187h-126z" />
    <glyph glyph-name="k" unicode="k" horiz-adv-x="639" 
d="M526 0l-307 372l-120 -112v-260h-49v700h49v-376l414 376h67l-324 -295l333 -405h-63z" />
    <glyph glyph-name="kcommaaccent" unicode="&#x137;" 
d="M526 0l-307 372l-120 -112v-260h-49v700h49v-376l414 376h67l-324 -295l333 -405h-63zM357 -193c0 -59 -44 -104 -113 -104v48c42 0 65 24 65 56c0 31 -24 56 -66 56v48c69 0 114 -46 114 -104z" />
    <glyph glyph-name="l" unicode="l" horiz-adv-x="536" 
d="M50 0v700h49v-651h387v-49h-436z" />
    <glyph glyph-name="lacute" unicode="&#x13a;" horiz-adv-x="476" 
d="M93 757h-35l52 156h54zM50 0v700h49v-651h387v-49h-436z" />
    <glyph glyph-name="lcaron" unicode="&#x13e;" horiz-adv-x="476" 
d="M380 608c0 -59 -44 -104 -113 -104v48c42 0 65 24 65 56c0 31 -24 56 -66 56v48c69 0 114 -46 114 -104zM50 0v700h49v-651h387v-49h-436z" />
    <glyph glyph-name="lcommaaccent" unicode="&#x13c;" 
d="M50 0v700h49v-651h387v-49h-436zM357 -193c0 -59 -44 -104 -113 -104v48c42 0 65 24 65 56c0 31 -24 56 -66 56v48c69 0 114 -46 114 -104z" />
    <glyph glyph-name="lslash" unicode="&#x142;" horiz-adv-x="536" 
d="M99 49h387v-49h-436v334l-147 -103l-26 38l173 121v310h49v-276l145 102l26 -38l-171 -120v-319z" />
    <glyph glyph-name="m" unicode="m" horiz-adv-x="700" 
d="M50 0v700h38l262 -384l263 384h37v-700h-49v600l-230 -338h-42l-230 339v-601h-49z" />
    <glyph glyph-name="n" unicode="n" 
d="M50 0v700h38l411 -595l2 595h49v-700h-40l-411 592v-592h-49z" />
    <glyph glyph-name="nacute" unicode="&#x144;" 
d="M312 757h-35l52 156h54zM50 0v700h38l411 -595l2 595h49v-700h-40l-411 592v-592h-49z" />
    <glyph glyph-name="ncaron" unicode="&#x148;" 
d="M171 823l27 39l102 -76l101 76l27 -39l-109 -73h-39zM50 0v700h38l411 -595l2 595h49v-700h-40l-411 592v-592h-49z" />
    <glyph glyph-name="ncommaaccent" unicode="&#x146;" 
d="M50 0v700h38l411 -595l2 595h49v-700h-40l-411 592v-592h-49zM357 -193c0 -59 -44 -104 -113 -104v48c42 0 65 24 65 56c0 31 -24 56 -66 56v48c69 0 114 -46 114 -104z" />
    <glyph glyph-name="eng" unicode="&#x14b;" 
d="M501 700h49v-778c0 -103 -84 -187 -187 -187c-112 0 -193 84 -193 187h49c0 -78 61 -138 144 -138c76 0 138 62 138 138v91l-402 579v-592h-49v700h38l411 -595z" />
    <glyph glyph-name="ntilde" unicode="&#xf1;" 
d="M133 750c0 65 42 109 100 109c73 0 93 -61 148 -61c32 0 40 34 40 61h46c0 -62 -34 -107 -86 -107c-76 0 -84 61 -148 61c-38 0 -54 -31 -54 -63h-46zM50 0v700h38l411 -595l2 595h49v-700h-40l-411 592v-592h-49z" />
    <glyph glyph-name="o" unicode="o" 
d="M237 0c-103 0 -187 84 -187 187l1 326c0 103 82 187 186 187h126c101 0 185 -82 187 -184v-330c-1 -103 -84 -186 -187 -186h-126zM237 49h126c76 0 138 62 138 138v324c0 80 -65 140 -138 140h-126c-75 0 -137 -63 -137 -138l-1 -326c0 -76 62 -138 138 -138z" />
    <glyph glyph-name="oacute" unicode="&#xf3;" 
d="M312 757h-35l52 156h54zM237 0c-103 0 -187 84 -187 187l1 326c0 103 82 187 186 187h126c101 0 185 -82 187 -184v-330c-1 -103 -84 -186 -187 -186h-126zM237 49h126c76 0 138 62 138 138v324c0 80 -65 140 -138 140h-126c-75 0 -137 -63 -137 -138l-1 -326
c0 -76 62 -138 138 -138z" />
    <glyph glyph-name="ocircumflex" unicode="&#xf4;" 
d="M172 797l109 73h39l109 -73l-27 -39l-101 74l-102 -74zM237 0c-103 0 -187 84 -187 187l1 326c0 103 82 187 186 187h126c101 0 185 -82 187 -184v-330c-1 -103 -84 -186 -187 -186h-126zM237 49h126c76 0 138 62 138 138v324c0 80 -65 140 -138 140h-126
c-75 0 -137 -63 -137 -138l-1 -326c0 -76 62 -138 138 -138z" />
    <glyph glyph-name="odieresis" unicode="&#xf6;" 
d="M215 750c-27 0 -48 17 -48 43c0 27 21 43 48 43c26 0 48 -16 48 -43c0 -26 -22 -43 -48 -43zM385 750c-27 0 -48 17 -48 43c0 27 21 43 48 43c26 0 48 -16 48 -43c0 -26 -22 -43 -48 -43zM237 0c-103 0 -187 84 -187 187l1 326c0 103 82 187 186 187h126
c101 0 185 -82 187 -184v-330c-1 -103 -84 -186 -187 -186h-126zM237 49h126c76 0 138 62 138 138v324c0 80 -65 140 -138 140h-126c-75 0 -137 -63 -137 -138l-1 -326c0 -76 62 -138 138 -138z" />
    <glyph glyph-name="ograve" unicode="&#xf2;" 
d="M308 757l-71 156h54l52 -156h-35zM237 0c-103 0 -187 84 -187 187l1 326c0 103 82 187 186 187h126c101 0 185 -82 187 -184v-330c-1 -103 -84 -186 -187 -186h-126zM237 49h126c76 0 138 62 138 138v324c0 80 -65 140 -138 140h-126c-75 0 -137 -63 -137 -138l-1 -326
c0 -76 62 -138 138 -138z" />
    <glyph glyph-name="ohungarumlaut" unicode="&#x151;" 
d="M274 757h-35l52 156h54zM364 757h-35l52 156h54zM237 0c-103 0 -187 84 -187 187l1 326c0 103 82 187 186 187h126c101 0 185 -82 187 -184v-330c-1 -103 -84 -186 -187 -186h-126zM237 49h126c76 0 138 62 138 138v324c0 80 -65 140 -138 140h-126
c-75 0 -137 -63 -137 -138l-1 -326c0 -76 62 -138 138 -138z" />
    <glyph glyph-name="omacron" unicode="&#x14d;" 
d="M165 796h269v-46h-269v46zM237 0c-103 0 -187 84 -187 187l1 326c0 103 82 187 186 187h126c101 0 185 -82 187 -184v-330c-1 -103 -84 -186 -187 -186h-126zM237 49h126c76 0 138 62 138 138v324c0 80 -65 140 -138 140h-126c-75 0 -137 -63 -137 -138l-1 -326
c0 -76 62 -138 138 -138z" />
    <glyph glyph-name="oslash" unicode="&#xf8;" 
d="M624 724l-98 -121c15 -26 23 -55 24 -87v-330c-1 -103 -84 -186 -187 -186h-126c-58 0 -109 26 -144 67l-62 -77h-46l87 108c-14 27 -22 57 -22 89l1 326c0 103 82 187 186 187h126c57 0 108 -26 142 -66l73 90h46zM99 187c0 -16 3 -32 8 -46l367 454
c-26 34 -67 56 -111 56h-126c-75 0 -137 -63 -137 -138zM501 511c0 18 -3 34 -9 50l-367 -455c25 -34 66 -57 112 -57h126c76 0 138 62 138 138v324z" />
    <glyph glyph-name="otilde" unicode="&#xf5;" 
d="M133 750c0 65 42 109 100 109c73 0 93 -61 148 -61c32 0 40 34 40 61h46c0 -62 -34 -107 -86 -107c-76 0 -84 61 -148 61c-38 0 -54 -31 -54 -63h-46zM237 0c-103 0 -187 84 -187 187l1 326c0 103 82 187 186 187h126c101 0 185 -82 187 -184v-330
c-1 -103 -84 -186 -187 -186h-126zM237 49h126c76 0 138 62 138 138v324c0 80 -65 140 -138 140h-126c-75 0 -137 -63 -137 -138l-1 -326c0 -76 62 -138 138 -138z" />
    <glyph glyph-name="oe" unicode="&#x153;" horiz-adv-x="886" 
d="M237 0c-103 0 -187 84 -187 187l1 326c0 103 82 187 186 187h599v-49h-426v-276h319v-50h-319v-276h426v-49h-599zM237 49h124v602h-124c-75 0 -137 -63 -137 -138l-1 -326c0 -76 62 -138 138 -138z" />
    <glyph glyph-name="p" unicode="p" 
d="M50 0v700h315c247 0 246 -415 0 -415h-266v-285h-49zM99 335h266c182 0 182 316 0 316h-266v-316z" />
    <glyph glyph-name="thorn" unicode="&#xfe;" 
d="M365 538c247 0 246 -375 0 -375h-266v-163h-49v700h49v-162h266zM365 213c182 0 182 276 0 276h-266v-276h266z" />
    <glyph glyph-name="q" unicode="q" 
d="M583 11l-35 -35l-66 66c-33 -26 -74 -42 -119 -42h-126c-103 0 -187 84 -187 187l1 326c0 103 82 187 186 187h126c101 0 185 -82 187 -184v-330c0 -40 -13 -77 -35 -107zM363 49c31 0 60 11 84 28l-72 72l35 35l70 -70c13 21 21 46 21 73v324c0 80 -65 140 -138 140
h-126c-75 0 -137 -63 -137 -138l-1 -326c0 -76 62 -138 138 -138h126z" />
    <glyph glyph-name="r" unicode="r" 
d="M50 0v700h312c248 0 251 -415 -10 -415l200 -285h-58l-198 285h-197v-285h-49zM99 335h243c206 0 202 316 20 316h-263v-316z" />
    <glyph glyph-name="racute" unicode="&#x155;" 
d="M312 757h-35l52 156h54zM50 0v700h312c248 0 251 -415 -10 -415l200 -285h-58l-198 285h-197v-285h-49zM99 335h243c206 0 202 316 20 316h-263v-316z" />
    <glyph glyph-name="rcaron" unicode="&#x159;" 
d="M171 823l27 39l102 -76l101 76l27 -39l-109 -73h-39zM50 0v700h312c248 0 251 -415 -10 -415l200 -285h-58l-198 285h-197v-285h-49zM99 335h243c206 0 202 316 20 316h-263v-316z" />
    <glyph glyph-name="rcommaaccent" unicode="&#x157;" 
d="M50 0v700h312c248 0 251 -415 -10 -415l200 -285h-58l-198 285h-197v-285h-49zM99 335h243c206 0 202 316 20 316h-263v-316zM357 -163c0 -59 -44 -104 -113 -104v48c42 0 65 24 65 56c0 31 -24 56 -66 56v48c69 0 114 -46 114 -104z" />
    <glyph glyph-name="s" unicode="s" horiz-adv-x="534" 
d="M50 167h48c-10 -111 73 -118 165 -118c122 0 192 36 192 138c0 214 -398 86 -398 315c0 129 55 198 206 198c99 0 214 -22 204 -167h-49c10 107 -79 118 -155 118c-123 0 -157 -51 -157 -147c0 -185 398 -52 398 -317c0 -103 -59 -187 -241 -187c-118 0 -223 26 -213 167
z" />
    <glyph glyph-name="sacute" unicode="&#x15b;" 
d="M312 757h-35l52 156h54zM50 167h48c-10 -111 73 -118 165 -118c122 0 192 36 192 138c0 214 -398 86 -398 315c0 129 55 198 206 198c99 0 214 -22 204 -167h-49c10 107 -79 118 -155 118c-123 0 -157 -51 -157 -147c0 -185 398 -52 398 -317c0 -103 -59 -187 -241 -187
c-118 0 -223 26 -213 167z" />
    <glyph glyph-name="scaron" unicode="&#x161;" 
d="M151 823l27 39l102 -76l101 76l27 -39l-109 -73h-39zM50 167h48c-10 -111 73 -118 165 -118c122 0 192 36 192 138c0 214 -398 86 -398 315c0 129 55 198 206 198c99 0 214 -22 204 -167h-49c10 107 -79 118 -155 118c-123 0 -157 -51 -157 -147c0 -185 398 -52 398 -317
c0 -103 -59 -187 -241 -187c-118 0 -223 26 -213 167z" />
    <glyph glyph-name="scedilla" unicode="&#x15f;" 
d="M50 167h48c-10 -111 73 -118 165 -118c122 0 192 36 192 138c0 214 -398 86 -398 315c0 129 55 198 206 198c99 0 214 -22 204 -167h-49c10 107 -79 118 -155 118c-123 0 -157 -51 -157 -147c0 -185 398 -52 398 -317c0 -103 -59 -187 -241 -187c-118 0 -223 26 -213 167
zM272 -44h35l-52 -156h-54z" />
    <glyph glyph-name="scommaaccent" unicode="&#x219;" 
d="M50 167h48c-10 -111 73 -118 165 -118c122 0 192 36 192 138c0 214 -398 86 -398 315c0 129 55 198 206 198c99 0 214 -22 204 -167h-49c10 107 -79 118 -155 118c-123 0 -157 -51 -157 -147c0 -185 398 -52 398 -317c0 -103 -59 -187 -241 -187c-118 0 -223 26 -213 167
zM357 -193c0 -59 -44 -104 -113 -104v48c42 0 65 24 65 56c0 31 -24 56 -66 56v48c69 0 114 -46 114 -104z" />
    <glyph glyph-name="germandbls" unicode="&#xdf;" 
d="M249 0l1 49h74c180 0 183 286 0 286h-76v50h35c180 0 180 271 0 271h-27c-68 0 -117 -49 -117 -117v-539h-49v540c0 95 70 165 165 165h28c179 0 255 -224 111 -333c189 -78 134 -372 -70 -372h-75z" />
    <glyph glyph-name="t" unicode="t" 
d="M275 0v651h-225v49h500v-49h-225v-651h-50z" />
    <glyph glyph-name="tbar" unicode="&#x167;" 
d="M550 651h-225v-250h199v-46h-199v-355h-50v355h-199v46h199v250h-225v49h500v-49z" />
    <glyph glyph-name="tcaron" unicode="&#x165;" 
d="M172 823l27 39l102 -76l101 76l27 -39l-109 -73h-39zM275 0v651h-225v49h500v-49h-225v-651h-50z" />
    <glyph glyph-name="uni0163" unicode="&#x163;" 
d="M275 0v651h-225v49h500v-49h-225v-651h-50zM281 -44h35l-52 -156h-54z" />
    <glyph glyph-name="uni021B" unicode="&#x21b;" 
d="M275 0v651h-225v49h500v-49h-225v-651h-50zM357 -193c0 -59 -44 -104 -113 -104v48c42 0 65 24 65 56c0 31 -24 56 -66 56v48c69 0 114 -46 114 -104z" />
    <glyph glyph-name="u" unicode="u" 
d="M237 0c-103 0 -187 84 -187 187l1 513h49l-1 -513c0 -76 62 -138 138 -138h126c94 0 138 62 138 138v513h49v-514c0 -102 -64 -186 -187 -186h-126z" />
    <glyph glyph-name="uacute" unicode="&#xfa;" 
d="M312 757h-35l52 156h54zM237 0c-103 0 -187 84 -187 187l1 513h49l-1 -513c0 -76 62 -138 138 -138h126c94 0 138 62 138 138v513h49v-514c0 -102 -64 -186 -187 -186h-126z" />
    <glyph glyph-name="ucircumflex" unicode="&#xfb;" 
d="M172 797l109 73h39l109 -73l-27 -39l-101 74l-102 -74zM237 0c-103 0 -187 84 -187 187l1 513h49l-1 -513c0 -76 62 -138 138 -138h126c94 0 138 62 138 138v513h49v-514c0 -102 -64 -186 -187 -186h-126z" />
    <glyph glyph-name="udieresis" unicode="&#xfc;" 
d="M215 750c-27 0 -48 17 -48 43c0 27 21 43 48 43c26 0 48 -16 48 -43c0 -26 -22 -43 -48 -43zM385 750c-27 0 -48 17 -48 43c0 27 21 43 48 43c26 0 48 -16 48 -43c0 -26 -22 -43 -48 -43zM237 0c-103 0 -187 84 -187 187l1 513h49l-1 -513c0 -76 62 -138 138 -138h126
c94 0 138 62 138 138v513h49v-514c0 -102 -64 -186 -187 -186h-126z" />
    <glyph glyph-name="ugrave" unicode="&#xf9;" 
d="M308 757l-71 156h54l52 -156h-35zM237 0c-103 0 -187 84 -187 187l1 513h49l-1 -513c0 -76 62 -138 138 -138h126c94 0 138 62 138 138v513h49v-514c0 -102 -64 -186 -187 -186h-126z" />
    <glyph glyph-name="uhungarumlaut" unicode="&#x171;" 
d="M281 757h-35l52 156h54zM371 757h-35l52 156h54zM237 0c-103 0 -187 84 -187 187l1 513h49l-1 -513c0 -76 62 -138 138 -138h126c94 0 138 62 138 138v513h49v-514c0 -102 -64 -186 -187 -186h-126z" />
    <glyph glyph-name="umacron" unicode="&#x16b;" 
d="M165 796h269v-46h-269v46zM237 0c-103 0 -187 84 -187 187l1 513h49l-1 -513c0 -76 62 -138 138 -138h126c94 0 138 62 138 138v513h49v-514c0 -102 -64 -186 -187 -186h-126z" />
    <glyph glyph-name="uogonek" unicode="&#x173;" 
d="M237 0c-103 0 -187 84 -187 187l1 513h49l-1 -513c0 -76 62 -138 138 -138h126c94 0 138 62 138 138v513h49v-514c0 -102 -64 -186 -187 -186h-126zM332 -44l71 -156h-54l-52 156h35z" />
    <glyph glyph-name="uring" unicode="&#x16f;" 
d="M310 750c-51 0 -91 40 -91 91c0 50 40 90 91 90c50 0 90 -40 90 -90c0 -51 -40 -91 -90 -91zM310 794c25 0 45 21 45 47c0 25 -20 46 -45 46c-28 0 -47 -21 -47 -46c0 -26 19 -47 47 -47zM237 0c-103 0 -187 84 -187 187l1 513h49l-1 -513c0 -76 62 -138 138 -138h126
c94 0 138 62 138 138v513h49v-514c0 -102 -64 -186 -187 -186h-126z" />
    <glyph glyph-name="v" unicode="v" horiz-adv-x="542" 
d="M254 0l-244 700h53l208 -618l208 618h53l-244 -700h-34z" />
    <glyph glyph-name="w" unicode="w" horiz-adv-x="700" 
d="M50 700h49v-599l227 342h48l227 -341v598h49v-700h-34l-266 389l-265 -389h-35v700z" />
    <glyph glyph-name="wacute" unicode="&#x1e83;" horiz-adv-x="700" 
d="M367 757h-35l52 156h54zM50 700h49v-599l227 342h48l227 -341v598h49v-700h-34l-266 389l-265 -389h-35v700z" />
    <glyph glyph-name="wcircumflex" unicode="&#x175;" horiz-adv-x="700" 
d="M222 797l109 73h39l109 -73l-27 -39l-101 74l-102 -74zM50 700h49v-599l227 342h48l227 -341v598h49v-700h-34l-266 389l-265 -389h-35v700z" />
    <glyph glyph-name="wdieresis" unicode="&#x1e85;" horiz-adv-x="700" 
d="M265 750c-27 0 -48 17 -48 43c0 27 21 43 48 43c26 0 48 -16 48 -43c0 -26 -22 -43 -48 -43zM435 750c-27 0 -48 17 -48 43c0 27 21 43 48 43c26 0 48 -16 48 -43c0 -26 -22 -43 -48 -43zM50 700h49v-599l227 342h48l227 -341v598h49v-700h-34l-266 389l-265 -389h-35
v700z" />
    <glyph glyph-name="wgrave" unicode="&#x1e81;" horiz-adv-x="700" 
d="M328 757l-71 156h54l52 -156h-35zM50 700h49v-599l227 342h48l227 -341v598h49v-700h-34l-266 389l-265 -389h-35v700z" />
    <glyph glyph-name="x" unicode="x" horiz-adv-x="645" 
d="M50 0l242 350l-242 351l61 -1l212 -310l212 310h60l-240 -350l240 -350h-60l-212 310l-212 -310h-61z" />
    <glyph glyph-name="y" unicode="y" horiz-adv-x="646" 
d="M299 0l-1 343l-248 357h61l212 -308l212 308h61l-248 -357l1 -343h-50z" />
    <glyph glyph-name="yacute" unicode="&#xfd;" horiz-adv-x="646" 
d="M340 757h-35l52 156h54zM299 0l-1 343l-248 357h61l212 -308l212 308h61l-248 -357l1 -343h-50z" />
    <glyph glyph-name="ycircumflex" unicode="&#x177;" horiz-adv-x="646" 
d="M195 797l109 73h39l109 -73l-27 -39l-101 74l-102 -74zM299 0l-1 343l-248 357h61l212 -308l212 308h61l-248 -357l1 -343h-50z" />
    <glyph glyph-name="ydieresis" unicode="&#xff;" horiz-adv-x="646" 
d="M238 750c-27 0 -48 17 -48 43c0 27 21 43 48 43c26 0 48 -16 48 -43c0 -26 -22 -43 -48 -43zM408 750c-27 0 -48 17 -48 43c0 27 21 43 48 43c26 0 48 -16 48 -43c0 -26 -22 -43 -48 -43zM299 0l-1 343l-248 357h61l212 -308l212 308h61l-248 -357l1 -343h-50z" />
    <glyph glyph-name="ygrave" unicode="&#x1ef3;" horiz-adv-x="646" 
d="M308 757l-71 156h54l52 -156h-35zM299 0l-1 343l-248 357h61l212 -308l212 308h61l-248 -357l1 -343h-50z" />
    <glyph glyph-name="z" unicode="z" horiz-adv-x="591" 
d="M50 0v40l423 611h-423v49h491v-40l-423 -611h423v-49h-491z" />
    <glyph glyph-name="zacute" unicode="&#x17a;" 
d="M312 757h-35l52 156h54zM50 0v40l423 611h-423v49h491v-40l-423 -611h423v-49h-491z" />
    <glyph glyph-name="zcaron" unicode="&#x17e;" 
d="M171 823l27 39l102 -76l101 76l27 -39l-109 -73h-39zM50 0v40l423 611h-423v49h491v-40l-423 -611h423v-49h-491z" />
    <glyph glyph-name="zdotaccent" unicode="&#x17c;" 
d="M340 750c-27 0 -48 17 -48 43c0 27 21 43 48 43c26 0 48 -16 48 -43c0 -26 -22 -43 -48 -43zM50 0v40l423 611h-423v49h491v-40l-423 -611h423v-49h-491z" />
    <glyph glyph-name="zero" unicode="0" horiz-adv-x="607" 
d="M300 -5c-137 0 -250 92 -250 250v210c0 160 112 250 257 250c139 0 250 -92 250 -250v-210c0 -159 -112 -250 -250 -250h-7zM300 43h7c111 0 202 71 202 202v210c0 131 -91 202 -202 202c-121 0 -209 -72 -209 -202v-210c0 -131 91 -202 202 -202z" />
    <glyph glyph-name="one" unicode="1" horiz-adv-x="290" 
d="M192 0v633l-116 -77l-26 40l157 104h33v-700h-48z" />
    <glyph glyph-name="two" unicode="2" horiz-adv-x="576" 
d="M50 0v24c0 268 424 317 424 506c0 86 -66 122 -163 122c-134 0 -184 -60 -174 -134h-48c-10 100 62 182 222 182c143 0 209 -55 209 -170c0 -214 -414 -280 -414 -482h420v-48h-476z" />
    <glyph glyph-name="three" unicode="3" 
d="M198 0c-82 0 -148 66 -148 147h48c0 -54 45 -99 100 -99h166c182 0 184 278 0 278h-115v48h92c185 0 184 278 0 278h-123c-55 0 -100 -45 -100 -99h-48c0 81 67 147 148 147h123c185 0 259 -239 102 -344c181 -82 119 -356 -79 -356h-166z" />
    <glyph glyph-name="four" unicode="4" horiz-adv-x="581" 
d="M415 0v142l-365 1v38l376 519h37v-510h68v-48h-68v-142h-48zM415 190v412l-299 -411z" />
    <glyph glyph-name="five" unicode="5" horiz-adv-x="599" 
d="M197 0c-80 0 -147 63 -147 154h48c0 -63 44 -106 99 -106h166c82 0 138 59 138 167c0 76 -62 138 -138 138h-299l47 347l375 -1v-48h-333l-34 -250h244c101 0 186 -84 186 -186c0 -132 -75 -215 -186 -215h-166z" />
    <glyph glyph-name="six" unicode="6" 
d="M232 0c-100 0 -182 82 -182 182v336c0 100 82 182 182 182h116c100 0 182 -82 182 -182h-48c0 74 -60 134 -134 134h-116c-74 0 -134 -60 -134 -134v-186c25 40 78 64 127 64h150c97 0 175 -78 175 -175v-39c0 -100 -82 -182 -182 -182h-136zM232 48h136
c74 0 134 60 134 134v39c0 70 -57 127 -127 127h-150c-70 0 -127 -56 -127 -127v-39c0 -74 60 -134 134 -134z" />
    <glyph glyph-name="seven" unicode="7" horiz-adv-x="573" 
d="M211 0h-55l305 651l-411 1v48l473 -1v-36z" />
    <glyph glyph-name="eight" unicode="8" 
d="M237 0c-103 0 -186 84 -187 187v1c0 79 50 146 119 173c-47 34 -77 90 -78 152v1c1 103 85 186 187 186h43c103 0 187 -83 187 -186v-1c0 -62 -31 -118 -78 -152c70 -27 119 -94 120 -173c-1 -94 -85 -188 -167 -188h-146zM278 374h43c77 0 139 63 139 140
c0 76 -62 138 -139 138h-43c-76 0 -138 -62 -139 -138c1 -77 63 -140 139 -140zM237 48h126c76 0 138 63 139 140c-1 76 -63 138 -139 138h-126c-76 0 -139 -62 -139 -138c0 -77 63 -140 139 -140z" />
    <glyph glyph-name="nine" unicode="9" 
d="M232 0c-100 0 -182 82 -182 182h48c0 -74 60 -134 134 -134h136c74 0 134 60 134 134v186c-25 -45 -78 -65 -127 -65h-150c-97 0 -175 79 -175 176v39c0 100 82 182 182 182h136c100 0 182 -82 182 -182v-336c0 -100 -82 -182 -182 -182h-136zM225 352h150
c71 0 127 56 127 127v39c0 74 -60 134 -134 134h-136c-74 0 -134 -60 -134 -134v-39c0 -70 57 -127 127 -127z" />
    <glyph glyph-name="fraction" unicode="&#x2044;" 
d="M-15 -10l593 734h46l-593 -734h-46z" />
    <glyph glyph-name="asterisk" unicode="*" 
d="M476 638l-132 -86l132 -86l-26 -40l-126 82v-135h-48v135l-126 -82l-26 40l132 86l-132 86l26 40l126 -82v134h48v-134l126 82z" />
    <glyph glyph-name="backslash" unicode="\" 
d="M431 -180l-339 883l45 18l339 -885z" />
    <glyph glyph-name="periodcentered" unicode="&#xb7;" 
d="M295 279c-25 0 -45 20 -45 45s20 45 45 45h9c25 0 46 -20 46 -45s-21 -45 -46 -45h-9z" />
    <glyph glyph-name="bullet" unicode="&#x2022;" 
d="M293 226c-38 0 -68 30 -68 68c0 37 30 67 68 67h13c38 0 69 -30 69 -67c0 -38 -31 -68 -69 -68h-13z" />
    <glyph glyph-name="colon" unicode=":" horiz-adv-x="296" 
d="M98 383c-27 0 -48 17 -48 43c0 27 21 43 48 43c26 0 48 -16 48 -43c0 -26 -22 -43 -48 -43zM98 0c-27 0 -48 17 -48 43c0 27 21 43 48 43c26 0 48 -16 48 -43c0 -26 -22 -43 -48 -43z" />
    <glyph glyph-name="comma" unicode="," horiz-adv-x="280" 
d="M85 -108h-35l76 207h54z" />
    <glyph glyph-name="ellipsis" unicode="&#x2026;" 
d="M98 86c26 0 48 -16 48 -43c0 -26 -22 -43 -48 -43c-27 0 -48 17 -48 43c0 27 21 43 48 43z" />
    <glyph glyph-name="exclam" unicode="!" horiz-adv-x="174" 
d="M112 700v-534h-49v534h49zM87 61c20 0 37 -12 37 -33c0 -20 -17 -33 -37 -33c-21 0 -37 13 -37 33c0 21 16 33 37 33z" />
    <glyph glyph-name="exclamdown" unicode="&#xa1;" horiz-adv-x="274" 
d="M87 541c20 0 37 -13 37 -33c0 -21 -17 -33 -37 -33c-21 0 -37 12 -37 33c0 20 16 33 37 33zM63 -164v534h49v-534h-49z" />
    <glyph glyph-name="numbersign" unicode="#" 
d="M365 19l-46 10l36 172h-186l-39 -181l-46 10l36 171h-92v48h103l43 202h-110v48h120l40 183l46 -10l-37 -173h186l40 182l46 -10l-36 -172h93v-48h-104l-43 -202h111v-48h-121zM180 249h186l43 202h-186z" />
    <glyph glyph-name="period" unicode="." horiz-adv-x="196" 
d="M98 0c-27 0 -48 17 -48 43c0 27 21 43 48 43c26 0 48 -16 48 -43c0 -26 -22 -43 -48 -43z" />
    <glyph glyph-name="question" unicode="?" horiz-adv-x="511" 
d="M206 187c0 265 206 132 206 317c0 96 -34 147 -157 147c-76 0 -165 -11 -155 -118h-49c-10 145 105 167 204 167c151 0 206 -69 206 -198c0 -219 -206 -91 -206 -315h-49zM230 0c-25 0 -45 20 -45 45s20 45 45 45h9c25 0 46 -20 46 -45s-21 -45 -46 -45h-9z" />
    <glyph glyph-name="questiondown" unicode="&#xbf;" horiz-adv-x="511" 
d="M281 535c25 0 45 -20 45 -45s-20 -45 -45 -45h-9c-25 0 -46 20 -46 45s21 45 46 45h9zM305 348c0 -265 -206 -132 -206 -317c0 -96 34 -147 157 -147c76 0 165 11 155 118h49c10 -145 -105 -167 -204 -167c-151 0 -206 69 -206 198c0 219 206 91 206 315h49z" />
    <glyph glyph-name="quotedbl" unicode="&#x22;" horiz-adv-x="269" 
d="M60 524l-10 176h54l-9 -176h-35zM175 524l-10 176h54l-9 -176h-35z" />
    <glyph glyph-name="quotesingle" unicode="'" horiz-adv-x="254" 
d="M110 524l-10 176h54l-9 -176h-35z" />
    <glyph glyph-name="semicolon" unicode=";" 
d="M295 279c-25 0 -45 20 -45 45s20 45 45 45h9c25 0 46 -20 46 -45s-21 -45 -46 -45h-9zM234 -101h-35l76 207h54z" />
    <glyph glyph-name="slash" unicode="/" 
d="M139 -180l-45 16l339 885l45 -18z" />
    <glyph glyph-name="underscore" unicode="_" 
d="M76 -50h448v-46h-448v46z" />
    <glyph glyph-name="braceleft" unicode="{" horiz-adv-x="510" 
d="M330 -182c-68 0 -124 56 -124 124v204c0 43 -22 123 -106 123v48c84 0 106 80 106 122v205c0 68 56 124 124 124h80v-48h-80c-42 0 -76 -34 -76 -76v-205c0 -57 -26 -117 -71 -146c50 -36 71 -91 71 -147v-204c0 -42 34 -76 76 -76h80v-48h-80z" />
    <glyph glyph-name="braceright" unicode="}" horiz-adv-x="510" 
d="M180 -166h-80v48h80c42 0 76 34 76 76v204c0 56 21 111 71 147c-45 29 -71 89 -71 146v205c0 42 -34 76 -76 76h-80v48h80c68 0 124 -56 124 -124v-205c0 -42 22 -122 106 -122v-48c-84 0 -106 -80 -106 -123v-204c0 -68 -56 -124 -124 -124z" />
    <glyph glyph-name="bracketleft" unicode="[" horiz-adv-x="366" 
d="M100 -54v809h165v-48h-117v-713h118v-48h-166z" />
    <glyph glyph-name="bracketright" unicode="]" horiz-adv-x="366" 
d="M266 -54h-166v48h118v713h-117v48h165v-809z" />
    <glyph glyph-name="parenleft" unicode="(" horiz-adv-x="349" 
d="M100 360c0 146 42 339 102 459l43 -22c-29 -64 -97 -185 -97 -437c0 -207 54 -335 99 -440l-43 -22c-62 123 -104 317 -104 462z" />
    <glyph glyph-name="parenright" unicode=")" horiz-adv-x="349" 
d="M247 360c0 -145 -42 -339 -104 -462l-43 22c45 105 99 233 99 440c0 252 -68 373 -97 437l43 22c60 -120 102 -313 102 -459z" />
    <glyph glyph-name="emdash" unicode="&#x2014;" 
d="M-148 307h896v-46h-896v46z" />
    <glyph glyph-name="endash" unicode="&#x2013;" 
d="M76 314h448v-46h-448v46z" />
    <glyph glyph-name="hyphen" unicode="-" horiz-adv-x="493" 
d="M90 299h313v-46h-313v46z" />
    <glyph glyph-name="guillemotleft" unicode="&#xab;" horiz-adv-x="523" 
d="M223 49l-123 199v39l123 204l40 -30l-124 -193l123 -189zM383 49l-123 199v39l123 204l40 -30l-124 -193l123 -189z" />
    <glyph glyph-name="guillemotright" unicode="&#xbb;" horiz-adv-x="523" 
d="M140 49l-39 30l123 189l-124 193l40 30l123 -204v-39zM300 49l-39 30l123 189l-124 193l40 30l123 -204v-39z" />
    <glyph glyph-name="guilsinglleft" unicode="&#x2039;" horiz-adv-x="363" 
d="M223 49l-123 199v39l123 204l40 -30l-124 -193l123 -189z" />
    <glyph glyph-name="guilsinglright" unicode="&#x203a;" horiz-adv-x="363" 
d="M140 49l-39 30l123 189l-124 193l40 30l123 -204v-39z" />
    <glyph glyph-name="quotedblbase" unicode="&#x201e;" 
d="M126 99h54l-95 -207h-35z" />
    <glyph glyph-name="quotedblleft" unicode="&#x201c;" 
d="M149 501l95 207h35l-76 -207h-54zM424 708h35l-76 -207h-54z" />
    <glyph glyph-name="quotedblright" unicode="&#x201d;" horiz-adv-x="510" 
d="M100 499l76 207h54l-95 -207h-35zM356 706h54l-95 -207h-35z" />
    <glyph glyph-name="quoteleft" unicode="&#x2018;" horiz-adv-x="230" 
d="M145 703h35l-76 -207h-54z" />
    <glyph glyph-name="quoteright" unicode="&#x2019;" horiz-adv-x="230" 
d="M85 494h-35l76 207h54z" />
    <glyph glyph-name="quotesinglbase" unicode="&#x201a;" 
d="M85 -108h-35l76 207h54z" />
    <glyph glyph-name="space" unicode=" " horiz-adv-x="450" 
 />
    <glyph glyph-name="cent" unicode="&#xa2;" 
d="M532 169c-46 -43 -109 -67 -184 -71v-97l-49 -1v98c-156 9 -259 104 -259 254s107 244 259 253v95h49v-94v-1c75 -4 138 -27 183 -69l-32 -36c-42 38 -102 58 -175 58c-141 0 -236 -77 -236 -206c0 -133 98 -207 236 -207c73 0 135 18 176 59z" />
    <glyph glyph-name="currency" unicode="&#xa4;" horiz-adv-x="604" 
d="M448 221l56 -55l-34 -34l-56 55c-68 -51 -156 -51 -224 0l-56 -55l-34 34l56 55c-52 67 -51 157 0 226l-56 55l34 34l56 -56c65 51 159 51 224 0l56 56l34 -34l-56 -55c53 -71 50 -161 0 -226zM165 334c0 -75 62 -137 137 -137s137 62 137 137s-62 136 -137 136
s-137 -61 -137 -136z" />
    <glyph glyph-name="dollar" unicode="$" horiz-adv-x="534" 
d="M504 187c0 -95 -51 -175 -203 -186v-86l-49 -1v86c-113 2 -212 30 -202 167h48c-10 -111 73 -118 165 -118c122 0 192 36 192 138c0 214 -398 86 -398 315c0 126 52 195 195 198v86l49 -1v-86c88 -7 175 -39 166 -166h-49c10 107 -79 118 -155 118
c-123 0 -157 -51 -157 -147c0 -185 398 -52 398 -317z" />
    <glyph glyph-name="Euro" unicode="&#x20ac;" horiz-adv-x="736" 
d="M512 49c37 0 71 15 96 39l28 -41c-33 -29 -76 -47 -124 -47h-126c-103 0 -187 84 -187 187v71h-99v46h99v93h-99v46h99v70c0 103 84 187 187 187h126c48 0 91 -18 124 -47l-28 -41c-25 24 -59 39 -96 39h-126c-76 0 -138 -62 -138 -138v-70h300v-46h-300v-93h300v-46
h-300v-71c0 -76 62 -138 138 -138h126z" />
    <glyph glyph-name="sterling" unicode="&#xa3;" horiz-adv-x="565" 
d="M100 48h60c63 6 92 45 92 102v201h-121v48h121v181c0 109 138 170 213 87l-35 -34c-46 48 -130 16 -130 -53v-181h121v-48h-121v-201c0 -42 -12 -76 -35 -102h185v-48h-350v48z" />
    <glyph glyph-name="yen" unicode="&#xa5;" horiz-adv-x="646" 
d="M596 700l-240 -345h103v-46h-111v-114h111v-46h-110v-149h-50v149h-108v46h107v114h-107v46h99l-240 345h61l212 -308l212 308h61z" />
    <glyph glyph-name="plus" unicode="+" horiz-adv-x="648" 
d="M548 299v-46h-201v-201h-46v201h-201v46h201v201h46v-201h201z" />
    <glyph glyph-name="minus" unicode="&#x2212;" horiz-adv-x="648" 
d="M100 301h448v-46h-448v46z" />
    <glyph glyph-name="multiply" unicode="&#xd7;" horiz-adv-x="551" 
d="M451 413l-143 -143l142 -142l-33 -32l-141 142l-142 -142l-33 32l142 142l-143 143l33 32l143 -142l142 142z" />
    <glyph glyph-name="divide" unicode="&#xf7;" horiz-adv-x="648" 
d="M320 389c-20 0 -36 16 -36 36s16 36 36 36h7c20 0 37 -16 37 -36s-17 -36 -37 -36h-7zM100 301h448v-46h-448v46zM320 95c-20 0 -36 16 -36 36s16 36 36 36h7c20 0 37 -16 37 -36s-17 -36 -37 -36h-7z" />
    <glyph glyph-name="equal" unicode="=" horiz-adv-x="648" 
d="M100 380h448v-46h-448v46zM100 220h448v-46h-448v46z" />
    <glyph glyph-name="asciitilde" unicode="~" 
d="M120 264c0 65 42 109 100 109c73 0 93 -61 148 -61c32 0 40 34 40 61h46c0 -62 -34 -107 -86 -107c-76 0 -84 61 -148 61c-38 0 -54 -31 -54 -63h-46z" />
    <glyph glyph-name="percent" unicode="%" 
d="M-42 -10l593 734h46l-593 -734h-46zM66 522c-41 0 -73 32 -73 73c0 40 32 72 73 72c40 0 72 -32 72 -72c0 -41 -32 -73 -72 -73zM66 557c20 0 36 17 36 38c0 20 -16 37 -36 37c-22 0 -38 -17 -38 -37c0 -21 16 -38 38 -38zM495 47c-41 0 -73 32 -73 73c0 40 32 72 73 72
c40 0 72 -32 72 -72c0 -41 -32 -73 -72 -73zM495 82c20 0 36 17 36 38c0 20 -16 37 -36 37c-22 0 -38 -17 -38 -37c0 -21 16 -38 38 -38z" />
    <glyph glyph-name="at" unicode="@" horiz-adv-x="888" 
d="M444 -140c-230 0 -344 195 -344 432c0 244 123 432 344 432c225 0 344 -194 344 -432c0 -126 -17 -259 -112 -259c-63 0 -101 46 -108 102c-33 -44 -79 -68 -136 -68c-115 0 -179 97 -179 222c0 127 66 222 179 222c63 0 113 -28 145 -82c7 19 17 37 29 54l38 -29
c-21 -28 -32 -63 -32 -98v-172c0 -63 16 -103 64 -103c54 0 64 116 64 211c0 209 -98 384 -296 384c-195 0 -296 -170 -296 -384c0 -212 95 -384 296 -384c36 0 70 5 101 17l16 -45c-36 -13 -75 -20 -117 -20zM432 115c91 0 132 82 132 174c0 96 -43 174 -132 174
c-90 0 -131 -82 -131 -174c0 -96 42 -174 131 -174z" />
    <glyph glyph-name="ampersand" unicode="&#x26;" 
d="M93 73c-76 112 -13 218 113 305c-58 67 -101 117 -101 184c0 85 68 143 158 143c97 0 159 -57 159 -145c0 -86 -83 -149 -143 -190c31 -32 114 -116 201 -203c64 84 64 184 64 185h48c0 -5 -1 -121 -78 -219l92 -92l-34 -34l-90 91c-118 -114 -308 -143 -389 -25z
M246 405c63 43 129 94 129 155c0 67 -48 97 -112 97c-67 0 -110 -37 -110 -95c0 -48 44 -106 93 -157zM448 131c-26 27 -191 192 -210 212c-107 -75 -166 -155 -106 -243c70 -102 225 -54 316 31z" />
    <glyph glyph-name="trademark" unicode="&#x2122;" horiz-adv-x="1300" 
d="M275 0v651h-225v49h500v-49h-225v-651h-50zM650 0v700h38l262 -384l263 384h37v-700h-49v600l-230 -338h-42l-230 339v-601h-49z" />
    <glyph glyph-name="degree" unicode="&#xb0;" 
d="M298 413c-78 0 -139 61 -139 139c0 76 61 137 139 137c76 0 137 -61 137 -137c0 -78 -61 -139 -137 -139zM299 462c47 0 87 41 87 92c0 48 -40 87 -87 87c-55 0 -91 -39 -91 -87c0 -51 36 -92 91 -92z" />
    <glyph glyph-name="bar" unicode="|" horiz-adv-x="346" 
d="M196 724v-896h-46v896h46z" />
    <glyph glyph-name="brokenbar" unicode="&#xa6;" horiz-adv-x="346" 
d="M196 699v-313h-46v313h46zM196 162v-313h-46v313h46z" />
    <glyph glyph-name="dagger" unicode="&#x2020;" horiz-adv-x="613" 
d="M463 591v-46h-134v-263h-46v263h-133v46h133v139h46v-139h134z" />
    <glyph glyph-name="daggerdbl" unicode="&#x2021;" 
d="M447 587h-134v-125h134v-46h-134v-121h-46v121h-133v46h133v125h-133v46h133v110h46v-110h134v-46z" />
    <glyph glyph-name="asciicircum" unicode="^" 
d="M161 557l119 143h39l119 -143l-37 -29l-101 134l-102 -134z" />
    <glyph glyph-name="uni0308" unicode="&#x308;" horiz-adv-x="0" 
d="M-385 750c-27 0 -48 17 -48 43c0 27 21 43 48 43c26 0 48 -16 48 -43c0 -26 -22 -43 -48 -43zM-215 750c-27 0 -48 17 -48 43c0 27 21 43 48 43c26 0 48 -16 48 -43c0 -26 -22 -43 -48 -43z" />
    <glyph glyph-name="uni0307" unicode="&#x307;" horiz-adv-x="0" 
d="M-300 750c-27 0 -48 17 -48 43c0 27 21 43 48 43c26 0 48 -16 48 -43c0 -26 -22 -43 -48 -43z" />
    <glyph glyph-name="gravecomb" unicode="&#x300;" horiz-adv-x="0" 
d="M-292 757l-71 156h54l52 -156h-35z" />
    <glyph glyph-name="acutecomb" unicode="&#x301;" horiz-adv-x="0" 
d="M-288 757h-35l52 156h54z" />
    <glyph glyph-name="uni030B" unicode="&#x30b;" horiz-adv-x="0" 
d="M-288 757h-35l52 156h54zM-198 757h-35l52 156h54z" />
    <glyph glyph-name="uni0302" unicode="&#x302;" horiz-adv-x="0" 
d="M-429 797l109 73h39l109 -73l-27 -39l-101 74l-102 -74z" />
    <glyph glyph-name="uni030C" unicode="&#x30c;" horiz-adv-x="0" 
d="M-429 823l27 39l102 -76l101 76l27 -39l-109 -73h-39z" />
    <glyph glyph-name="uni0306" unicode="&#x306;" horiz-adv-x="0" 
d="M-300 750c-69 0 -124 55 -124 124h48c0 -42 34 -76 76 -76c41 0 76 34 76 76h48c0 -69 -56 -124 -124 -124z" />
    <glyph glyph-name="uni030A" unicode="&#x30a;" horiz-adv-x="0" 
d="M-300 750c-51 0 -91 40 -91 91c0 50 40 90 91 90c50 0 90 -40 90 -90c0 -51 -40 -91 -90 -91zM-300 794c25 0 45 21 45 47c0 25 -20 46 -45 46c-28 0 -47 -21 -47 -46c0 -26 19 -47 47 -47z" />
    <glyph glyph-name="tildecomb" unicode="&#x303;" horiz-adv-x="0" 
d="M-480 750c0 65 42 109 100 109c73 0 93 -61 148 -61c32 0 40 34 40 61h46c0 -62 -34 -107 -86 -107c-76 0 -84 61 -148 61c-38 0 -54 -31 -54 -63h-46z" />
    <glyph glyph-name="uni0304" unicode="&#x304;" horiz-adv-x="0" 
d="M-435 796h269v-46h-269v46z" />
    <glyph glyph-name="uni0312" unicode="&#x312;" horiz-adv-x="0" 
d="M-300 836c26 0 48 -16 48 -43c0 -26 -22 -43 -48 -43c-27 0 -48 17 -48 43c-1 29 3 53 15 71c20 29 47 35 74 35v-31c-31 0 -42 -15 -45 -32h4z" />
    <glyph glyph-name="uni0326" unicode="&#x326;" horiz-adv-x="0" 
d="M-243 -193c0 -59 -44 -104 -113 -104v48c42 0 65 24 65 56c0 31 -24 56 -66 56v48c69 0 114 -46 114 -104z" />
    <glyph glyph-name="uni0327" unicode="&#x327;" horiz-adv-x="0" 
d="M-278 -44h35l-52 -156h-54z" />
    <glyph glyph-name="uni0328" unicode="&#x328;" horiz-adv-x="0" 
d="M-268 -44l71 -156h-54l-52 156h35z" />
    <glyph glyph-name="uni0335" unicode="&#x335;" horiz-adv-x="0" 
d="M-509 261h448v-46h-448v46z" />
    <glyph glyph-name="uni0336" unicode="&#x336;" horiz-adv-x="0" 
d="M-674 261h673v-46h-673v46z" />
    <glyph glyph-name="uni0337" unicode="&#x337;" horiz-adv-x="0" 
d="M-540 -10l437 541h46l-437 -541h-46z" />
    <glyph glyph-name="uni0338" unicode="&#x338;" horiz-adv-x="0" 
d="M-615 -10l593 734h46l-593 -734h-46z" />
    <glyph glyph-name="_q_tail" 
d="M368 -24l-173 173l35 35l173 -173z" />
    </font>
</defs>
</svg>
