<?xml version="1.0" standalone="no"?>
<!DOCTYPE svg PUBLIC "-//W3C//DTD SVG 1.1//EN" "http://www.w3.org/Graphics/SVG/1.1/DTD/svg11.dtd" >
<svg xmlns="http://www.w3.org/2000/svg" xmlns:xlink="http://www.w3.org/1999/xlink" version="1.1">
<metadata>
Created by FontForge 20190801 at Thu Jun 30 12:09:33 2016
 By Jimmy Wärting
copyright missing
</metadata>
<defs>
<font id="Frank-Bold" horiz-adv-x="600" >
  <font-face 
    font-family="Frank Bold"
    font-weight="700"
    font-stretch="normal"
    units-per-em="1000"
    panose-1="0 0 8 0 0 0 0 0 0 0"
    ascent="800"
    descent="-200"
    x-height="700"
    cap-height="700"
    bbox="-672 -352 1239 1000"
    underline-thickness="50"
    underline-position="-100"
    unicode-range="U+0020-2212"
  />
<missing-glyph horiz-adv-x="525" 
d="M431 800v-1050h-333v1050h333zM350 730h-174v-35h69v-39h-70v-34h175v34h-70v39h70v35zM280 594h-105v-109h175v36h-70v73zM245 559v-38h-35v38h35zM350 457h-175v-35h70v-39h-70v-34h105v73h70v35zM350 394h-35v-70h-140v-35h175v105zM350 266h-105v-59h35v24h35v-49
h-105v84h-35v-119h175v119zM350 84h-175v-119h175v119zM315 49v-49h-105v49h105zM350 -59h-175v-35h74l-74 -49v-35h175v35h-107l73 49h34v35z" />
    <glyph glyph-name=".notdef" horiz-adv-x="525" 
d="M431 800v-1050h-333v1050h333zM350 730h-174v-35h69v-39h-70v-34h175v34h-70v39h70v35zM280 594h-105v-109h175v36h-70v73zM245 559v-38h-35v38h35zM350 457h-175v-35h70v-39h-70v-34h105v73h70v35zM350 394h-35v-70h-140v-35h175v105zM350 266h-105v-59h35v24h35v-49
h-105v84h-35v-119h175v119zM350 84h-175v-119h175v119zM315 49v-49h-105v49h105zM350 -59h-175v-35h74l-74 -49v-35h175v35h-107l73 49h34v35z" />
    <glyph glyph-name="A" unicode="A" horiz-adv-x="648" 
d="M131 0h-121l276 700h77l275 -700h-119l-59 153h-272zM221 266h207l-104 266z" />
    <glyph glyph-name="Aacute" unicode="&#xc1;" horiz-adv-x="648" 
d="M378 750h-85l52 156h104zM131 0h-121l276 700h77l275 -700h-119l-59 153h-272zM221 266h207l-104 266z" />
    <glyph glyph-name="Abreve" unicode="&#x102;" horiz-adv-x="648" 
d="M324 750c-75 0 -136 61 -136 136h102c0 -24 12 -39 34 -39c23 0 34 15 34 39h102c0 -75 -61 -136 -136 -136zM131 0h-121l276 700h77l275 -700h-119l-59 153h-272zM221 266h207l-104 266z" />
    <glyph glyph-name="Acircumflex" unicode="&#xc2;" horiz-adv-x="648" 
d="M176 827l129 73h39l129 -73l-57 -77l-91 61l-92 -61zM131 0h-121l276 700h77l275 -700h-119l-59 153h-272zM221 266h207l-104 266z" />
    <glyph glyph-name="Adieresis" unicode="&#xc4;" horiz-adv-x="648" 
d="M219 750c-45 0 -80 28 -80 72c0 45 35 71 80 71c43 0 80 -26 80 -71c0 -44 -37 -72 -80 -72zM429 750c-45 0 -80 28 -80 72c0 45 35 71 80 71c43 0 80 -26 80 -71c0 -44 -37 -72 -80 -72zM131 0h-121l276 700h77l275 -700h-119l-59 153h-272zM221 266h207l-104 266z" />
    <glyph glyph-name="Agrave" unicode="&#xc0;" horiz-adv-x="648" 
d="M281 757l-71 156h104l52 -156h-85zM131 0h-121l276 700h77l275 -700h-119l-59 153h-272zM221 266h207l-104 266z" />
    <glyph glyph-name="Amacron" unicode="&#x100;" horiz-adv-x="648" 
d="M190 847h269v-97h-269v97zM131 0h-121l276 700h77l275 -700h-119l-59 153h-272zM221 266h207l-104 266z" />
    <glyph glyph-name="Aogonek" unicode="&#x104;" horiz-adv-x="648" 
d="M672 -49l60 -44c-62 -74 -182 -69 -214 11c-7 18 -14 47 2 82h-1l-59 153h-272l-57 -153h-121l276 700h77l275 -700h-1c-29 -11 -43 -41 -36 -54c11 -18 46 -19 71 5zM221 266h207l-104 266z" />
    <glyph glyph-name="Aring" unicode="&#xc5;" horiz-adv-x="648" 
d="M324 750c-70 0 -125 56 -125 126c0 68 55 124 125 124c69 0 125 -56 125 -124c0 -70 -56 -126 -125 -126zM324 837c22 0 38 17 38 39c0 21 -16 37 -38 37s-38 -16 -38 -37c0 -22 16 -39 38 -39zM131 0h-121l276 700h77l275 -700h-119l-59 153h-272zM221 266h207l-104 266
z" />
    <glyph glyph-name="Atilde" unicode="&#xc3;" horiz-adv-x="648" 
d="M145 768c0 79 47 133 118 133c55 0 74 -45 116 -45c28 0 38 27 38 45h87c0 -77 -39 -133 -103 -133c-54 0 -75 44 -121 44c-34 0 -46 -22 -46 -44h-89zM131 0h-121l276 700h77l275 -700h-119l-59 153h-272zM221 266h207l-104 266z" />
    <glyph glyph-name="AE" unicode="&#xc6;" horiz-adv-x="919" 
d="M50 0l276 700h543v-112h-332v-182h235v-112h-235v-182h332v-112h-445v153h-196l-57 -153h-121zM261 266l163 -1v323h-38z" />
    <glyph glyph-name="B" unicode="B" 
d="M50 0l-1 700h263c175 0 265 -204 156 -332c154 -133 76 -368 -118 -368h-300zM162 406h150c115 0 126 182 0 182h-150v-182zM162 112h188c115 0 123 182 0 182h-188v-182z" />
    <glyph glyph-name="C" unicode="C" 
d="M253 0c-115 0 -203 95 -203 203v294c0 111 90 203 203 203h94c115 0 203 -95 203 -203h-112c0 50 -41 91 -91 91h-94c-50 0 -91 -41 -91 -91v-294c0 -50 41 -91 91 -91h94c50 0 91 41 91 91h112c0 -111 -90 -203 -203 -203h-94z" />
    <glyph glyph-name="Cacute" unicode="&#x106;" 
d="M342 757h-85l52 156h104zM253 0c-115 0 -203 95 -203 203v294c0 111 90 203 203 203h94c115 0 203 -95 203 -203h-112c0 50 -41 91 -91 91h-94c-50 0 -91 -41 -91 -91v-294c0 -50 41 -91 91 -91h94c50 0 91 41 91 91h112c0 -111 -90 -203 -203 -203h-94z" />
    <glyph glyph-name="Ccaron" unicode="&#x10c;" 
d="M152 823l57 77l92 -61l91 61l57 -77l-129 -73h-39zM253 0c-115 0 -203 95 -203 203v294c0 111 90 203 203 203h94c115 0 203 -95 203 -203h-112c0 50 -41 91 -91 91h-94c-50 0 -91 -41 -91 -91v-294c0 -50 41 -91 91 -91h94c50 0 91 41 91 91h112
c0 -111 -90 -203 -203 -203h-94z" />
    <glyph glyph-name="Ccedilla" unicode="&#xc7;" 
d="M253 0c-115 0 -203 95 -203 203v294c0 111 90 203 203 203h94c115 0 203 -95 203 -203h-112c0 50 -41 91 -91 91h-94c-50 0 -91 -41 -91 -91v-294c0 -50 41 -91 91 -91h94c50 0 91 41 91 91h112c0 -111 -90 -203 -203 -203h-94zM279 -42h85l-52 -156h-104z" />
    <glyph glyph-name="Cdotaccent" unicode="&#x10a;" 
d="M300 750c-45 0 -80 28 -80 72c0 45 35 71 80 71c43 0 80 -26 80 -71c0 -44 -37 -72 -80 -72zM253 0c-115 0 -203 95 -203 203v294c0 111 90 203 203 203h94c115 0 203 -95 203 -203h-112c0 50 -41 91 -91 91h-94c-50 0 -91 -41 -91 -91v-294c0 -50 41 -91 91 -91h94
c50 0 91 41 91 91h112c0 -111 -90 -203 -203 -203h-94z" />
    <glyph glyph-name="D" unicode="D" 
d="M50 0v700h297c112 0 201 -90 203 -201v-298c-2 -111 -91 -201 -203 -201h-297zM162 112h185c50 0 91 41 91 91v294c0 50 -41 91 -91 91h-185v-476z" />
    <glyph glyph-name="Eth" unicode="&#xd0;" horiz-adv-x="709" 
d="M456 700c112 0 201 -90 203 -201v-298c-2 -111 -91 -201 -203 -201h-297v302h-113v96h113v302h297zM547 203v294c0 50 -41 91 -91 91h-185v-190h116v-96h-116v-190h185c50 0 91 41 91 91z" />
    <glyph glyph-name="Dcaron" unicode="&#x10e;" 
d="M152 823l57 77l92 -61l91 61l57 -77l-129 -73h-39zM50 0v700h297c112 0 201 -90 203 -201v-298c-2 -111 -91 -201 -203 -201h-297zM162 112h185c50 0 91 41 91 91v294c0 50 -41 91 -91 91h-185v-476z" />
    <glyph glyph-name="Dcroat" unicode="&#x110;" horiz-adv-x="709" 
d="M456 700c112 0 201 -90 203 -201v-298c-2 -111 -91 -201 -203 -201h-297v302h-113v96h113v302h297zM547 203v294c0 50 -41 91 -91 91h-185v-190h116v-96h-116v-190h185c50 0 91 41 91 91z" />
    <glyph glyph-name="E" unicode="E" horiz-adv-x="544" 
d="M49 0l1 700h464v-112h-352v-182h255v-112h-255v-182h352v-112h-465z" />
    <glyph glyph-name="Eacute" unicode="&#xc9;" horiz-adv-x="544" 
d="M342 757h-85l52 156h104zM49 0l1 700h464v-112h-352v-182h255v-112h-255v-182h352v-112h-465z" />
    <glyph glyph-name="Ecaron" unicode="&#x11a;" horiz-adv-x="544" 
d="M123 823l57 77l92 -61l91 61l57 -77l-129 -73h-39zM49 0l1 700h464v-112h-352v-182h255v-112h-255v-182h352v-112h-465z" />
    <glyph glyph-name="Ecircumflex" unicode="&#xca;" horiz-adv-x="544" 
d="M123 827l129 73h39l129 -73l-57 -77l-91 61l-92 -61zM49 0l1 700h464v-112h-352v-182h255v-112h-255v-182h352v-112h-465z" />
    <glyph glyph-name="Edieresis" unicode="&#xcb;" horiz-adv-x="544" 
d="M166 750c-45 0 -80 28 -80 72c0 45 35 71 80 71c43 0 80 -26 80 -71c0 -44 -37 -72 -80 -72zM376 750c-45 0 -80 28 -80 72c0 45 35 71 80 71c43 0 80 -26 80 -71c0 -44 -37 -72 -80 -72zM49 0l1 700h464v-112h-352v-182h255v-112h-255v-182h352v-112h-465z" />
    <glyph glyph-name="Edotaccent" unicode="&#x116;" horiz-adv-x="544" 
d="M271 750c-45 0 -80 28 -80 72c0 45 35 71 80 71c43 0 80 -26 80 -71c0 -44 -37 -72 -80 -72zM49 0l1 700h464v-112h-352v-182h255v-112h-255v-182h352v-112h-465z" />
    <glyph glyph-name="Egrave" unicode="&#xc8;" horiz-adv-x="544" 
d="M258 757l-71 156h104l52 -156h-85zM49 0l1 700h464v-112h-352v-182h255v-112h-255v-182h352v-112h-465z" />
    <glyph glyph-name="Emacron" unicode="&#x112;" horiz-adv-x="544" 
d="M137 847h269v-97h-269v97zM49 0l1 700h464v-112h-352v-182h255v-112h-255v-182h352v-112h-465z" />
    <glyph glyph-name="Eogonek" unicode="&#x118;" horiz-adv-x="544" 
d="M49 0l1 700h464v-112h-352v-182h255v-112h-255v-182h352v-112h-465zM404 -44l71 -156h-104l-52 156h85z" />
    <glyph glyph-name="F" unicode="F" horiz-adv-x="544" 
d="M50 0v700h444v-112h-332v-182h235v-112h-235v-294h-112z" />
    <glyph glyph-name="G" unicode="G" 
d="M253 0c-115 0 -203 95 -203 203v294c0 111 90 203 203 203h94c115 0 203 -75 203 -183h-112c0 50 -41 71 -91 71h-94c-50 0 -91 -41 -91 -91v-294c0 -50 41 -91 91 -91h94c50 0 91 41 91 91v51h-120v112h232v-163c0 -111 -90 -203 -203 -203h-94z" />
    <glyph glyph-name="Gbreve" unicode="&#x11e;" 
d="M306 750c-75 0 -136 61 -136 136h102c0 -24 12 -39 34 -39c23 0 34 15 34 39h102c0 -75 -61 -136 -136 -136zM253 0c-115 0 -203 95 -203 203v294c0 111 90 203 203 203h94c115 0 203 -75 203 -183h-112c0 50 -41 71 -91 71h-94c-50 0 -91 -41 -91 -91v-294
c0 -50 41 -91 91 -91h94c50 0 91 41 91 91v51h-120v112h232v-163c0 -111 -90 -203 -203 -203h-94z" />
    <glyph glyph-name="Gcommaaccent" unicode="&#x122;" 
d="M253 0c-115 0 -203 95 -203 203v294c0 111 90 203 203 203h94c115 0 203 -75 203 -183h-112c0 50 -41 71 -91 71h-94c-50 0 -91 -41 -91 -91v-294c0 -50 41 -91 91 -91h94c50 0 91 41 91 91v51h-120v112h232v-163c0 -111 -90 -203 -203 -203h-94zM378 -215
c1 -75 -60 -136 -135 -137l-1 102c24 0 39 12 39 34c0 23 -15 34 -39 34l-1 102c75 1 136 -60 137 -135z" />
    <glyph glyph-name="Gdotaccent" unicode="&#x120;" 
d="M300 750c-45 0 -80 28 -80 72c0 45 35 71 80 71c43 0 80 -26 80 -71c0 -44 -37 -72 -80 -72zM253 0c-115 0 -203 95 -203 203v294c0 111 90 203 203 203h94c115 0 203 -75 203 -183h-112c0 50 -41 71 -91 71h-94c-50 0 -91 -41 -91 -91v-294c0 -50 41 -91 91 -91h94
c50 0 91 41 91 91v51h-120v112h232v-163c0 -111 -90 -203 -203 -203h-94z" />
    <glyph glyph-name="H" unicode="H" 
d="M50 0v700h112v-294h276v294h112v-700h-112v294h-276v-294h-112z" />
    <glyph glyph-name="Hbar" unicode="&#x126;" horiz-adv-x="679" 
d="M669 606v-106h-78v-500h-112v294h-276v-294h-112v500h-81v106h81v94h112v-94h276v94h112v-94h78zM479 406v94h-276v-94h276z" />
    <glyph glyph-name="I" unicode="I" horiz-adv-x="258" 
d="M75 0v700h108v-700h-108z" />
    <glyph glyph-name="Iacute" unicode="&#xcd;" horiz-adv-x="208" 
d="M175 757h-85l52 156h104zM75 0v700h108v-700h-108z" />
    <glyph glyph-name="Icircumflex" unicode="&#xce;" horiz-adv-x="247" 
d="M-25 827l129 73h39l129 -73l-57 -77l-91 61l-92 -61zM75 0v700h108v-700h-108z" />
    <glyph glyph-name="Idieresis" unicode="&#xcf;" horiz-adv-x="270" 
d="M30 750c-45 0 -80 28 -80 72c0 45 35 71 80 71c43 0 80 -26 80 -71c0 -44 -37 -72 -80 -72zM240 750c-45 0 -80 28 -80 72c0 45 35 71 80 71c43 0 80 -26 80 -71c0 -44 -37 -72 -80 -72zM75 0v700h108v-700h-108z" />
    <glyph glyph-name="Idotaccent" unicode="&#x130;" horiz-adv-x="260" 
d="M130 750c-45 0 -80 28 -80 72c0 45 35 71 80 71c43 0 80 -26 80 -71c0 -44 -37 -72 -80 -72zM75 0v700h108v-700h-108z" />
    <glyph glyph-name="Igrave" unicode="&#xcc;" horiz-adv-x="256" 
d="M83 757l-71 156h104l52 -156h-85zM75 0v700h108v-700h-108z" />
    <glyph glyph-name="Imacron" unicode="&#x12a;" horiz-adv-x="251" 
d="M-9 847h269v-97h-269v97zM75 0v700h108v-700h-108z" />
    <glyph glyph-name="Iogonek" unicode="&#x12e;" horiz-adv-x="233" 
d="M75 0v700h108v-700h-108zM165 -39l62 -137h-91l-46 137h75z" />
    <glyph glyph-name="J" unicode="J" 
d="M253 0c-113 0 -203 92 -203 203h112c0 -50 41 -91 91 -91h94c50 0 91 41 91 91v497h112v-497c0 -108 -88 -203 -203 -203h-94z" />
    <glyph glyph-name="K" unicode="K" horiz-adv-x="687" 
d="M489 0l-263 321l-64 -62v-259h-112v700h112v-306l314 306h156l-314 -307l319 -393h-148z" />
    <glyph glyph-name="Kcommaaccent" unicode="&#x136;" horiz-adv-x="687" 
d="M489 0l-263 321l-64 -62v-259h-112v700h112v-306l314 306h156l-314 -307l319 -393h-148zM378 -215c1 -75 -60 -136 -135 -137l-1 102c24 0 39 12 39 34c0 23 -15 34 -39 34l-1 102c75 1 136 -60 137 -135z" />
    <glyph glyph-name="L" unicode="L" horiz-adv-x="525" 
d="M50 0v700h112v-588h313v-112h-425z" />
    <glyph glyph-name="Lacute" unicode="&#x139;" horiz-adv-x="545" 
d="M149 757h-85l52 156h104zM50 0v700h112v-588h313v-112h-425z" />
    <glyph glyph-name="Lcaron" unicode="&#x13d;" horiz-adv-x="545" 
d="M426 593c1 -75 -60 -136 -135 -137l-1 102c24 0 39 12 39 34c0 23 -15 34 -39 34l-1 102c75 1 136 -60 137 -135zM50 0v700h112v-588h313v-112h-425z" />
    <glyph glyph-name="Lcommaaccent" unicode="&#x13b;" horiz-adv-x="545" 
d="M50 0v700h112v-588h313v-112h-425zM378 -215c1 -75 -60 -136 -135 -137l-1 102c24 0 39 12 39 34c0 23 -15 34 -39 34l-1 102c75 1 136 -60 137 -135z" />
    <glyph glyph-name="Lslash" unicode="&#x141;" horiz-adv-x="545" 
d="M162 112h313v-112h-425v265l-48 -54h-97l145 162v327h112v-202l47 52h97l-144 -161v-277z" />
    <glyph glyph-name="M" unicode="M" horiz-adv-x="700" 
d="M50 0v700h85l215 -317l215 317h85v-700h-112v462l-141 -214h-92l-143 214v-462h-112z" />
    <glyph glyph-name="N" unicode="N" 
d="M50 0v700h85l303 -454v454h112v-700h-87l-301 454v-454h-112z" />
    <glyph glyph-name="Nacute" unicode="&#x143;" 
d="M307 757h-85l52 156h104zM50 0v700h85l303 -454v454h112v-700h-87l-301 454v-454h-112z" />
    <glyph glyph-name="Ncaron" unicode="&#x147;" 
d="M152 823l57 77l92 -61l91 61l57 -77l-129 -73h-39zM50 0v700h85l303 -454v454h112v-700h-87l-301 454v-454h-112z" />
    <glyph glyph-name="Ncommaaccent" unicode="&#x145;" 
d="M50 0v700h85l303 -454v454h112v-700h-87l-301 454v-454h-112zM378 -215c1 -75 -60 -136 -135 -137l-1 102c24 0 39 12 39 34c0 23 -15 34 -39 34l-1 102c75 1 136 -60 137 -135z" />
    <glyph glyph-name="Eng" unicode="&#x14a;" 
d="M438 700h112v-761c0 -108 -88 -203 -203 -203c-120 0 -208 92 -208 203h112c0 -52 41 -91 96 -91c50 0 91 41 91 91v99l-276 416v-454h-112v700h85l303 -454v454z" />
    <glyph glyph-name="Ntilde" unicode="&#xd1;" 
d="M121 768c0 79 47 133 118 133c55 0 74 -45 116 -45c28 0 38 27 38 45h87c0 -77 -39 -133 -103 -133c-54 0 -75 44 -121 44c-34 0 -46 -22 -46 -44h-89zM50 0v700h85l303 -454v454h112v-700h-87l-301 454v-454h-112z" />
    <glyph glyph-name="O" unicode="O" 
d="M253 0c-112 0 -203 90 -203 203l1 295c0 111 89 202 202 202h95c109 0 199 -89 202 -199v-300c-1 -111 -91 -201 -202 -201h-95zM253 112h95c50 0 91 40 91 91v293c0 50 -41 92 -91 92h-95c-50 0 -91 -40 -91 -91v-294c0 -51 40 -91 91 -91z" />
    <glyph glyph-name="Oacute" unicode="&#xd3;" 
d="M342 757h-85l52 156h104zM253 0c-112 0 -203 90 -203 203l1 295c0 111 89 202 202 202h95c109 0 199 -89 202 -199v-300c-1 -111 -91 -201 -202 -201h-95zM253 112h95c50 0 91 40 91 91v293c0 50 -41 92 -91 92h-95c-50 0 -91 -40 -91 -91v-294c0 -51 40 -91 91 -91z" />
    <glyph glyph-name="Ocircumflex" unicode="&#xd4;" 
d="M152 827l129 73h39l129 -73l-57 -77l-91 61l-92 -61zM253 0c-112 0 -203 90 -203 203l1 295c0 111 89 202 202 202h95c109 0 199 -89 202 -199v-300c-1 -111 -91 -201 -202 -201h-95zM253 112h95c50 0 91 40 91 91v293c0 50 -41 92 -91 92h-95c-50 0 -91 -40 -91 -91
v-294c0 -51 40 -91 91 -91z" />
    <glyph glyph-name="Odieresis" unicode="&#xd6;" 
d="M195 750c-45 0 -80 28 -80 72c0 45 35 71 80 71c43 0 80 -26 80 -71c0 -44 -37 -72 -80 -72zM405 750c-45 0 -80 28 -80 72c0 45 35 71 80 71c43 0 80 -26 80 -71c0 -44 -37 -72 -80 -72zM253 0c-112 0 -203 90 -203 203l1 295c0 111 89 202 202 202h95
c109 0 199 -89 202 -199v-300c-1 -111 -91 -201 -202 -201h-95zM253 112h95c50 0 91 40 91 91v293c0 50 -41 92 -91 92h-95c-50 0 -91 -40 -91 -91v-294c0 -51 40 -91 91 -91z" />
    <glyph glyph-name="Ograve" unicode="&#xd2;" 
d="M258 757l-71 156h104l52 -156h-85zM253 0c-112 0 -203 90 -203 203l1 295c0 111 89 202 202 202h95c109 0 199 -89 202 -199v-300c-1 -111 -91 -201 -202 -201h-95zM253 112h95c50 0 91 40 91 91v293c0 50 -41 92 -91 92h-95c-50 0 -91 -40 -91 -91v-294
c0 -51 40 -91 91 -91z" />
    <glyph glyph-name="Ohungarumlaut" unicode="&#x150;" 
d="M273 757h-85l52 156h104zM413 757h-85l52 156h104zM253 0c-112 0 -203 90 -203 203l1 295c0 111 89 202 202 202h95c109 0 199 -89 202 -199v-300c-1 -111 -91 -201 -202 -201h-95zM253 112h95c50 0 91 40 91 91v293c0 50 -41 92 -91 92h-95c-50 0 -91 -40 -91 -91v-294
c0 -51 40 -91 91 -91z" />
    <glyph glyph-name="Omacron" unicode="&#x14c;" 
d="M166 847h269v-97h-269v97zM253 0c-112 0 -203 90 -203 203l1 295c0 111 89 202 202 202h95c109 0 199 -89 202 -199v-300c-1 -111 -91 -201 -202 -201h-95zM253 112h95c50 0 91 40 91 91v293c0 50 -41 92 -91 92h-95c-50 0 -91 -40 -91 -91v-294c0 -51 40 -91 91 -91z
" />
    <glyph glyph-name="Oslash" unicode="&#xd8;" 
d="M625 724l-102 -126c16 -29 26 -62 27 -97v-300c-1 -111 -91 -201 -202 -201h-95c-62 0 -118 28 -155 72l-66 -82h-97l124 153c-6 19 -9 39 -9 60l1 295c0 111 89 202 202 202h95c47 0 90 -17 125 -44l55 68h97zM162 497v-226l241 298c-15 12 -34 19 -55 19h-95
c-50 0 -91 -40 -91 -91zM439 203v291l-268 -332c15 -30 46 -50 82 -50h95c50 0 91 40 91 91z" />
    <glyph glyph-name="Otilde" unicode="&#xd5;" 
d="M121 768c0 79 47 133 118 133c55 0 74 -45 116 -45c28 0 38 27 38 45h87c0 -77 -39 -133 -103 -133c-54 0 -75 44 -121 44c-34 0 -46 -22 -46 -44h-89zM253 0c-112 0 -203 90 -203 203l1 295c0 111 89 202 202 202h95c109 0 199 -89 202 -199v-300
c-1 -111 -91 -201 -202 -201h-95zM253 112h95c50 0 91 40 91 91v293c0 50 -41 92 -91 92h-95c-50 0 -91 -40 -91 -91v-294c0 -51 40 -91 91 -91z" />
    <glyph glyph-name="OE" unicode="&#x152;" horiz-adv-x="839" 
d="M253 0c-112 0 -203 90 -203 203l1 295c0 111 89 202 202 202h536v-112h-332v-182h235v-112h-235v-182h332v-112h-536zM253 112h91l1 476h-92c-50 0 -91 -40 -91 -91v-294c0 -51 40 -91 91 -91z" />
    <glyph glyph-name="P" unicode="P" 
d="M50 0v700h301c266 0 265 -446 0 -446h-189v-254h-112zM162 366h189c114 0 126 222 0 222h-189v-222z" />
    <glyph glyph-name="Thorn" unicode="&#xde;" 
d="M351 553c266 0 265 -406 0 -406h-189v-147h-112v700h112v-147h189zM351 259c114 0 126 182 0 182h-189v-182h189z" />
    <glyph glyph-name="Q" unicode="Q" 
d="M586 52l-85 -85l-57 57c-29 -15 -61 -24 -96 -24h-95c-112 0 -203 90 -203 203l1 295c0 111 89 202 202 202h95c109 0 199 -89 202 -199v-300c0 -33 -8 -63 -22 -91zM348 112h8l-65 65l85 85l63 -63v4v293c0 50 -41 92 -91 92h-95c-50 0 -91 -40 -91 -91v-294
c0 -51 40 -91 91 -91h95z" />
    <glyph glyph-name="R" unicode="R" horiz-adv-x="607" 
d="M50 0v700h295c290 0 278 -420 50 -440l181 -260h-130l-168 254h-116v-254h-112zM162 366h173c145 0 135 222 10 222h-183v-222z" />
    <glyph glyph-name="Racute" unicode="&#x154;" horiz-adv-x="607" 
d="M310 757h-85l52 156h104zM50 0v700h295c290 0 278 -420 50 -440l181 -260h-130l-168 254h-116v-254h-112zM162 366h173c145 0 135 222 10 222h-183v-222z" />
    <glyph glyph-name="Rcaron" unicode="&#x158;" horiz-adv-x="607" 
d="M155 823l57 77l92 -61l91 61l57 -77l-129 -73h-39zM50 0v700h295c290 0 278 -420 50 -440l181 -260h-130l-168 254h-116v-254h-112zM162 366h173c145 0 135 222 10 222h-183v-222z" />
    <glyph glyph-name="Rcommaaccent" unicode="&#x156;" horiz-adv-x="607" 
d="M50 0v700h295c290 0 278 -420 50 -440l181 -260h-130l-168 254h-116v-254h-112zM162 366h173c145 0 135 222 10 222h-183v-222zM378 -215c1 -75 -60 -136 -135 -137l-1 102c24 0 39 12 39 34c0 23 -15 34 -39 34l-1 102c75 1 136 -60 137 -135z" />
    <glyph glyph-name="S" unicode="S" 
d="M70 197h112c-10 -80 57 -86 116 -86c72 0 140 14 140 85c0 167 -358 45 -358 304c0 149 68 200 218 200c141 0 232 -64 222 -200h-111c10 82 -46 98 -106 98c-55 0 -111 -16 -111 -98c0 -143 358 -38 358 -304c0 -136 -93 -196 -252 -196c-106 0 -238 37 -228 197z" />
    <glyph glyph-name="Sacute" unicode="&#x15a;" 
d="M342 757h-85l52 156h104zM70 197h112c-10 -80 57 -86 116 -86c72 0 140 14 140 85c0 167 -358 45 -358 304c0 149 68 200 218 200c141 0 232 -64 222 -200h-111c10 82 -46 98 -106 98c-55 0 -111 -16 -111 -98c0 -143 358 -38 358 -304c0 -136 -93 -196 -252 -196
c-106 0 -238 37 -228 197z" />
    <glyph glyph-name="Scaron" unicode="&#x160;" 
d="M157 823l57 77l92 -61l91 61l57 -77l-129 -73h-39zM70 197h112c-10 -80 57 -86 116 -86c72 0 140 14 140 85c0 167 -358 45 -358 304c0 149 68 200 218 200c141 0 232 -64 222 -200h-111c10 82 -46 98 -106 98c-55 0 -111 -16 -111 -98c0 -143 358 -38 358 -304
c0 -136 -93 -196 -252 -196c-106 0 -238 37 -228 197z" />
    <glyph glyph-name="Scedilla" unicode="&#x15e;" 
d="M70 197h112c-10 -80 57 -86 116 -86c72 0 140 14 140 85c0 167 -358 45 -358 304c0 149 68 200 218 200c141 0 232 -64 222 -200h-111c10 82 -46 98 -106 98c-55 0 -111 -16 -111 -98c0 -143 358 -38 358 -304c0 -136 -93 -196 -252 -196c-106 0 -238 37 -228 197z
M293 -38h85l-52 -156h-104z" />
    <glyph glyph-name="Scommaaccent" unicode="&#x218;" 
d="M70 197h112c-10 -80 57 -86 116 -86c72 0 140 14 140 85c0 167 -358 45 -358 304c0 149 68 200 218 200c141 0 232 -64 222 -200h-111c10 82 -46 98 -106 98c-55 0 -111 -16 -111 -98c0 -143 358 -38 358 -304c0 -136 -93 -196 -252 -196c-106 0 -238 37 -228 197z
M378 -215c1 -75 -60 -136 -135 -137l-1 102c24 0 39 12 39 34c0 23 -15 34 -39 34l-1 102c75 1 136 -60 137 -135z" />
    <glyph glyph-name="T" unicode="T" horiz-adv-x="589" 
d="M239 0v588h-189v112h489v-112h-189v-588h-111z" />
    <glyph glyph-name="Tbar" unicode="&#x166;" horiz-adv-x="589" 
d="M539 588h-189v-206h126v-96h-126v-286h-111v286h-128v96h128v206h-189v112h489v-112z" />
    <glyph glyph-name="Tcaron" unicode="&#x164;" horiz-adv-x="589" 
d="M146 823l57 77l92 -61l91 61l57 -77l-129 -73h-39zM239 0v588h-189v112h489v-112h-189v-588h-111z" />
    <glyph glyph-name="uni0162" unicode="&#x162;" horiz-adv-x="589" 
d="M239 0v588h-189v112h489v-112h-189v-588h-111zM252 -44h85l-52 -156h-104z" />
    <glyph glyph-name="uni021A" unicode="&#x21a;" horiz-adv-x="589" 
d="M239 0v588h-189v112h489v-112h-189v-588h-111zM378 -215c1 -75 -60 -136 -135 -137l-1 102c24 0 39 12 39 34c0 23 -15 34 -39 34l-1 102c75 1 136 -60 137 -135z" />
    <glyph glyph-name="U" unicode="U" 
d="M253 0c-113 0 -203 90 -203 203l1 497h112l-1 -497c0 -50 41 -91 91 -91h94c50 0 91 41 91 91v497h112v-498c0 -112 -66 -202 -203 -202h-94z" />
    <glyph glyph-name="Uacute" unicode="&#xda;" 
d="M342 757h-85l52 156h104zM253 0c-113 0 -203 90 -203 203l1 497h112l-1 -497c0 -50 41 -91 91 -91h94c50 0 91 41 91 91v497h112v-498c0 -112 -66 -202 -203 -202h-94z" />
    <glyph glyph-name="Ucircumflex" unicode="&#xdb;" 
d="M152 827l129 73h39l129 -73l-57 -77l-91 61l-92 -61zM253 0c-113 0 -203 90 -203 203l1 497h112l-1 -497c0 -50 41 -91 91 -91h94c50 0 91 41 91 91v497h112v-498c0 -112 -66 -202 -203 -202h-94z" />
    <glyph glyph-name="Udieresis" unicode="&#xdc;" 
d="M195 750c-45 0 -80 28 -80 72c0 45 35 71 80 71c43 0 80 -26 80 -71c0 -44 -37 -72 -80 -72zM405 750c-45 0 -80 28 -80 72c0 45 35 71 80 71c43 0 80 -26 80 -71c0 -44 -37 -72 -80 -72zM253 0c-113 0 -203 90 -203 203l1 497h112l-1 -497c0 -50 41 -91 91 -91h94
c50 0 91 41 91 91v497h112v-498c0 -112 -66 -202 -203 -202h-94z" />
    <glyph glyph-name="Ugrave" unicode="&#xd9;" 
d="M258 757l-71 156h104l52 -156h-85zM253 0c-113 0 -203 90 -203 203l1 497h112l-1 -497c0 -50 41 -91 91 -91h94c50 0 91 41 91 91v497h112v-498c0 -112 -66 -202 -203 -202h-94z" />
    <glyph glyph-name="Uhungarumlaut" unicode="&#x170;" 
d="M342 757h-85l52 156h104zM482 757h-85l52 156h104zM253 0c-113 0 -203 90 -203 203l1 497h112l-1 -497c0 -50 41 -91 91 -91h94c50 0 91 41 91 91v497h112v-498c0 -112 -66 -202 -203 -202h-94z" />
    <glyph glyph-name="Umacron" unicode="&#x16a;" 
d="M165 847h269v-97h-269v97zM253 0c-113 0 -203 90 -203 203l1 497h112l-1 -497c0 -50 41 -91 91 -91h94c50 0 91 41 91 91v497h112v-498c0 -112 -66 -202 -203 -202h-94z" />
    <glyph glyph-name="Uogonek" unicode="&#x172;" 
d="M253 0c-113 0 -203 90 -203 203l1 497h112l-1 -497c0 -50 41 -91 91 -91h94c50 0 91 41 91 91v497h112v-498c0 -112 -66 -202 -203 -202h-94zM335 -44l71 -156h-104l-52 156h85z" />
    <glyph glyph-name="Uring" unicode="&#x16e;" 
d="M300 720c-70 0 -125 56 -125 126c0 68 55 124 125 124c69 0 125 -56 125 -124c0 -70 -56 -126 -125 -126zM300 807c22 0 38 17 38 39c0 21 -16 37 -38 37s-38 -16 -38 -37c0 -22 16 -39 38 -39zM253 0c-113 0 -203 90 -203 203l1 497h112l-1 -497c0 -50 41 -91 91 -91h94
c50 0 91 41 91 91v497h112v-498c0 -112 -66 -202 -203 -202h-94z" />
    <glyph glyph-name="V" unicode="V" horiz-adv-x="644" 
d="M283 0l-233 700h118l154 -473l154 473h118l-232 -700h-79z" />
    <glyph glyph-name="W" unicode="W" horiz-adv-x="700" 
d="M50 700h112v-462l143 214h92l141 -214v462h112v-700h-85l-215 317l-215 -317h-85v700z" />
    <glyph glyph-name="Wacute" unicode="&#x1e82;" horiz-adv-x="700" 
d="M403 757h-85l52 156h104zM50 700h112v-462l143 214h92l141 -214v462h112v-700h-85l-215 317l-215 -317h-85v700z" />
    <glyph glyph-name="Wcircumflex" unicode="&#x174;" horiz-adv-x="700" 
d="M202 827l129 73h39l129 -73l-57 -77l-91 61l-92 -61zM50 700h112v-462l143 214h92l141 -214v462h112v-700h-85l-215 317l-215 -317h-85v700z" />
    <glyph glyph-name="Wdieresis" unicode="&#x1e84;" horiz-adv-x="700" 
d="M245 750c-45 0 -80 28 -80 72c0 45 35 71 80 71c43 0 80 -26 80 -71c0 -44 -37 -72 -80 -72zM455 750c-45 0 -80 28 -80 72c0 45 35 71 80 71c43 0 80 -26 80 -71c0 -44 -37 -72 -80 -72zM50 700h112v-462l143 214h92l141 -214v462h112v-700h-85l-215 317l-215 -317h-85
v700z" />
    <glyph glyph-name="Wgrave" unicode="&#x1e80;" horiz-adv-x="700" 
d="M307 757l-71 156h104l52 -156h-85zM50 700h112v-462l143 214h92l141 -214v462h112v-700h-85l-215 317l-215 -317h-85v700z" />
    <glyph glyph-name="X" unicode="X" horiz-adv-x="697" 
d="M50 0l227 350l-227 350h134l165 -259l164 259h134l-227 -350l227 -350h-134l-164 259l-165 -259h-134z" />
    <glyph glyph-name="Y" unicode="Y" horiz-adv-x="641" 
d="M265 0l-1 331l-244 369h134l166 -250l166 250h135l-246 -369l1 -331h-111z" />
    <glyph glyph-name="Yacute" unicode="&#xdd;" horiz-adv-x="701" 
d="M398 757h-85l52 156h104zM265 0l-1 331l-244 369h134l166 -250l166 250h135l-246 -369l1 -331h-111z" />
    <glyph glyph-name="Ycircumflex" unicode="&#x176;" horiz-adv-x="701" 
d="M202 827l129 73h39l129 -73l-57 -77l-91 61l-92 -61zM265 0l-1 331l-244 369h134l166 -250l166 250h135l-246 -369l1 -331h-111z" />
    <glyph glyph-name="Ydieresis" unicode="&#x178;" horiz-adv-x="701" 
d="M246 750c-45 0 -80 28 -80 72c0 45 35 71 80 71c43 0 80 -26 80 -71c0 -44 -37 -72 -80 -72zM456 750c-45 0 -80 28 -80 72c0 45 35 71 80 71c43 0 80 -26 80 -71c0 -44 -37 -72 -80 -72zM265 0l-1 331l-244 369h134l166 -250l166 250h135l-246 -369l1 -331h-111z" />
    <glyph glyph-name="Ygrave" unicode="&#x1ef2;" horiz-adv-x="701" 
d="M313 757l-71 156h104l52 -156h-85zM265 0l-1 331l-244 369h134l166 -250l166 250h135l-246 -369l1 -331h-111z" />
    <glyph glyph-name="Z" unicode="Z" horiz-adv-x="653" 
d="M50 0v90l394 498h-394v112h553v-90l-394 -498h394v-112h-553z" />
    <glyph glyph-name="Zacute" unicode="&#x179;" horiz-adv-x="653" 
d="M342 757h-85l52 156h104zM50 0v90l394 498h-394v112h553v-90l-394 -498h394v-112h-553z" />
    <glyph glyph-name="Zcaron" unicode="&#x17d;" horiz-adv-x="653" 
d="M178 823l57 77l92 -61l91 61l57 -77l-129 -73h-39zM50 0v90l394 498h-394v112h553v-90l-394 -498h394v-112h-553z" />
    <glyph glyph-name="Zdotaccent" unicode="&#x17b;" horiz-adv-x="653" 
d="M327 750c-45 0 -80 28 -80 72c0 45 35 71 80 71c43 0 80 -26 80 -71c0 -44 -37 -72 -80 -72zM50 0v90l394 498h-394v112h553v-90l-394 -498h394v-112h-553z" />
    <glyph glyph-name="S.001" 
d="M50 197h112c-10 -80 47 -86 136 -86c92 0 160 13 160 85c0 157 -398 45 -398 304c0 149 78 200 238 200c171 0 252 -64 242 -200h-111c10 82 -61 88 -131 88c-75 0 -126 -12 -126 -88c0 -139 398 -38 398 -304c0 -136 -93 -196 -272 -196c-136 0 -258 37 -248 197z" />
    <glyph glyph-name="a" unicode="a" horiz-adv-x="648" 
d="M131 0h-121l276 700h77l275 -700h-119l-59 153h-272zM221 266h207l-104 266z" />
    <glyph glyph-name="aacute" unicode="&#xe1;" horiz-adv-x="648" 
d="M378 750h-85l52 156h104zM131 0h-121l276 700h77l275 -700h-119l-59 153h-272zM221 266h207l-104 266z" />
    <glyph glyph-name="abreve" unicode="&#x103;" horiz-adv-x="648" 
d="M324 750c-75 0 -136 61 -136 136h102c0 -24 12 -39 34 -39c23 0 34 15 34 39h102c0 -75 -61 -136 -136 -136zM131 0h-121l276 700h77l275 -700h-119l-59 153h-272zM221 266h207l-104 266z" />
    <glyph glyph-name="acircumflex" unicode="&#xe2;" horiz-adv-x="648" 
d="M176 827l129 73h39l129 -73l-57 -77l-91 61l-92 -61zM131 0h-121l276 700h77l275 -700h-119l-59 153h-272zM221 266h207l-104 266z" />
    <glyph glyph-name="adieresis" unicode="&#xe4;" horiz-adv-x="648" 
d="M219 750c-45 0 -80 28 -80 72c0 45 35 71 80 71c43 0 80 -26 80 -71c0 -44 -37 -72 -80 -72zM429 750c-45 0 -80 28 -80 72c0 45 35 71 80 71c43 0 80 -26 80 -71c0 -44 -37 -72 -80 -72zM131 0h-121l276 700h77l275 -700h-119l-59 153h-272zM221 266h207l-104 266z" />
    <glyph glyph-name="agrave" unicode="&#xe0;" horiz-adv-x="648" 
d="M281 757l-71 156h104l52 -156h-85zM131 0h-121l276 700h77l275 -700h-119l-59 153h-272zM221 266h207l-104 266z" />
    <glyph glyph-name="amacron" unicode="&#x101;" horiz-adv-x="648" 
d="M190 847h269v-97h-269v97zM131 0h-121l276 700h77l275 -700h-119l-59 153h-272zM221 266h207l-104 266z" />
    <glyph glyph-name="aogonek" unicode="&#x105;" horiz-adv-x="648" 
d="M131 0h-121l276 700h77l275 -700h-119l-59 153h-272zM221 266h207l-104 266zM352 -44l71 -156h-104l-52 156h85z" />
    <glyph glyph-name="aring" unicode="&#xe5;" horiz-adv-x="648" 
d="M324 750c-70 0 -125 56 -125 126c0 68 55 124 125 124c69 0 125 -56 125 -124c0 -70 -56 -126 -125 -126zM324 837c22 0 38 17 38 39c0 21 -16 37 -38 37s-38 -16 -38 -37c0 -22 16 -39 38 -39zM131 0h-121l276 700h77l275 -700h-119l-59 153h-272zM221 266h207l-104 266
z" />
    <glyph glyph-name="atilde" unicode="&#xe3;" horiz-adv-x="648" 
d="M145 768c0 79 47 133 118 133c55 0 74 -45 116 -45c28 0 38 27 38 45h87c0 -77 -39 -133 -103 -133c-54 0 -75 44 -121 44c-34 0 -46 -22 -46 -44h-89zM131 0h-121l276 700h77l275 -700h-119l-59 153h-272zM221 266h207l-104 266z" />
    <glyph glyph-name="ae" unicode="&#xe6;" horiz-adv-x="919" 
d="M50 0l276 700h543v-112h-332v-182h235v-112h-235v-182h332v-112h-445v153h-196l-57 -153h-121zM261 266l163 -1v323h-38z" />
    <glyph glyph-name="b" unicode="b" 
d="M50 0l-1 700h263c175 0 265 -204 156 -332c154 -133 76 -368 -118 -368h-300zM162 406h150c115 0 126 182 0 182h-150v-182zM162 112h188c115 0 123 182 0 182h-188v-182z" />
    <glyph glyph-name="c" unicode="c" 
d="M253 0c-115 0 -203 95 -203 203v294c0 111 90 203 203 203h94c115 0 203 -95 203 -203h-112c0 50 -41 91 -91 91h-94c-50 0 -91 -41 -91 -91v-294c0 -50 41 -91 91 -91h94c50 0 91 41 91 91h112c0 -111 -90 -203 -203 -203h-94z" />
    <glyph glyph-name="cacute" unicode="&#x107;" 
d="M342 757h-85l52 156h104zM253 0c-115 0 -203 95 -203 203v294c0 111 90 203 203 203h94c115 0 203 -95 203 -203h-112c0 50 -41 91 -91 91h-94c-50 0 -91 -41 -91 -91v-294c0 -50 41 -91 91 -91h94c50 0 91 41 91 91h112c0 -111 -90 -203 -203 -203h-94z" />
    <glyph glyph-name="ccaron" unicode="&#x10d;" 
d="M151 823l57 77l92 -61l91 61l57 -77l-129 -73h-39zM253 0c-115 0 -203 95 -203 203v294c0 111 90 203 203 203h94c115 0 203 -95 203 -203h-112c0 50 -41 91 -91 91h-94c-50 0 -91 -41 -91 -91v-294c0 -50 41 -91 91 -91h94c50 0 91 41 91 91h112
c0 -111 -90 -203 -203 -203h-94z" />
    <glyph glyph-name="ccedilla" unicode="&#xe7;" 
d="M253 0c-115 0 -203 95 -203 203v294c0 111 90 203 203 203h94c115 0 203 -95 203 -203h-112c0 50 -41 91 -91 91h-94c-50 0 -91 -41 -91 -91v-294c0 -50 41 -91 91 -91h94c50 0 91 41 91 91h112c0 -111 -90 -203 -203 -203h-94zM279 -42h85l-52 -156h-104z" />
    <glyph glyph-name="cdotaccent" unicode="&#x10b;" 
d="M300 750c-45 0 -80 28 -80 72c0 45 35 71 80 71c43 0 80 -26 80 -71c0 -44 -37 -72 -80 -72zM253 0c-115 0 -203 95 -203 203v294c0 111 90 203 203 203h94c115 0 203 -95 203 -203h-112c0 50 -41 91 -91 91h-94c-50 0 -91 -41 -91 -91v-294c0 -50 41 -91 91 -91h94
c50 0 91 41 91 91h112c0 -111 -90 -203 -203 -203h-94z" />
    <glyph glyph-name="d" unicode="d" 
d="M50 0v700h297c112 0 201 -90 203 -201v-298c-2 -111 -91 -201 -203 -201h-297zM162 112h185c50 0 91 41 91 91v294c0 50 -41 91 -91 91h-185v-476z" />
    <glyph glyph-name="eth" unicode="&#xf0;" horiz-adv-x="709" 
d="M456 700c112 0 201 -90 203 -201v-298c-2 -111 -91 -201 -203 -201h-297v302h-113v96h113v302h297zM547 203v294c0 50 -41 91 -91 91h-185v-190h116v-96h-116v-190h185c50 0 91 41 91 91z" />
    <glyph glyph-name="dcaron" unicode="&#x10f;" 
d="M152 823l57 77l92 -61l91 61l57 -77l-129 -73h-39zM50 0v700h297c112 0 201 -90 203 -201v-298c-2 -111 -91 -201 -203 -201h-297zM162 112h185c50 0 91 41 91 91v294c0 50 -41 91 -91 91h-185v-476z" />
    <glyph glyph-name="dcroat" unicode="&#x111;" 
d="M347 700c112 0 201 -90 203 -201v-298c-2 -111 -91 -201 -203 -201h-297v302h-172v96h172v302h297zM438 203v294c0 50 -41 91 -91 91h-185v-190h164v-96h-164v-190h185c50 0 91 41 91 91z" />
    <glyph glyph-name="e" unicode="e" horiz-adv-x="544" 
d="M49 0l1 700h464v-112h-352v-182h255v-112h-255v-182h352v-112h-465z" />
    <glyph glyph-name="eacute" unicode="&#xe9;" horiz-adv-x="544" 
d="M342 757h-85l52 156h104zM49 0l1 700h464v-112h-352v-182h255v-112h-255v-182h352v-112h-465z" />
    <glyph glyph-name="ecaron" unicode="&#x11b;" 
d="M151 823l57 77l92 -61l91 61l57 -77l-129 -73h-39zM49 0l1 700h464v-112h-352v-182h255v-112h-255v-182h352v-112h-465z" />
    <glyph glyph-name="ecircumflex" unicode="&#xea;" horiz-adv-x="544" 
d="M123 827l129 73h39l129 -73l-57 -77l-91 61l-92 -61zM49 0l1 700h464v-112h-352v-182h255v-112h-255v-182h352v-112h-465z" />
    <glyph glyph-name="edieresis" unicode="&#xeb;" horiz-adv-x="544" 
d="M166 750c-45 0 -80 28 -80 72c0 45 35 71 80 71c43 0 80 -26 80 -71c0 -44 -37 -72 -80 -72zM376 750c-45 0 -80 28 -80 72c0 45 35 71 80 71c43 0 80 -26 80 -71c0 -44 -37 -72 -80 -72zM49 0l1 700h464v-112h-352v-182h255v-112h-255v-182h352v-112h-465z" />
    <glyph glyph-name="edotaccent" unicode="&#x117;" 
d="M300 750c-45 0 -80 28 -80 72c0 45 35 71 80 71c43 0 80 -26 80 -71c0 -44 -37 -72 -80 -72zM49 0l1 700h464v-112h-352v-182h255v-112h-255v-182h352v-112h-465z" />
    <glyph glyph-name="egrave" unicode="&#xe8;" horiz-adv-x="544" 
d="M258 757l-71 156h104l52 -156h-85zM49 0l1 700h464v-112h-352v-182h255v-112h-255v-182h352v-112h-465z" />
    <glyph glyph-name="emacron" unicode="&#x113;" 
d="M165 847h269v-97h-269v97zM49 0l1 700h464v-112h-352v-182h255v-112h-255v-182h352v-112h-465z" />
    <glyph glyph-name="eogonek" unicode="&#x119;" 
d="M49 0l1 700h464v-112h-352v-182h255v-112h-255v-182h352v-112h-465zM352 -44l71 -156h-104l-52 156h85z" />
    <glyph glyph-name="f" unicode="f" horiz-adv-x="544" 
d="M50 0v700h444v-112h-332v-182h235v-112h-235v-294h-112z" />
    <glyph glyph-name="g" unicode="g" 
d="M253 0c-115 0 -203 95 -203 203v294c0 111 90 203 203 203h94c115 0 203 -75 203 -183h-112c0 50 -41 71 -91 71h-94c-50 0 -91 -41 -91 -91v-294c0 -50 41 -91 91 -91h94c50 0 91 41 91 91v51h-120v112h232v-163c0 -111 -90 -203 -203 -203h-94z" />
    <glyph glyph-name="gbreve" unicode="&#x11f;" 
d="M306 750c-75 0 -136 61 -136 136h102c0 -24 12 -39 34 -39c23 0 34 15 34 39h102c0 -75 -61 -136 -136 -136zM253 0c-115 0 -203 95 -203 203v294c0 111 90 203 203 203h94c115 0 203 -75 203 -183h-112c0 50 -41 71 -91 71h-94c-50 0 -91 -41 -91 -91v-294
c0 -50 41 -91 91 -91h94c50 0 91 41 91 91v51h-120v112h232v-163c0 -111 -90 -203 -203 -203h-94z" />
    <glyph glyph-name="gcommaaccent" unicode="&#x123;" 
d="M300 750c-45 0 -80 28 -80 72c-2 46 5 91 24 120c32 46 75 55 118 55v-49c-48 0 -66 -27 -71 -55h9c43 0 80 -26 80 -71c0 -44 -37 -72 -80 -72zM318 254v112h232v-163c0 -111 -90 -203 -203 -203h-94c-115 0 -203 95 -203 203v294c0 111 90 203 203 203h94
c115 0 203 -75 203 -183h-112c0 50 -41 71 -91 71h-94c-50 0 -91 -41 -91 -91v-294c0 -50 41 -91 91 -91h94c50 0 91 41 91 91v51h-120z" />
    <glyph glyph-name="gdotaccent" unicode="&#x121;" 
d="M300 750c-45 0 -80 28 -80 72c0 45 35 71 80 71c43 0 80 -26 80 -71c0 -44 -37 -72 -80 -72zM253 0c-115 0 -203 95 -203 203v294c0 111 90 203 203 203h94c115 0 203 -75 203 -183h-112c0 50 -41 71 -91 71h-94c-50 0 -91 -41 -91 -91v-294c0 -50 41 -91 91 -91h94
c50 0 91 41 91 91v51h-120v112h232v-163c0 -111 -90 -203 -203 -203h-94z" />
    <glyph glyph-name="h" unicode="h" 
d="M50 0v700h112v-294h276v294h112v-700h-112v294h-276v-294h-112z" />
    <glyph glyph-name="hbar" unicode="&#x127;" horiz-adv-x="679" 
d="M669 606v-106h-78v-500h-112v294h-276v-294h-112v500h-81v106h81v94h112v-94h276v94h112v-94h78zM479 406v94h-276v-94h276z" />
    <glyph glyph-name="i" unicode="i" horiz-adv-x="258" 
d="M75 0v700h108v-700h-108z" />
    <glyph glyph-name="dotlessi" unicode="&#x131;" horiz-adv-x="258" 
d="M75 0v700h108v-700h-108z" />
    <glyph glyph-name="iacute" unicode="&#xed;" horiz-adv-x="208" 
d="M175 757h-85l52 156h104zM75 0v700h108v-700h-108z" />
    <glyph glyph-name="icircumflex" unicode="&#xee;" horiz-adv-x="247" 
d="M-25 827l129 73h39l129 -73l-57 -77l-91 61l-92 -61zM75 0v700h108v-700h-108z" />
    <glyph glyph-name="idieresis" unicode="&#xef;" horiz-adv-x="270" 
d="M30 750c-45 0 -80 28 -80 72c0 45 35 71 80 71c43 0 80 -26 80 -71c0 -44 -37 -72 -80 -72zM240 750c-45 0 -80 28 -80 72c0 45 35 71 80 71c43 0 80 -26 80 -71c0 -44 -37 -72 -80 -72zM75 0v700h108v-700h-108z" />
    <glyph glyph-name="i.loclTRK" horiz-adv-x="260" 
d="M130 750c-45 0 -80 28 -80 72c0 45 35 71 80 71c43 0 80 -26 80 -71c0 -44 -37 -72 -80 -72zM75 0v700h108v-700h-108z" />
    <glyph glyph-name="igrave" unicode="&#xec;" horiz-adv-x="256" 
d="M83 757l-71 156h104l52 -156h-85zM75 0v700h108v-700h-108z" />
    <glyph glyph-name="imacron" unicode="&#x12b;" horiz-adv-x="251" 
d="M-9 847h269v-97h-269v97zM75 0v700h108v-700h-108z" />
    <glyph glyph-name="iogonek" unicode="&#x12f;" horiz-adv-x="233" 
d="M75 0v700h108v-700h-108zM165 -39l62 -137h-91l-46 137h75z" />
    <glyph glyph-name="j" unicode="j" 
d="M253 0c-113 0 -203 92 -203 203h112c0 -50 41 -91 91 -91h94c50 0 91 41 91 91v497h112v-497c0 -108 -88 -203 -203 -203h-94z" />
    <glyph glyph-name="k" unicode="k" horiz-adv-x="687" 
d="M489 0l-263 321l-64 -62v-259h-112v700h112v-306l314 306h156l-314 -307l319 -393h-148z" />
    <glyph glyph-name="kcommaaccent" unicode="&#x137;" 
d="M489 0l-263 321l-64 -62v-259h-112v700h112v-306l314 306h156l-314 -307l319 -393h-148zM378 -215c1 -75 -60 -136 -135 -137l-1 102c24 0 39 12 39 34c0 23 -15 34 -39 34l-1 102c75 1 136 -60 137 -135z" />
    <glyph glyph-name="l" unicode="l" horiz-adv-x="525" 
d="M50 0v700h112v-588h313v-112h-425z" />
    <glyph glyph-name="lacute" unicode="&#x13a;" horiz-adv-x="545" 
d="M149 757h-85l52 156h104zM50 0v700h112v-588h313v-112h-425z" />
    <glyph glyph-name="lcaron" unicode="&#x13e;" horiz-adv-x="545" 
d="M426 593c1 -75 -60 -136 -135 -137l-1 102c24 0 39 12 39 34c0 23 -15 34 -39 34l-1 102c75 1 136 -60 137 -135zM50 0v700h112v-588h313v-112h-425z" />
    <glyph glyph-name="lcommaaccent" unicode="&#x13c;" 
d="M50 0v700h112v-588h313v-112h-425zM378 -215c1 -75 -60 -136 -135 -137l-1 102c24 0 39 12 39 34c0 23 -15 34 -39 34l-1 102c75 1 136 -60 137 -135z" />
    <glyph glyph-name="lslash" unicode="&#x142;" horiz-adv-x="525" 
d="M162 112h313v-112h-425v289l-101 -71l-55 79l156 109v294h112v-215l99 69l55 -79l-154 -108v-255z" />
    <glyph glyph-name="m" unicode="m" horiz-adv-x="700" 
d="M50 0v700h85l215 -317l215 317h85v-700h-112v462l-141 -214h-92l-143 214v-462h-112z" />
    <glyph glyph-name="n" unicode="n" 
d="M50 0v700h85l303 -454v454h112v-700h-87l-301 454v-454h-112z" />
    <glyph glyph-name="nacute" unicode="&#x144;" 
d="M342 757h-85l52 156h104zM50 0v700h85l303 -454v454h112v-700h-87l-301 454v-454h-112z" />
    <glyph glyph-name="ncaron" unicode="&#x148;" 
d="M151 823l57 77l92 -61l91 61l57 -77l-129 -73h-39zM50 0v700h85l303 -454v454h112v-700h-87l-301 454v-454h-112z" />
    <glyph glyph-name="ncommaaccent" unicode="&#x146;" 
d="M50 0v700h85l303 -454v454h112v-700h-87l-301 454v-454h-112zM378 -215c1 -75 -60 -136 -135 -137l-1 102c24 0 39 12 39 34c0 23 -15 34 -39 34l-1 102c75 1 136 -60 137 -135z" />
    <glyph glyph-name="eng" unicode="&#x14b;" 
d="M438 700h112v-761c0 -108 -88 -203 -203 -203c-120 0 -208 92 -208 203h112c0 -52 41 -91 96 -91c50 0 91 41 91 91v99l-276 416v-454h-112v700h85l303 -454v454z" />
    <glyph glyph-name="ntilde" unicode="&#xf1;" 
d="M121 768c0 79 47 133 118 133c55 0 74 -45 116 -45c28 0 38 27 38 45h87c0 -77 -39 -133 -103 -133c-54 0 -75 44 -121 44c-34 0 -46 -22 -46 -44h-89zM50 0v700h85l303 -454v454h112v-700h-87l-301 454v-454h-112z" />
    <glyph glyph-name="o" unicode="o" 
d="M253 0c-112 0 -203 90 -203 203l1 295c0 111 89 202 202 202h95c109 0 199 -89 202 -199v-300c-1 -111 -91 -201 -202 -201h-95zM253 112h95c50 0 91 40 91 91v293c0 50 -41 92 -91 92h-95c-50 0 -91 -40 -91 -91v-294c0 -51 40 -91 91 -91z" />
    <glyph glyph-name="oacute" unicode="&#xf3;" 
d="M342 757h-85l52 156h104zM253 0c-112 0 -203 90 -203 203l1 295c0 111 89 202 202 202h95c109 0 199 -89 202 -199v-300c-1 -111 -91 -201 -202 -201h-95zM253 112h95c50 0 91 40 91 91v293c0 50 -41 92 -91 92h-95c-50 0 -91 -40 -91 -91v-294c0 -51 40 -91 91 -91z" />
    <glyph glyph-name="ocircumflex" unicode="&#xf4;" 
d="M152 827l129 73h39l129 -73l-57 -77l-91 61l-92 -61zM253 0c-112 0 -203 90 -203 203l1 295c0 111 89 202 202 202h95c109 0 199 -89 202 -199v-300c-1 -111 -91 -201 -202 -201h-95zM253 112h95c50 0 91 40 91 91v293c0 50 -41 92 -91 92h-95c-50 0 -91 -40 -91 -91
v-294c0 -51 40 -91 91 -91z" />
    <glyph glyph-name="odieresis" unicode="&#xf6;" 
d="M195 750c-45 0 -80 28 -80 72c0 45 35 71 80 71c43 0 80 -26 80 -71c0 -44 -37 -72 -80 -72zM405 750c-45 0 -80 28 -80 72c0 45 35 71 80 71c43 0 80 -26 80 -71c0 -44 -37 -72 -80 -72zM253 0c-112 0 -203 90 -203 203l1 295c0 111 89 202 202 202h95
c109 0 199 -89 202 -199v-300c-1 -111 -91 -201 -202 -201h-95zM253 112h95c50 0 91 40 91 91v293c0 50 -41 92 -91 92h-95c-50 0 -91 -40 -91 -91v-294c0 -51 40 -91 91 -91z" />
    <glyph glyph-name="ograve" unicode="&#xf2;" 
d="M258 757l-71 156h104l52 -156h-85zM253 0c-112 0 -203 90 -203 203l1 295c0 111 89 202 202 202h95c109 0 199 -89 202 -199v-300c-1 -111 -91 -201 -202 -201h-95zM253 112h95c50 0 91 40 91 91v293c0 50 -41 92 -91 92h-95c-50 0 -91 -40 -91 -91v-294
c0 -51 40 -91 91 -91z" />
    <glyph glyph-name="ohungarumlaut" unicode="&#x151;" 
d="M275 757h-85l52 156h104zM415 757h-85l52 156h104zM253 0c-112 0 -203 90 -203 203l1 295c0 111 89 202 202 202h95c109 0 199 -89 202 -199v-300c-1 -111 -91 -201 -202 -201h-95zM253 112h95c50 0 91 40 91 91v293c0 50 -41 92 -91 92h-95c-50 0 -91 -40 -91 -91v-294
c0 -51 40 -91 91 -91z" />
    <glyph glyph-name="omacron" unicode="&#x14d;" 
d="M165 847h269v-97h-269v97zM253 0c-112 0 -203 90 -203 203l1 295c0 111 89 202 202 202h95c109 0 199 -89 202 -199v-300c-1 -111 -91 -201 -202 -201h-95zM253 112h95c50 0 91 40 91 91v293c0 50 -41 92 -91 92h-95c-50 0 -91 -40 -91 -91v-294c0 -51 40 -91 91 -91z
" />
    <glyph glyph-name="oslash" unicode="&#xf8;" 
d="M625 724l-102 -126c16 -29 26 -62 27 -97v-300c-1 -111 -91 -201 -202 -201h-95c-62 0 -118 28 -155 72l-66 -82h-97l124 153c-6 19 -9 39 -9 60l1 295c0 111 89 202 202 202h95c47 0 90 -17 125 -44l55 68h97zM162 497v-226l241 298c-15 12 -34 19 -55 19h-95
c-50 0 -91 -40 -91 -91zM439 203v291l-268 -332c15 -30 46 -50 82 -50h95c50 0 91 40 91 91z" />
    <glyph glyph-name="otilde" unicode="&#xf5;" 
d="M121 768c0 79 47 133 118 133c55 0 74 -45 116 -45c28 0 38 27 38 45h87c0 -77 -39 -133 -103 -133c-54 0 -75 44 -121 44c-34 0 -46 -22 -46 -44h-89zM253 0c-112 0 -203 90 -203 203l1 295c0 111 89 202 202 202h95c109 0 199 -89 202 -199v-300
c-1 -111 -91 -201 -202 -201h-95zM253 112h95c50 0 91 40 91 91v293c0 50 -41 92 -91 92h-95c-50 0 -91 -40 -91 -91v-294c0 -51 40 -91 91 -91z" />
    <glyph glyph-name="oe" unicode="&#x153;" horiz-adv-x="839" 
d="M253 0c-112 0 -203 90 -203 203l1 295c0 111 89 202 202 202h536v-112h-332v-182h235v-112h-235v-182h332v-112h-536zM253 112h91l1 476h-92c-50 0 -91 -40 -91 -91v-294c0 -51 40 -91 91 -91z" />
    <glyph glyph-name="p" unicode="p" 
d="M50 0v700h301c266 0 265 -446 0 -446h-189v-254h-112zM162 366h189c114 0 126 222 0 222h-189v-222z" />
    <glyph glyph-name="thorn" unicode="&#xfe;" 
d="M351 553c266 0 265 -406 0 -406h-189v-147h-112v700h112v-147h189zM351 259c114 0 126 182 0 182h-189v-182h189z" />
    <glyph glyph-name="q" unicode="q" 
d="M586 52l-85 -85l-57 57c-29 -15 -61 -24 -96 -24h-95c-112 0 -203 90 -203 203l1 295c0 111 89 202 202 202h95c109 0 199 -89 202 -199v-300c0 -33 -8 -63 -22 -91zM348 112h8l-65 65l85 85l63 -63v4v293c0 50 -41 92 -91 92h-95c-50 0 -91 -40 -91 -91v-294
c0 -51 40 -91 91 -91h95z" />
    <glyph glyph-name="r" unicode="r" horiz-adv-x="607" 
d="M50 0v700h295c290 0 278 -420 50 -440l181 -260h-130l-168 254h-116v-254h-112zM162 366h173c145 0 135 222 10 222h-183v-222z" />
    <glyph glyph-name="racute" unicode="&#x155;" 
d="M342 757h-85l52 156h104zM50 0v700h295c290 0 278 -420 50 -440l181 -260h-130l-168 254h-116v-254h-112zM162 366h173c145 0 135 222 10 222h-183v-222z" />
    <glyph glyph-name="rcaron" unicode="&#x159;" 
d="M151 823l57 77l92 -61l91 61l57 -77l-129 -73h-39zM50 0v700h295c290 0 278 -420 50 -440l181 -260h-130l-168 254h-116v-254h-112zM162 366h173c145 0 135 222 10 222h-183v-222z" />
    <glyph glyph-name="rcommaaccent" unicode="&#x157;" 
d="M50 0v700h295c290 0 278 -420 50 -440l181 -260h-130l-168 254h-116v-254h-112zM162 366h173c145 0 135 222 10 222h-183v-222zM378 -195c1 -75 -60 -136 -135 -137l-1 102c24 0 39 12 39 34c0 23 -15 34 -39 34l-1 102c75 1 136 -60 137 -135z" />
    <glyph glyph-name="s" unicode="s" 
d="M70 197h112c-10 -80 57 -86 116 -86c72 0 140 14 140 85c0 167 -358 45 -358 304c0 149 68 200 218 200c141 0 232 -64 222 -200h-111c10 82 -46 98 -106 98c-55 0 -111 -16 -111 -98c0 -143 358 -38 358 -304c0 -136 -93 -196 -252 -196c-106 0 -238 37 -228 197z" />
    <glyph glyph-name="sacute" unicode="&#x15b;" 
d="M342 757h-85l52 156h104zM70 197h112c-10 -80 57 -86 116 -86c72 0 140 14 140 85c0 167 -358 45 -358 304c0 149 68 200 218 200c141 0 232 -64 222 -200h-111c10 82 -46 98 -106 98c-55 0 -111 -16 -111 -98c0 -143 358 -38 358 -304c0 -136 -93 -196 -252 -196
c-106 0 -238 37 -228 197z" />
    <glyph glyph-name="scaron" unicode="&#x161;" 
d="M150 823l57 77l92 -61l91 61l57 -77l-129 -73h-39zM70 197h112c-10 -80 57 -86 116 -86c72 0 140 14 140 85c0 167 -358 45 -358 304c0 149 68 200 218 200c141 0 232 -64 222 -200h-111c10 82 -46 98 -106 98c-55 0 -111 -16 -111 -98c0 -143 358 -38 358 -304
c0 -136 -93 -196 -252 -196c-106 0 -238 37 -228 197z" />
    <glyph glyph-name="scedilla" unicode="&#x15f;" 
d="M70 197h112c-10 -80 57 -86 116 -86c72 0 140 14 140 85c0 167 -358 45 -358 304c0 149 68 200 218 200c141 0 232 -64 222 -200h-111c10 82 -46 98 -106 98c-55 0 -111 -16 -111 -98c0 -143 358 -38 358 -304c0 -136 -93 -196 -252 -196c-106 0 -238 37 -228 197z
M274 -44h85l-52 -156h-104z" />
    <glyph glyph-name="scommaaccent" unicode="&#x219;" 
d="M70 197h112c-10 -80 57 -86 116 -86c72 0 140 14 140 85c0 167 -358 45 -358 304c0 149 68 200 218 200c141 0 232 -64 222 -200h-111c10 82 -46 98 -106 98c-55 0 -111 -16 -111 -98c0 -143 358 -38 358 -304c0 -136 -93 -196 -252 -196c-106 0 -238 37 -228 197z
M378 -215c1 -75 -60 -136 -135 -137l-1 102c24 0 39 12 39 34c0 23 -15 34 -39 34l-1 102c75 1 136 -60 137 -135z" />
    <glyph glyph-name="germandbls" unicode="&#xdf;" 
d="M255 0v112h75c115 0 123 182 0 182h-75v112h37c115 0 126 187 0 187h-21c-50 0 -88 -38 -88 -88v-505h-112v505c0 116 84 200 200 200h21c175 0 265 -209 156 -337c154 -133 76 -368 -118 -368h-75z" />
    <glyph glyph-name="t" unicode="t" horiz-adv-x="589" 
d="M239 0v588h-189v112h489v-112h-189v-588h-111z" />
    <glyph glyph-name="tbar" unicode="&#x167;" 
d="M539 588h-189v-160h174v-96h-174v-332h-111v332h-163v96h163v160h-189v112h489v-112z" />
    <glyph glyph-name="tcaron" unicode="&#x165;" horiz-adv-x="589" 
d="M146 823l57 77l92 -61l91 61l57 -77l-129 -73h-39zM239 0v588h-189v112h489v-112h-189v-588h-111z" />
    <glyph glyph-name="uni0163" unicode="&#x163;" 
d="M239 0v588h-189v112h489v-112h-189v-588h-111zM251 -44h85l-52 -156h-104z" />
    <glyph glyph-name="uni021B" unicode="&#x21b;" 
d="M239 0v588h-189v112h489v-112h-189v-588h-111zM378 -215c1 -75 -60 -136 -135 -137l-1 102c24 0 39 12 39 34c0 23 -15 34 -39 34l-1 102c75 1 136 -60 137 -135z" />
    <glyph glyph-name="u" unicode="u" 
d="M253 0c-113 0 -203 90 -203 203l1 497h112l-1 -497c0 -50 41 -91 91 -91h94c50 0 91 41 91 91v497h112v-498c0 -112 -66 -202 -203 -202h-94z" />
    <glyph glyph-name="uacute" unicode="&#xfa;" 
d="M342 757h-85l52 156h104zM253 0c-113 0 -203 90 -203 203l1 497h112l-1 -497c0 -50 41 -91 91 -91h94c50 0 91 41 91 91v497h112v-498c0 -112 -66 -202 -203 -202h-94z" />
    <glyph glyph-name="ucircumflex" unicode="&#xfb;" 
d="M152 827l129 73h39l129 -73l-57 -77l-91 61l-92 -61zM253 0c-113 0 -203 90 -203 203l1 497h112l-1 -497c0 -50 41 -91 91 -91h94c50 0 91 41 91 91v497h112v-498c0 -112 -66 -202 -203 -202h-94z" />
    <glyph glyph-name="udieresis" unicode="&#xfc;" 
d="M195 750c-45 0 -80 28 -80 72c0 45 35 71 80 71c43 0 80 -26 80 -71c0 -44 -37 -72 -80 -72zM405 750c-45 0 -80 28 -80 72c0 45 35 71 80 71c43 0 80 -26 80 -71c0 -44 -37 -72 -80 -72zM253 0c-113 0 -203 90 -203 203l1 497h112l-1 -497c0 -50 41 -91 91 -91h94
c50 0 91 41 91 91v497h112v-498c0 -112 -66 -202 -203 -202h-94z" />
    <glyph glyph-name="ugrave" unicode="&#xf9;" 
d="M258 757l-71 156h104l52 -156h-85zM253 0c-113 0 -203 90 -203 203l1 497h112l-1 -497c0 -50 41 -91 91 -91h94c50 0 91 41 91 91v497h112v-498c0 -112 -66 -202 -203 -202h-94z" />
    <glyph glyph-name="uhungarumlaut" unicode="&#x171;" 
d="M273 757h-85l52 156h104zM413 757h-85l52 156h104zM253 0c-113 0 -203 90 -203 203l1 497h112l-1 -497c0 -50 41 -91 91 -91h94c50 0 91 41 91 91v497h112v-498c0 -112 -66 -202 -203 -202h-94z" />
    <glyph glyph-name="umacron" unicode="&#x16b;" 
d="M165 847h269v-97h-269v97zM253 0c-113 0 -203 90 -203 203l1 497h112l-1 -497c0 -50 41 -91 91 -91h94c50 0 91 41 91 91v497h112v-498c0 -112 -66 -202 -203 -202h-94z" />
    <glyph glyph-name="uogonek" unicode="&#x173;" 
d="M253 0c-113 0 -203 90 -203 203l1 497h112l-1 -497c0 -50 41 -91 91 -91h94c50 0 91 41 91 91v497h112v-498c0 -112 -66 -202 -203 -202h-94zM352 -44l71 -156h-104l-52 156h85z" />
    <glyph glyph-name="uring" unicode="&#x16f;" 
d="M305 729c-70 0 -125 56 -125 126c0 68 55 124 125 124c69 0 125 -56 125 -124c0 -70 -56 -126 -125 -126zM305 816c22 0 38 17 38 39c0 21 -16 37 -38 37s-38 -16 -38 -37c0 -22 16 -39 38 -39zM253 0c-113 0 -203 90 -203 203l1 497h112l-1 -497c0 -50 41 -91 91 -91h94
c50 0 91 41 91 91v497h112v-498c0 -112 -66 -202 -203 -202h-94z" />
    <glyph glyph-name="v" unicode="v" horiz-adv-x="644" 
d="M283 0l-233 700h118l154 -473l154 473h118l-232 -700h-79z" />
    <glyph glyph-name="w" unicode="w" horiz-adv-x="700" 
d="M50 700h112v-462l143 214h92l141 -214v462h112v-700h-85l-215 317l-215 -317h-85v700z" />
    <glyph glyph-name="wacute" unicode="&#x1e83;" horiz-adv-x="700" 
d="M403 757h-85l52 156h104zM50 700h112v-462l143 214h92l141 -214v462h112v-700h-85l-215 317l-215 -317h-85v700z" />
    <glyph glyph-name="wcircumflex" unicode="&#x175;" horiz-adv-x="700" 
d="M202 827l129 73h39l129 -73l-57 -77l-91 61l-92 -61zM50 700h112v-462l143 214h92l141 -214v462h112v-700h-85l-215 317l-215 -317h-85v700z" />
    <glyph glyph-name="wdieresis" unicode="&#x1e85;" horiz-adv-x="700" 
d="M245 750c-45 0 -80 28 -80 72c0 45 35 71 80 71c43 0 80 -26 80 -71c0 -44 -37 -72 -80 -72zM455 750c-45 0 -80 28 -80 72c0 45 35 71 80 71c43 0 80 -26 80 -71c0 -44 -37 -72 -80 -72zM50 700h112v-462l143 214h92l141 -214v462h112v-700h-85l-215 317l-215 -317h-85
v700z" />
    <glyph glyph-name="wgrave" unicode="&#x1e81;" horiz-adv-x="700" 
d="M307 757l-71 156h104l52 -156h-85zM50 700h112v-462l143 214h92l141 -214v462h112v-700h-85l-215 317l-215 -317h-85v700z" />
    <glyph glyph-name="x" unicode="x" horiz-adv-x="697" 
d="M50 0l227 350l-227 350h134l165 -259l164 259h134l-227 -350l227 -350h-134l-164 259l-165 -259h-134z" />
    <glyph glyph-name="y" unicode="y" horiz-adv-x="641" 
d="M265 0l-1 331l-244 369h134l166 -250l166 250h135l-246 -369l1 -331h-111z" />
    <glyph glyph-name="yacute" unicode="&#xfd;" horiz-adv-x="701" 
d="M398 757h-85l52 156h104zM265 0l-1 331l-244 369h134l166 -250l166 250h135l-246 -369l1 -331h-111z" />
    <glyph glyph-name="ycircumflex" unicode="&#x177;" horiz-adv-x="701" 
d="M202 827l129 73h39l129 -73l-57 -77l-91 61l-92 -61zM265 0l-1 331l-244 369h134l166 -250l166 250h135l-246 -369l1 -331h-111z" />
    <glyph glyph-name="ydieresis" unicode="&#xff;" horiz-adv-x="701" 
d="M246 750c-45 0 -80 28 -80 72c0 45 35 71 80 71c43 0 80 -26 80 -71c0 -44 -37 -72 -80 -72zM456 750c-45 0 -80 28 -80 72c0 45 35 71 80 71c43 0 80 -26 80 -71c0 -44 -37 -72 -80 -72zM265 0l-1 331l-244 369h134l166 -250l166 250h135l-246 -369l1 -331h-111z" />
    <glyph glyph-name="ygrave" unicode="&#x1ef3;" horiz-adv-x="701" 
d="M313 757l-71 156h104l52 -156h-85zM265 0l-1 331l-244 369h134l166 -250l166 250h135l-246 -369l1 -331h-111z" />
    <glyph glyph-name="z" unicode="z" horiz-adv-x="653" 
d="M50 0v90l394 498h-394v112h553v-90l-394 -498h394v-112h-553z" />
    <glyph glyph-name="zacute" unicode="&#x17a;" 
d="M342 757h-85l52 156h104zM50 0v90l394 498h-394v112h553v-90l-394 -498h394v-112h-553z" />
    <glyph glyph-name="zcaron" unicode="&#x17e;" 
d="M151 823l57 77l92 -61l91 61l57 -77l-129 -73h-39zM50 0v90l394 498h-394v112h553v-90l-394 -498h394v-112h-553z" />
    <glyph glyph-name="zdotaccent" unicode="&#x17c;" 
d="M340 750c-45 0 -80 28 -80 72c0 45 35 71 80 71c43 0 80 -26 80 -71c0 -44 -37 -72 -80 -72zM50 0v90l394 498h-394v112h553v-90l-394 -498h394v-112h-553z" />
    <glyph glyph-name="zero" unicode="0" horiz-adv-x="625" 
d="M310 -5c-144 0 -260 96 -260 260v190c0 166 115 260 266 260c143 0 259 -96 259 -260v-190c0 -167 -119 -260 -259 -260h-6zM310 104h6c83 0 150 48 150 151v190c0 103 -67 151 -150 151c-92 0 -157 -48 -157 -151v-190c0 -103 68 -151 151 -151z" />
    <glyph glyph-name="one" unicode="1" horiz-adv-x="323" 
d="M164 0v546l-90 -60l-60 90l187 124h72v-700h-109z" />
    <glyph glyph-name="two" unicode="2" horiz-adv-x="598" 
d="M50 0v55c0 281 386 295 386 452c0 62 -59 84 -121 84c-79 0 -127 -40 -119 -89h-109c-10 110 89 198 238 198c150 0 216 -67 216 -193c0 -219 -348 -241 -348 -398h345v-109h-488z" />
    <glyph glyph-name="three" unicode="3" horiz-adv-x="619" 
d="M217 0c-94 0 -167 75 -167 172h109c0 -40 27 -63 58 -63h150c122 0 124 186 0 186h-104v110h84c124 0 122 186 0 186h-112c-32 0 -58 -26 -58 -58h-109c0 92 75 167 167 167h112c180 0 266 -215 147 -341c147 -121 62 -359 -127 -359h-150z" />
    <glyph glyph-name="four" unicode="4" horiz-adv-x="599" 
d="M373 0v123l-323 1v88l351 488h84v-465h64v-112h-64v-123h-112zM373 235v236l-169 -236h169z" />
    <glyph glyph-name="five" unicode="5" horiz-adv-x="619" 
d="M217 0c-94 0 -167 74 -167 173h109c0 -41 26 -64 58 -64h150c51 0 93 43 93 94c0 80 -36 118 -93 118h-305l53 379l402 -5v-108l-307 5l-23 -162h180c125 0 202 -93 202 -227c0 -111 -91 -203 -202 -203h-150z" />
    <glyph glyph-name="six" unicode="6" horiz-adv-x="620" 
d="M248 0c-109 0 -198 88 -198 198v304c0 110 89 198 198 198h106c108 0 198 -88 198 -198h-109c0 49 -40 89 -89 89h-106c-49 0 -89 -40 -89 -89v-106c17 18 54 29 83 29h136c106 0 192 -86 192 -191v-36c0 -110 -89 -198 -198 -198h-124zM248 109h124c49 0 89 40 89 89v36
c0 45 -37 82 -83 82h-136c-45 0 -83 -37 -83 -82v-36c0 -49 40 -89 89 -89z" />
    <glyph glyph-name="seven" unicode="7" horiz-adv-x="579" 
d="M244 0h-124l268 590l-338 1v108l479 1v-83z" />
    <glyph glyph-name="eight" unicode="8" horiz-adv-x="618" 
d="M252 0c-111 0 -201 91 -202 202v1c0 66 31 123 85 165c-29 35 -47 80 -48 130v1c0 108 91 201 202 201h39c112 0 201 -90 203 -201h-1v-1c0 -50 -18 -95 -48 -131c50 -30 86 -99 86 -164c-1 -101 -89 -203 -183 -203h-133zM289 404h39c54 0 94 46 94 94
c-1 51 -42 93 -94 93h-39c-51 0 -93 -42 -93 -93c0 -50 42 -94 93 -94zM252 109h114c51 0 93 42 93 94c0 51 -42 93 -93 93h-114c-51 0 -93 -42 -93 -93c0 -52 42 -94 93 -94z" />
    <glyph glyph-name="nine" unicode="9" horiz-adv-x="619" 
d="M248 0c-110 0 -198 89 -198 198h109c0 -49 40 -89 89 -89h123c49 0 89 40 89 89v96c-25 -13 -53 -19 -82 -19h-137c-105 0 -191 86 -191 191v36c0 110 89 198 198 198h123c109 0 198 -88 198 -198v-304c0 -113 -91 -198 -198 -198h-123zM241 384h137c45 0 82 37 82 82v36
c0 49 -40 89 -89 89h-123c-49 0 -89 -40 -89 -89v-36c0 -45 37 -82 82 -82z" />
    <glyph glyph-name="fraction" unicode="&#x2044;" 
d="M-65 -10l593 734h97l-593 -734h-97z" />
    <glyph glyph-name="asterisk" unicode="*" 
d="M469 614l-116 -56l116 -56l-35 -80l-101 55v-108h-90v108l-100 -55l-36 80l116 56l-116 56l36 80l100 -56v108h90v-107l101 55z" />
    <glyph glyph-name="backslash" unicode="\" 
d="M397 -189l-335 886l112 34l334 -886z" />
    <glyph glyph-name="periodcentered" unicode="&#xb7;" 
d="M294 244c-44 0 -80 36 -80 80s36 80 80 80h12c44 0 80 -36 80 -80s-36 -80 -80 -80h-12z" />
    <glyph glyph-name="bullet" unicode="&#x2022;" 
d="M285 160c-76 0 -136 60 -136 136c0 74 60 134 136 134h26c76 0 138 -60 138 -134c0 -76 -62 -136 -138 -136h-26z" />
    <glyph glyph-name="colon" unicode=":" horiz-adv-x="360" 
d="M130 351c-45 0 -80 28 -80 72c0 45 35 71 80 71c43 0 80 -26 80 -71c0 -44 -37 -72 -80 -72zM130 -5c-45 0 -80 28 -80 72c0 45 35 71 80 71c43 0 80 -26 80 -71c0 -44 -37 -72 -80 -72z" />
    <glyph glyph-name="comma" unicode="," horiz-adv-x="329" 
d="M135 -107h-85l75 207h104z" />
    <glyph glyph-name="ellipsis" unicode="&#x2026;" 
d="M130 138c43 0 80 -26 80 -71c0 -44 -37 -72 -80 -72c-45 0 -80 28 -80 72c0 45 35 71 80 71z" />
    <glyph glyph-name="exclam" unicode="!" horiz-adv-x="260" 
d="M186 700v-465h-112v465h112zM130 138c43 0 80 -26 80 -71c0 -44 -37 -72 -80 -72c-45 0 -80 28 -80 72c0 45 35 71 80 71z" />
    <glyph glyph-name="exclamdown" unicode="&#xa1;" horiz-adv-x="360" 
d="M130 541c43 0 80 -28 80 -72c0 -45 -37 -71 -80 -71c-45 0 -80 26 -80 71c0 44 35 72 80 72zM74 -164v465h112v-465h-112z" />
    <glyph glyph-name="numbersign" unicode="#" 
d="M394 13l-106 23l27 134h-126l-33 -156l-106 23l27 133h-73v109h97l30 141h-89v109h112l37 161l107 -23l-32 -138h126l36 159l107 -23l-31 -136h84v-109h-108l-30 -141h100v-109h-123zM212 279h127l30 141h-127z" />
    <glyph glyph-name="period" unicode="." horiz-adv-x="260" 
d="M130 -5c-45 0 -80 28 -80 72c0 45 35 71 80 71c43 0 80 -26 80 -71c0 -44 -37 -72 -80 -72z" />
    <glyph glyph-name="question" unicode="?" horiz-adv-x="541" 
d="M198 196c-19 230 181 175 181 304c0 82 -56 98 -111 98c-60 0 -116 -16 -106 -98h-111c-10 136 81 200 222 200c150 0 218 -71 218 -220c0 -175 -193 -92 -181 -284h-112zM256 0c-36 0 -66 29 -66 66c0 36 30 66 66 66h10c36 0 66 -30 66 -66c0 -37 -30 -66 -66 -66h-10z
" />
    <glyph glyph-name="questiondown" unicode="&#xbf;" horiz-adv-x="541" 
d="M285 535c36 0 66 -29 66 -66c0 -36 -30 -66 -66 -66h-10c-36 0 -66 30 -66 66c0 37 30 66 66 66h10zM343 339c19 -230 -181 -175 -181 -304c0 -82 56 -98 111 -98c60 0 116 16 106 98h111c10 -136 -81 -200 -222 -200c-150 0 -218 71 -218 220c0 175 193 92 181 284h112z
" />
    <glyph glyph-name="quotedbl" unicode="&#x22;" horiz-adv-x="363" 
d="M60 524l-10 176h104l-9 -176h-85zM219 524l-10 176h104l-9 -176h-85z" />
    <glyph glyph-name="quotesingle" unicode="'" horiz-adv-x="304" 
d="M110 524l-10 176h104l-9 -176h-85z" />
    <glyph glyph-name="semicolon" unicode=";" 
d="M294 264c-44 0 -80 36 -80 80s36 80 80 80h12c44 0 80 -36 80 -80s-36 -80 -80 -80h-12zM264 -100h-85l75 207h104z" />
    <glyph glyph-name="slash" unicode="/" 
d="M173 -189l-111 34l334 886l112 -34z" />
    <glyph glyph-name="underscore" unicode="_" horiz-adv-x="648" 
d="M100 -49h448v-96h-448v96z" />
    <glyph glyph-name="braceleft" unicode="{" horiz-adv-x="508" 
d="M334 -167c-82 0 -149 67 -149 149v190c0 42 -32 80 -85 80v112c56 0 85 40 85 80v190c0 82 67 149 149 149h74v-112h-54c-41 0 -58 -16 -58 -57v-170c0 -57 -35 -120 -69 -136c34 -12 69 -85 69 -136v-170c0 -41 17 -57 58 -57h54v-112h-74z" />
    <glyph glyph-name="braceright" unicode="}" horiz-adv-x="508" 
d="M174 -167h-74v112h54c41 0 58 16 58 57v170c0 51 35 124 69 136c-34 16 -69 79 -69 136v170c0 41 -17 57 -58 57h-54v112h74c82 0 149 -67 149 -149v-190c0 -40 29 -80 85 -80v-112c-53 0 -85 -38 -85 -80v-190c0 -82 -67 -149 -149 -149z" />
    <glyph glyph-name="bracketleft" unicode="[" horiz-adv-x="435" 
d="M100 -118v933h235v-110h-125v-713h125v-110h-235z" />
    <glyph glyph-name="bracketright" unicode="]" horiz-adv-x="435" 
d="M335 -118h-235v110h125v713h-125v110h235v-933z" />
    <glyph glyph-name="parenleft" unicode="(" horiz-adv-x="407" 
d="M100 357c0 240 81 426 105 474l100 -49c-16 -41 -93 -203 -93 -425c0 -214 93 -420 94 -422l-100 -50c-59 118 -106 330 -106 472z" />
    <glyph glyph-name="parenright" unicode=")" horiz-adv-x="406" 
d="M306 357c0 -142 -47 -354 -106 -472l-100 50c1 2 94 208 94 422c0 222 -77 384 -93 425l100 49c24 -48 105 -234 105 -474z" />
    <glyph glyph-name="emdash" unicode="&#x2014;" 
d="M-148 332h896v-96h-896v96z" />
    <glyph glyph-name="endash" unicode="&#x2013;" horiz-adv-x="608" 
d="M80 339h448v-96h-448v96z" />
    <glyph glyph-name="hyphen" unicode="-" horiz-adv-x="493" 
d="M90 326h313v-96h-313v96z" />
    <glyph glyph-name="guillemotleft" unicode="&#xab;" horiz-adv-x="610" 
d="M223 49l-123 199v39l123 204l77 -57l-111 -166l111 -162zM433 49l-123 199v39l123 204l77 -57l-111 -166l111 -162z" />
    <glyph glyph-name="guillemotright" unicode="&#xbb;" horiz-adv-x="610" 
d="M177 49l-77 57l111 162l-111 166l77 57l123 -204v-39zM387 49l-77 57l111 162l-111 166l77 57l123 -204v-39z" />
    <glyph glyph-name="guilsinglleft" unicode="&#x2039;" horiz-adv-x="400" 
d="M223 49l-123 199v39l123 204l77 -57l-111 -166l111 -162z" />
    <glyph glyph-name="guilsinglright" unicode="&#x203a;" horiz-adv-x="400" 
d="M177 49l-77 57l111 162l-111 166l77 57l123 -204v-39z" />
    <glyph glyph-name="quotedblbase" unicode="&#x201e;" 
d="M125 100h104l-94 -207h-85z" />
    <glyph glyph-name="quotedblleft" unicode="&#x201c;" horiz-adv-x="559" 
d="M80 500l94 207h85l-75 -207h-104zM394 707h85l-75 -207h-104z" />
    <glyph glyph-name="quotedblright" unicode="&#x201d;" horiz-adv-x="599" 
d="M100 500l75 207h104l-94 -207h-85zM395 707h104l-94 -207h-85z" />
    <glyph glyph-name="quoteleft" unicode="&#x2018;" horiz-adv-x="279" 
d="M144 702h85l-75 -207h-104z" />
    <glyph glyph-name="quoteright" unicode="&#x2019;" horiz-adv-x="279" 
d="M135 495h-85l75 207h104z" />
    <glyph glyph-name="quotesinglbase" unicode="&#x201a;" 
d="M135 -107h-85l75 207h104z" />
    <glyph glyph-name="space" unicode=" " horiz-adv-x="450" 
 />
    <glyph glyph-name="cent" unicode="&#xa2;" 
d="M527 167c-39 -35 -89 -58 -148 -67v-100h-109v100c-134 19 -226 111 -226 251c0 136 91 231 226 250v99h109v-99c58 -8 109 -31 147 -66l-71 -77c-30 27 -76 42 -131 42c-99 0 -175 -48 -175 -149c0 -98 68 -150 175 -150c56 0 102 14 132 43z" />
    <glyph glyph-name="currency" unicode="&#xa4;" 
d="M458 245l62 -64l-70 -69l-61 64c-54 -30 -123 -31 -176 0l-64 -64l-70 69l64 64c-31 55 -31 122 0 177l-64 61l70 69l64 -61c53 31 122 30 176 0l61 61l70 -69l-62 -61c31 -55 31 -122 0 -177zM218 333c0 -45 37 -82 83 -82c45 0 82 37 82 82c0 46 -37 83 -82 83
c-46 0 -83 -37 -83 -83z" />
    <glyph glyph-name="dollar" unicode="$" 
d="M550 196c0 -116 -68 -177 -186 -192v-90h-109v88c-95 10 -194 56 -185 195h112c-10 -80 57 -86 116 -86c72 0 140 14 140 85c0 167 -358 45 -358 304c0 134 55 189 175 198v88h109v-91c102 -18 164 -82 156 -195h-111c10 82 -46 98 -106 98c-55 0 -111 -16 -111 -98
c0 -143 358 -38 358 -304z" />
    <glyph glyph-name="Euro" unicode="&#x20ac;" horiz-adv-x="745" 
d="M506 112c28 0 52 12 69 32l70 -89c-36 -34 -85 -55 -139 -55h-94c-113 0 -203 92 -203 203v24h-109v96h109v53h-109v96h109v25c0 111 90 203 203 203h94c54 0 103 -21 139 -55l-70 -89c-17 20 -41 32 -69 32h-94c-50 0 -91 -41 -91 -91v-25h227v-96h-227v-53h227v-96
h-227v-24c0 -50 41 -91 91 -91h94z" />
    <glyph glyph-name="sterling" unicode="&#xa3;" horiz-adv-x="619" 
d="M100 108h79c35 0 55 33 55 59v148h-97v108h97v131c0 128 159 225 285 110l-77 -75c-57 45 -100 -3 -100 -35v-131h96v-108h-96v-148c0 -22 -5 -45 -29 -59h161v-108h-374v108z" />
    <glyph glyph-name="yen" unicode="&#xa5;" horiz-adv-x="641" 
d="M621 700l-219 -329h93v-96h-120v-74h120v-96h-119v-105h-111v105h-128v96h127v74h-127v96h101l-218 329h134l166 -250l166 250h135z" />
    <glyph glyph-name="plus" unicode="+" horiz-adv-x="648" 
d="M548 324v-96h-176v-176h-96v176h-176v96h176v176h96v-176h176z" />
    <glyph glyph-name="minus" unicode="&#x2212;" horiz-adv-x="648" 
d="M100 323h448v-96h-448v96z" />
    <glyph glyph-name="multiply" unicode="&#xd7;" horiz-adv-x="585" 
d="M485 394l-124 -124l124 -125l-68 -68l-124 125l-125 -125l-68 68l125 125l-125 124l68 68l125 -124l124 124z" />
    <glyph glyph-name="divide" unicode="&#xf7;" horiz-adv-x="648" 
d="M319 391c-35 0 -64 29 -64 64s29 64 64 64h10c35 0 64 -29 64 -64s-29 -64 -64 -64h-10zM100 327h448v-96h-448v96zM319 37c-35 0 -64 29 -64 64s29 64 64 64h10c35 0 64 -29 64 -64s-29 -64 -64 -64h-10z" />
    <glyph glyph-name="equal" unicode="=" horiz-adv-x="648" 
d="M100 430h448v-96h-448v96zM100 220h448v-96h-448v96z" />
    <glyph glyph-name="asciitilde" unicode="~" 
d="M110 258c0 79 47 133 118 133c55 0 74 -45 116 -45c28 0 38 27 38 45h87c0 -77 -39 -133 -103 -133c-54 0 -75 44 -121 44c-34 0 -46 -22 -46 -44h-89z" />
    <glyph glyph-name="percent" unicode="%" 
d="M-65 -10l593 734h97l-593 -734h-97zM65 494c-56 0 -100 45 -100 101c0 54 44 99 100 99c55 0 100 -45 100 -99c0 -56 -45 -101 -100 -101zM65 564c18 0 31 13 31 31c0 17 -13 29 -31 29c-17 0 -30 -12 -30 -29c0 -18 13 -31 30 -31zM494 19c-56 0 -100 45 -100 101
c0 54 44 99 100 99c55 0 100 -45 100 -99c0 -56 -45 -101 -100 -101zM494 89c18 0 31 13 31 31c0 17 -13 29 -31 29c-17 0 -30 -12 -30 -29c0 -18 13 -31 30 -31z" />
    <glyph glyph-name="at" unicode="@" horiz-adv-x="888" 
d="M454 -149c-287 0 -384 219 -384 450c0 260 145 423 374 423c252 0 374 -165 374 -423c0 -144 -44 -267 -164 -267c-62 0 -116 66 -117 106c-17 -31 -68 -49 -98 -49c-106 0 -167 88 -167 200c0 114 65 199 167 199c40 0 88 -25 104 -58c6 21 17 33 32 42l57 -49
c-11 -11 -27 -45 -27 -61l1 -160c0 -27 18 -59 48 -62c47 0 55 91 55 159c0 172 -61 315 -265 315c-173 0 -265 -126 -265 -315c0 -173 52 -341 275 -341c29 0 56 4 80 13l38 -102c-37 -13 -76 -20 -118 -20zM439 200c42 0 67 34 67 91c0 56 -24 90 -67 90
c-45 0 -66 -46 -66 -90c0 -47 19 -91 66 -91z" />
    <glyph glyph-name="ampersand" unicode="&#x26;" 
d="M98 79c-74 108 -25 215 87 301c-46 57 -80 104 -80 166c0 94 74 159 173 159c104 0 174 -65 174 -161c0 -74 -55 -134 -118 -179c10 -11 67 -68 140 -141c34 59 34 79 36 127h98c0 -4 0 -106 -63 -199l84 -84l-70 -68l-80 80c-129 -104 -297 -123 -381 -1zM266 437
c41 28 88 67 88 107c0 44 -30 63 -76 63c-48 0 -75 -22 -75 -61c0 -27 18 -58 63 -109zM409 150l-157 158c-79 -59 -114 -111 -73 -173c47 -72 156 -41 230 15z" />
    <glyph glyph-name="trademark" unicode="&#x2122;" horiz-adv-x="1289" 
d="M239 0v588h-189v112h489v-112h-189v-588h-111zM639 0v700h85l215 -317l215 317h85v-700h-112v462l-141 -214h-92l-143 214v-462h-112z" />
    <glyph glyph-name="degree" unicode="&#xb0;" 
d="M298 413c-78 0 -139 61 -139 139c0 76 61 137 139 137c76 0 137 -61 137 -137c0 -78 -61 -139 -137 -139zM298 501c27 0 49 23 49 52c0 27 -22 49 -49 49c-31 0 -51 -22 -51 -49c0 -29 20 -52 51 -52z" />
    <glyph glyph-name="bar" unicode="|" horiz-adv-x="396" 
d="M246 724v-896h-96v896h96z" />
    <glyph glyph-name="brokenbar" unicode="&#xa6;" horiz-adv-x="396" 
d="M246 699v-313h-96v313h96zM246 162v-313h-96v313h96z" />
    <glyph glyph-name="dagger" unicode="&#x2020;" horiz-adv-x="613" 
d="M463 614v-96h-109v-236h-96v236h-108v96h108v116h96v-116h109z" />
    <glyph glyph-name="daggerdbl" unicode="&#x2021;" 
d="M447 559h-109v-74h109v-96h-109v-94h-96v94h-108v96h108v74h-108v96h108v88h96v-88h109v-96z" />
    <glyph glyph-name="asciicircum" unicode="^" 
d="M141 547l139 153h39l139 -153l-67 -47l-91 111l-92 -111z" />
    <glyph glyph-name="uni0308" unicode="&#x308;" horiz-adv-x="0" 
d="M-405 750c-45 0 -80 28 -80 72c0 45 35 71 80 71c43 0 80 -26 80 -71c0 -44 -37 -72 -80 -72zM-195 750c-45 0 -80 28 -80 72c0 45 35 71 80 71c43 0 80 -26 80 -71c0 -44 -37 -72 -80 -72z" />
    <glyph glyph-name="uni0307" unicode="&#x307;" horiz-adv-x="0" 
d="M-300 750c-45 0 -80 28 -80 72c0 45 35 71 80 71c43 0 80 -26 80 -71c0 -44 -37 -72 -80 -72z" />
    <glyph glyph-name="gravecomb" unicode="&#x300;" horiz-adv-x="0" 
d="M-342 757l-71 156h104l52 -156h-85z" />
    <glyph glyph-name="acutecomb" unicode="&#x301;" horiz-adv-x="0" 
d="M-258 757h-85l52 156h104z" />
    <glyph glyph-name="uni030B" unicode="&#x30b;" horiz-adv-x="0" 
d="M-258 757h-85l52 156h104zM-118 757h-85l52 156h104z" />
    <glyph glyph-name="uni0302" unicode="&#x302;" horiz-adv-x="0" 
d="M-449 827l129 73h39l129 -73l-57 -77l-91 61l-92 -61z" />
    <glyph glyph-name="uni030C" unicode="&#x30c;" horiz-adv-x="0" 
d="M-449 823l57 77l92 -61l91 61l57 -77l-129 -73h-39z" />
    <glyph glyph-name="uni0306" unicode="&#x306;" horiz-adv-x="0" 
d="M-294 750c-75 0 -136 61 -136 136h102c0 -24 12 -39 34 -39c23 0 34 15 34 39h102c0 -75 -61 -136 -136 -136z" />
    <glyph glyph-name="uni030A" unicode="&#x30a;" horiz-adv-x="0" 
d="M-326 720c-70 0 -125 56 -125 126c0 68 55 124 125 124c69 0 125 -56 125 -124c0 -70 -56 -126 -125 -126zM-326 807c22 0 38 17 38 39c0 21 -16 37 -38 37s-38 -16 -38 -37c0 -22 16 -39 38 -39z" />
    <glyph glyph-name="tildecomb" unicode="&#x303;" horiz-adv-x="0" 
d="M-490 768c0 79 47 133 118 133c55 0 74 -45 116 -45c28 0 38 27 38 45h87c0 -77 -39 -133 -103 -133c-54 0 -75 44 -121 44c-34 0 -46 -22 -46 -44h-89z" />
    <glyph glyph-name="uni0304" unicode="&#x304;" horiz-adv-x="0" 
d="M-435 847h269v-97h-269v97z" />
    <glyph glyph-name="uni0312" unicode="&#x312;" horiz-adv-x="0" 
d="M-300 893c43 0 80 -26 80 -71c0 -44 -37 -72 -80 -72c-45 0 -80 28 -80 72c-2 46 5 91 24 120c32 46 75 55 118 55v-49c-48 0 -66 -27 -71 -55h9z" />
    <glyph glyph-name="uni0326" unicode="&#x326;" horiz-adv-x="0" 
d="M-222 -215c1 -75 -60 -136 -135 -137l-1 102c24 0 39 12 39 34c0 23 -15 34 -39 34l-1 102c75 1 136 -60 137 -135z" />
    <glyph glyph-name="uni0327" unicode="&#x327;" horiz-adv-x="0" 
d="M-307 -44h85l-52 -156h-104z" />
    <glyph glyph-name="uni0328" unicode="&#x328;" horiz-adv-x="0" 
d="M-248 -44l71 -156h-104l-52 156h85z" />
    <glyph glyph-name="uni0335" unicode="&#x335;" horiz-adv-x="0" 
d="M-509 311h448v-96h-448v96z" />
    <glyph glyph-name="uni0336" unicode="&#x336;" horiz-adv-x="0" 
d="M-672 288h672v-96h-672v96z" />
    <glyph glyph-name="uni0337" unicode="&#x337;" horiz-adv-x="0" 
d="M-575 -10l437 541h97l-437 -541h-97z" />
    <glyph glyph-name="uni0338" unicode="&#x338;" horiz-adv-x="0" 
d="M-665 -10l593 734h97l-593 -734h-97z" />
    <glyph glyph-name="_q_tail" 
d="M363 -65l-190 190l85 85l190 -190z" />
    </font>
</defs>
</svg>
