<?xml version="1.0" standalone="no"?>
<!DOCTYPE svg PUBLIC "-//W3C//DTD SVG 1.1//EN" "http://www.w3.org/Graphics/SVG/1.1/DTD/svg11.dtd" >
<svg xmlns="http://www.w3.org/2000/svg" xmlns:xlink="http://www.w3.org/1999/xlink" version="1.1">
<metadata>
Created by FontForge 20190801 at Thu Jun 30 12:09:33 2016
 By Jimmy Wärting
copyright missing
</metadata>
<defs>
<font id="Frank-Black" horiz-adv-x="600" >
  <font-face 
    font-family="Frank Black"
    font-weight="900"
    font-stretch="normal"
    units-per-em="1000"
    panose-1="0 0 10 0 0 0 0 0 0 0"
    ascent="800"
    descent="-200"
    x-height="700"
    cap-height="700"
    bbox="-699 -390 1231 1064"
    underline-thickness="50"
    underline-position="-100"
    unicode-range="U+0020-2212"
  />
<missing-glyph horiz-adv-x="525" 
d="M431 800v-1050h-333v1050h333zM350 730h-174v-35h69v-39h-70v-34h175v34h-70v39h70v35zM280 594h-105v-109h175v36h-70v73zM245 559v-38h-35v38h35zM350 457h-175v-35h70v-39h-70v-34h105v73h70v35zM350 394h-35v-70h-140v-35h175v105zM350 266h-105v-59h35v24h35v-49
h-105v84h-35v-119h175v119zM350 84h-175v-119h175v119zM315 49v-49h-105v49h105zM350 -59h-175v-35h74l-74 -49v-35h175v35h-107l73 49h34v35z" />
    <glyph glyph-name=".notdef" horiz-adv-x="525" 
d="M431 800v-1050h-333v1050h333zM350 730h-174v-35h69v-39h-70v-34h175v34h-70v39h70v35zM280 594h-105v-109h175v36h-70v73zM245 559v-38h-35v38h35zM350 457h-175v-35h70v-39h-70v-34h105v73h70v35zM350 394h-35v-70h-140v-35h175v105zM350 266h-105v-59h35v24h35v-49
h-105v84h-35v-119h175v119zM350 84h-175v-119h175v119zM315 49v-49h-105v49h105zM350 -59h-175v-35h74l-74 -49v-35h175v35h-107l73 49h34v35z" />
    <glyph glyph-name="A" unicode="A" horiz-adv-x="673" 
d="M177 0h-167l273 700h108l272 -700h-164l-53 141h-219zM269 297h136l-69 179z" />
    <glyph glyph-name="Aacute" unicode="&#xc1;" horiz-adv-x="673" 
d="M414 750h-119l52 156h138zM177 0h-167l273 700h108l272 -700h-164l-53 141h-219zM269 297h136l-69 179z" />
    <glyph glyph-name="Abreve" unicode="&#x102;" horiz-adv-x="673" 
d="M336 750c-79 0 -144 65 -144 144h139c0 -12 -3 -14 5 -14c11 0 5 2 5 14h139c0 -79 -64 -144 -144 -144zM177 0h-167l273 700h108l272 -700h-164l-53 141h-219zM269 297h136l-69 179z" />
    <glyph glyph-name="Acircumflex" unicode="&#xc2;" horiz-adv-x="673" 
d="M174 847l143 73h39l143 -73l-78 -102l-84 52l-85 -52zM177 0h-167l273 700h108l272 -700h-164l-53 141h-219zM269 297h136l-69 179z" />
    <glyph glyph-name="Adieresis" unicode="&#xc4;" horiz-adv-x="673" 
d="M217 750c-57 0 -101 36 -101 92c0 57 44 90 101 90c55 0 102 -33 102 -90c0 -56 -47 -92 -102 -92zM455 750c-58 0 -102 36 -102 92c0 57 44 90 102 90c54 0 101 -33 101 -90c0 -56 -47 -92 -101 -92zM177 0h-167l273 700h108l272 -700h-164l-53 141h-219zM269 297h136
l-69 179z" />
    <glyph glyph-name="Agrave" unicode="&#xc0;" horiz-adv-x="673" 
d="M276 757l-71 156h138l52 -156h-119zM177 0h-167l273 700h108l272 -700h-164l-53 141h-219zM269 297h136l-69 179z" />
    <glyph glyph-name="Amacron" unicode="&#x100;" horiz-adv-x="673" 
d="M202 882h269v-132h-269v132zM177 0h-167l273 700h108l272 -700h-164l-53 141h-219zM269 297h136l-69 179z" />
    <glyph glyph-name="Aogonek" unicode="&#x104;" horiz-adv-x="673" 
d="M690 -29l83 -57c-72 -86 -220 -79 -256 12c-5 17 -17 42 -15 74h-3l-53 141h-219l-50 -141h-167l273 700h108l272 -700h-2c-48 -19 -27 -41 -27 -36c8 -5 37 -8 56 7zM269 297h136l-69 179z" />
    <glyph glyph-name="Aring" unicode="&#xc5;" horiz-adv-x="673" 
d="M335 730c-83 0 -148 66 -148 149c0 81 65 148 148 148c82 0 149 -67 149 -148c0 -83 -67 -149 -149 -149zM335 846c20 0 33 14 33 33s-13 31 -33 31c-18 0 -32 -12 -32 -31s14 -33 32 -33zM177 0h-167l273 700h108l272 -700h-164l-53 141h-219zM269 297h136l-69 179z" />
    <glyph glyph-name="Atilde" unicode="&#xc3;" horiz-adv-x="673" 
d="M150 766c0 89 51 150 130 150c43 0 61 -34 95 -34c25 0 36 22 36 34h115c0 -88 -42 -151 -114 -151c-39 0 -69 32 -103 32c-31 0 -40 -16 -40 -31h-119zM177 0h-167l273 700h108l272 -700h-164l-53 141h-219zM269 297h136l-69 179z" />
    <glyph glyph-name="AE" unicode="&#xc6;" horiz-adv-x="924" 
d="M50 0l273 700h551v-155h-267v-118h177v-154h-177v-118h267v-155h-424v141h-183l-50 -141h-167zM309 297l141 -1v250l-47 -1z" />
    <glyph glyph-name="B" unicode="B" 
d="M50 0l-2 700h256c173 0 272 -187 187 -328c130 -170 37 -372 -151 -372h-290zM205 428h99c71 0 90 117 0 117h-99v-117zM205 155h135c71 0 82 117 0 117h-135v-117z" />
    <glyph glyph-name="C" unicode="C" 
d="M264 0c-123 0 -214 103 -214 214v272c0 117 94 214 214 214h72c123 0 214 -103 214 -214h-155c0 32 -27 59 -59 59h-72c-32 0 -59 -27 -59 -59v-272c0 -32 27 -59 59 -59h72c32 0 59 27 59 59h155c0 -117 -94 -214 -214 -214h-72z" />
    <glyph glyph-name="Cacute" unicode="&#x106;" 
d="M362 757h-119l52 156h138zM264 0c-123 0 -214 103 -214 214v272c0 117 94 214 214 214h72c123 0 214 -103 214 -214h-155c0 32 -27 59 -59 59h-72c-32 0 -59 -27 -59 -59v-272c0 -32 27 -59 59 -59h72c32 0 59 27 59 59h155c0 -117 -94 -214 -214 -214h-72z" />
    <glyph glyph-name="Ccaron" unicode="&#x10c;" 
d="M138 823l78 103l85 -51l84 51l78 -103l-143 -73h-39zM264 0c-123 0 -214 103 -214 214v272c0 117 94 214 214 214h72c123 0 214 -103 214 -214h-155c0 32 -27 59 -59 59h-72c-32 0 -59 -27 -59 -59v-272c0 -32 27 -59 59 -59h72c32 0 59 27 59 59h155
c0 -117 -94 -214 -214 -214h-72z" />
    <glyph glyph-name="Ccedilla" unicode="&#xc7;" 
d="M264 0c-123 0 -214 103 -214 214v272c0 117 94 214 214 214h72c123 0 214 -103 214 -214h-155c0 32 -27 59 -59 59h-72c-32 0 -59 -27 -59 -59v-272c0 -32 27 -59 59 -59h72c32 0 59 27 59 59h155c0 -117 -94 -214 -214 -214h-72zM269 -41h119l-52 -156h-138z" />
    <glyph glyph-name="Cdotaccent" unicode="&#x10a;" 
d="M300 750c-57 0 -102 36 -102 92c0 57 45 90 102 90c55 0 102 -33 102 -90c0 -56 -47 -92 -102 -92zM264 0c-123 0 -214 103 -214 214v272c0 117 94 214 214 214h72c123 0 214 -103 214 -214h-155c0 32 -27 59 -59 59h-72c-32 0 -59 -27 -59 -59v-272c0 -32 27 -59 59 -59
h72c32 0 59 27 59 59h155c0 -117 -94 -214 -214 -214h-72z" />
    <glyph glyph-name="D" unicode="D" 
d="M50 0v700h286c119 0 211 -95 214 -212v-276c-3 -117 -95 -212 -214 -212h-286zM205 155h131c33 0 59 27 59 59v272c0 32 -26 59 -59 59h-131v-390z" />
    <glyph glyph-name="Eth" unicode="&#xd0;" horiz-adv-x="695" 
d="M431 700c119 0 211 -95 214 -212v-276c-3 -117 -95 -212 -214 -212h-286v285h-102v130h102v285h286zM490 214v272c0 32 -26 59 -59 59h-131v-130h109v-130h-109v-130h131c33 0 59 27 59 59z" />
    <glyph glyph-name="Dcaron" unicode="&#x10e;" 
d="M138 823l78 103l85 -51l84 51l78 -103l-143 -73h-39zM50 0v700h286c119 0 211 -95 214 -212v-276c-3 -117 -95 -212 -214 -212h-286zM205 155h131c33 0 59 27 59 59v272c0 32 -26 59 -59 59h-131v-390z" />
    <glyph glyph-name="Dcroat" unicode="&#x110;" horiz-adv-x="695" 
d="M431 700c119 0 211 -95 214 -212v-276c-3 -117 -95 -212 -214 -212h-286v285h-102v130h102v285h286zM490 214v272c0 32 -26 59 -59 59h-131v-130h109v-130h-109v-130h131c33 0 59 27 59 59z" />
    <glyph glyph-name="E" unicode="E" horiz-adv-x="523" 
d="M48 0l2 700h456v-155h-301v-118h211v-154h-211v-118h301v-155h-458z" />
    <glyph glyph-name="Eacute" unicode="&#xc9;" horiz-adv-x="523" 
d="M362 757h-119l52 156h138zM48 0l2 700h456v-155h-301v-118h211v-154h-211v-118h301v-155h-458z" />
    <glyph glyph-name="Ecaron" unicode="&#x11a;" horiz-adv-x="523" 
d="M98 823l78 103l85 -51l84 51l78 -103l-143 -73h-39zM48 0l2 700h456v-155h-301v-118h211v-154h-211v-118h301v-155h-458z" />
    <glyph glyph-name="Ecircumflex" unicode="&#xca;" horiz-adv-x="523" 
d="M98 847l143 73h39l143 -73l-78 -102l-84 52l-85 -52zM48 0l2 700h456v-155h-301v-118h211v-154h-211v-118h301v-155h-458z" />
    <glyph glyph-name="Edieresis" unicode="&#xcb;" horiz-adv-x="523" 
d="M141 750c-57 0 -101 36 -101 92c0 57 44 90 101 90c55 0 102 -33 102 -90c0 -56 -47 -92 -102 -92zM379 750c-58 0 -102 36 -102 92c0 57 44 90 102 90c54 0 101 -33 101 -90c0 -56 -47 -92 -101 -92zM48 0l2 700h456v-155h-301v-118h211v-154h-211v-118h301v-155h-458z
" />
    <glyph glyph-name="Edotaccent" unicode="&#x116;" horiz-adv-x="523" 
d="M260 750c-57 0 -102 36 -102 92c0 57 45 90 102 90c55 0 102 -33 102 -90c0 -56 -47 -92 -102 -92zM48 0l2 700h456v-155h-301v-118h211v-154h-211v-118h301v-155h-458z" />
    <glyph glyph-name="Egrave" unicode="&#xc8;" horiz-adv-x="523" 
d="M224 757l-71 156h138l52 -156h-119zM48 0l2 700h456v-155h-301v-118h211v-154h-211v-118h301v-155h-458z" />
    <glyph glyph-name="Emacron" unicode="&#x112;" horiz-adv-x="523" 
d="M126 882h269v-132h-269v132zM48 0l2 700h456v-155h-301v-118h211v-154h-211v-118h301v-155h-458z" />
    <glyph glyph-name="Eogonek" unicode="&#x118;" horiz-adv-x="523" 
d="M48 0l2 700h456v-155h-301v-118h211v-154h-211v-118h301v-155h-458zM352 -44l71 -156h-138l-52 156h119z" />
    <glyph glyph-name="F" unicode="F" horiz-adv-x="523" 
d="M50 0v700h423v-155h-268v-118h178v-154h-178v-273h-155z" />
    <glyph glyph-name="G" unicode="G" 
d="M264 0c-123 0 -214 103 -214 214v272c0 117 94 214 214 214h72c123 0 214 -83 214 -194h-155c0 32 -27 39 -59 39h-72c-32 0 -59 -27 -59 -59v-272c0 -32 27 -59 59 -59h72c32 0 59 27 59 59v19h-78v154h233v-173c0 -117 -94 -214 -214 -214h-72z" />
    <glyph glyph-name="Gbreve" unicode="&#x11e;" 
d="M310 750c-79 0 -144 65 -144 144h139c0 -12 -3 -14 5 -14c11 0 5 2 5 14h139c0 -79 -64 -144 -144 -144zM264 0c-123 0 -214 103 -214 214v272c0 117 94 214 214 214h72c123 0 214 -83 214 -194h-155c0 32 -27 39 -59 39h-72c-32 0 -59 -27 -59 -59v-272
c0 -32 27 -59 59 -59h72c32 0 59 27 59 59v19h-78v154h233v-173c0 -117 -94 -214 -214 -214h-72z" />
    <glyph glyph-name="Gcommaaccent" unicode="&#x122;" 
d="M264 0c-123 0 -214 103 -214 214v272c0 117 94 214 214 214h72c123 0 214 -83 214 -194h-155c0 32 -27 39 -59 39h-72c-32 0 -59 -27 -59 -59v-272c0 -32 27 -59 59 -59h72c32 0 59 27 59 59v19h-78v154h233v-173c0 -117 -94 -214 -214 -214h-72zM392 -230
c2 -86 -71 -158 -150 -160l-1 139c11 0 21 4 21 19c0 18 -9 19 -21 19l-1 139c79 2 151 -69 152 -156z" />
    <glyph glyph-name="Gdotaccent" unicode="&#x120;" 
d="M300 750c-57 0 -102 36 -102 92c0 57 45 90 102 90c55 0 102 -33 102 -90c0 -56 -47 -92 -102 -92zM264 0c-123 0 -214 103 -214 214v272c0 117 94 214 214 214h72c123 0 214 -83 214 -194h-155c0 32 -27 39 -59 39h-72c-32 0 -59 -27 -59 -59v-272c0 -32 27 -59 59 -59
h72c32 0 59 27 59 59v19h-78v154h233v-173c0 -117 -94 -214 -214 -214h-72z" />
    <glyph glyph-name="H" unicode="H" 
d="M50 0v700h155v-273h190v273h155v-700h-155v273h-190v-273h-155z" />
    <glyph glyph-name="Hbar" unicode="&#x126;" horiz-adv-x="733" 
d="M697 639v-147h-78v-492h-155v273h-190v-273h-155v492h-81v147h81v61h155v-61h190v61h155v-61h78zM464 427v65h-190v-65h190z" />
    <glyph glyph-name="I" unicode="I" horiz-adv-x="299" 
d="M75 0v700h149v-700h-149z" />
    <glyph glyph-name="Iacute" unicode="&#xcd;" horiz-adv-x="249" 
d="M212 757h-119l52 156h138zM75 0v700h149v-700h-149z" />
    <glyph glyph-name="Icircumflex" unicode="&#xce;" horiz-adv-x="274" 
d="M-25 847l143 73h39l143 -73l-78 -102l-84 52l-85 -52zM75 0v700h149v-700h-149z" />
    <glyph glyph-name="Idieresis" unicode="&#xcf;" horiz-adv-x="341" 
d="M43 750c-57 0 -101 36 -101 92c0 57 44 90 101 90c55 0 102 -33 102 -90c0 -56 -47 -92 -102 -92zM281 750c-58 0 -102 36 -102 92c0 57 44 90 102 90c54 0 101 -33 101 -90c0 -56 -47 -92 -101 -92zM75 0v700h149v-700h-149z" />
    <glyph glyph-name="Idotaccent" unicode="&#x130;" horiz-adv-x="304" 
d="M152 750c-57 0 -102 36 -102 92c0 57 45 90 102 90c55 0 102 -33 102 -90c0 -56 -47 -92 -102 -92zM75 0v700h149v-700h-149z" />
    <glyph glyph-name="Igrave" unicode="&#xcc;" horiz-adv-x="290" 
d="M87 757l-71 156h138l52 -156h-119zM75 0v700h149v-700h-149z" />
    <glyph glyph-name="Imacron" unicode="&#x12a;" horiz-adv-x="291" 
d="M11 882h269v-132h-269v132zM75 0v700h149v-700h-149z" />
    <glyph glyph-name="Iogonek" unicode="&#x12e;" horiz-adv-x="291" 
d="M92 0v700h149v-700h-149zM228 -46l74 -164h-145l-54 164h125z" />
    <glyph glyph-name="J" unicode="J" 
d="M264 0c-120 0 -214 97 -214 214h155c0 -32 27 -59 59 -59h72c32 0 59 27 59 59v486h155v-486c0 -111 -91 -214 -214 -214h-72z" />
    <glyph glyph-name="K" unicode="K" horiz-adv-x="720" 
d="M464 0l-233 286l-26 -28v-258h-155v700h155v-258l246 258h216l-307 -315l310 -385h-206z" />
    <glyph glyph-name="Kcommaaccent" unicode="&#x136;" horiz-adv-x="720" 
d="M464 0l-233 286l-26 -28v-258h-155v700h155v-258l246 258h216l-307 -315l310 -385h-206zM392 -230c2 -86 -71 -158 -150 -160l-1 139c11 0 21 4 21 19c0 18 -9 19 -21 19l-1 139c79 2 151 -69 152 -156z" />
    <glyph glyph-name="L" unicode="L" horiz-adv-x="517" 
d="M50 0v700h155v-545h262v-155h-417z" />
    <glyph glyph-name="Lacute" unicode="&#x139;" horiz-adv-x="592" 
d="M187 757h-119l52 156h138zM50 0v700h155v-545h262v-155h-417z" />
    <glyph glyph-name="Lcaron" unicode="&#x13d;" horiz-adv-x="592" 
d="M457 583c2 -86 -71 -158 -150 -160l-1 139c11 0 21 4 21 19c0 18 -9 19 -21 19l-1 139c79 2 151 -69 152 -156zM50 0v700h155v-545h262v-155h-417z" />
    <glyph glyph-name="Lcommaaccent" unicode="&#x13b;" horiz-adv-x="592" 
d="M50 0v700h155v-545h262v-155h-417zM392 -230c2 -86 -71 -158 -150 -160l-1 139c11 0 21 4 21 19c0 18 -9 19 -21 19l-1 139c79 2 151 -69 152 -156z" />
    <glyph glyph-name="Lslash" unicode="&#x141;" horiz-adv-x="524" 
d="M205 155h262v-155h-417v237l-36 -38h-132l168 179v322h155v-157l39 41h132l-171 -182v-247z" />
    <glyph glyph-name="M" unicode="M" horiz-adv-x="700" 
d="M50 0v700h117l183 -271l182 271h118v-700h-155v368l-80 -130h-126l-84 129v-367h-155z" />
    <glyph glyph-name="N" unicode="N" 
d="M50 0v700h117l229 -358l-1 358h155v-700h-119l-226 360v-360h-155z" />
    <glyph glyph-name="Nacute" unicode="&#x143;" 
d="M324 757h-119l52 156h138zM50 0v700h117l229 -358l-1 358h155v-700h-119l-226 360v-360h-155z" />
    <glyph glyph-name="Ncaron" unicode="&#x147;" 
d="M139 823l78 103l85 -51l84 51l78 -103l-143 -73h-39zM50 0v700h117l229 -358l-1 358h155v-700h-119l-226 360v-360h-155z" />
    <glyph glyph-name="Ncommaaccent" unicode="&#x145;" 
d="M50 0v700h117l229 -358l-1 358h155v-700h-119l-226 360v-360h-155zM392 -230c2 -86 -71 -158 -150 -160l-1 139c11 0 21 4 21 19c0 18 -9 19 -21 19l-1 139c79 2 151 -69 152 -156z" />
    <glyph glyph-name="Eng" unicode="&#x14a;" 
d="M395 700h155v-749c0 -112 -91 -214 -214 -214c-125 0 -218 97 -218 214h155c0 -35 27 -59 63 -59c32 0 59 26 59 59v106l-190 303v-360h-155v700h117l228 -356v93h1z" />
    <glyph glyph-name="Ntilde" unicode="&#xd1;" 
d="M113 780c0 89 51 150 130 150c43 0 61 -34 95 -34c25 0 36 22 36 34h115c0 -88 -42 -151 -114 -151c-39 0 -69 32 -103 32c-31 0 -40 -16 -40 -31h-119zM50 0v700h117l229 -358l-1 358h155v-700h-119l-226 360v-360h-155z" />
    <glyph glyph-name="O" unicode="O" 
d="M264 0c-118 0 -214 94 -214 214l1 274c0 116 94 212 213 212h74c114 0 208 -94 212 -209v-280c-1 -116 -96 -211 -212 -211h-74zM264 155h74c32 0 59 25 59 59v272c0 29 -25 59 -59 59h-74c-33 0 -60 -24 -60 -59l1 -272c0 -34 25 -59 59 -59z" />
    <glyph glyph-name="Oacute" unicode="&#xd3;" 
d="M362 757h-119l52 156h138zM264 0c-118 0 -214 94 -214 214l1 274c0 116 94 212 213 212h74c114 0 208 -94 212 -209v-280c-1 -116 -96 -211 -212 -211h-74zM264 155h74c32 0 59 25 59 59v272c0 29 -25 59 -59 59h-74c-33 0 -60 -24 -60 -59l1 -272c0 -34 25 -59 59 -59z
" />
    <glyph glyph-name="Ocircumflex" unicode="&#xd4;" 
d="M138 847l143 73h39l143 -73l-78 -102l-84 52l-85 -52zM264 0c-118 0 -214 94 -214 214l1 274c0 116 94 212 213 212h74c114 0 208 -94 212 -209v-280c-1 -116 -96 -211 -212 -211h-74zM264 155h74c32 0 59 25 59 59v272c0 29 -25 59 -59 59h-74c-33 0 -60 -24 -60 -59
l1 -272c0 -34 25 -59 59 -59z" />
    <glyph glyph-name="Odieresis" unicode="&#xd6;" 
d="M181 750c-57 0 -101 36 -101 92c0 57 44 90 101 90c55 0 102 -33 102 -90c0 -56 -47 -92 -102 -92zM419 750c-58 0 -102 36 -102 92c0 57 44 90 102 90c54 0 101 -33 101 -90c0 -56 -47 -92 -101 -92zM264 0c-118 0 -214 94 -214 214l1 274c0 116 94 212 213 212h74
c114 0 208 -94 212 -209v-280c-1 -116 -96 -211 -212 -211h-74zM264 155h74c32 0 59 25 59 59v272c0 29 -25 59 -59 59h-74c-33 0 -60 -24 -60 -59l1 -272c0 -34 25 -59 59 -59z" />
    <glyph glyph-name="Ograve" unicode="&#xd2;" 
d="M224 757l-71 156h138l52 -156h-119zM264 0c-118 0 -214 94 -214 214l1 274c0 116 94 212 213 212h74c114 0 208 -94 212 -209v-280c-1 -116 -96 -211 -212 -211h-74zM264 155h74c32 0 59 25 59 59v272c0 29 -25 59 -59 59h-74c-33 0 -60 -24 -60 -59l1 -272
c0 -34 25 -59 59 -59z" />
    <glyph glyph-name="Ohungarumlaut" unicode="&#x150;" 
d="M272 757h-119l52 156h138zM447 757h-120l52 156h139zM264 0c-118 0 -214 94 -214 214l1 274c0 116 94 212 213 212h74c114 0 208 -94 212 -209v-280c-1 -116 -96 -211 -212 -211h-74zM264 155h74c32 0 59 25 59 59v272c0 29 -25 59 -59 59h-74c-33 0 -60 -24 -60 -59
l1 -272c0 -34 25 -59 59 -59z" />
    <glyph glyph-name="Omacron" unicode="&#x14c;" 
d="M166 873h269v-132h-269v132zM264 0c-118 0 -214 94 -214 214l1 274c0 116 94 212 213 212h74c114 0 208 -94 212 -209v-280c-1 -116 -96 -211 -212 -211h-74zM264 155h74c32 0 59 25 59 59v272c0 29 -25 59 -59 59h-74c-33 0 -60 -24 -60 -59l1 -272c0 -34 25 -59 59 -59
z" />
    <glyph glyph-name="Oslash" unicode="&#xd8;" 
d="M626 724l-106 -131c18 -30 29 -65 30 -102v-280c-1 -116 -96 -211 -212 -211h-74c-65 0 -124 29 -163 74l-68 -84h-132l152 188c-2 12 -3 24 -3 36l1 274c0 116 94 212 213 212h74c40 0 78 -12 111 -32l45 56h132zM204 486v-120l145 178c-4 1 -7 1 -11 1h-74
c-33 0 -60 -24 -60 -59zM397 214v227l-191 -237c4 -29 27 -49 58 -49h74c32 0 59 25 59 59z" />
    <glyph glyph-name="Otilde" unicode="&#xd5;" 
d="M113 780c0 89 51 150 130 150c43 0 61 -34 95 -34c25 0 36 22 36 34h115c0 -88 -42 -151 -114 -151c-39 0 -69 32 -103 32c-31 0 -40 -16 -40 -31h-119zM264 0c-118 0 -214 94 -214 214l1 274c0 116 94 212 213 212h74c114 0 208 -94 212 -209v-280
c-1 -116 -96 -211 -212 -211h-74zM264 155h74c32 0 59 25 59 59v272c0 29 -25 59 -59 59h-74c-33 0 -60 -24 -60 -59l1 -272c0 -34 25 -59 59 -59z" />
    <glyph glyph-name="OE" unicode="&#x152;" horiz-adv-x="807" 
d="M264 0c-118 0 -214 94 -214 214l1 274c0 116 94 212 213 212h493v-155h-268v-118h178v-154h-178v-118h268v-155h-493zM264 155h68l2 390h-70c-33 0 -60 -24 -60 -59l1 -272c0 -34 25 -59 59 -59z" />
    <glyph glyph-name="P" unicode="P" 
d="M50 0v700h291c279 0 278 -467 0 -467h-136v-233h-155zM205 387h136c68 0 88 158 0 158h-136v-158z" />
    <glyph glyph-name="Thorn" unicode="&#xde;" 
d="M341 563c279 0 278 -427 0 -427h-136v-136h-155v700h155v-137h136zM341 290c68 0 88 118 0 118h-136v-118h136z" />
    <glyph glyph-name="Q" unicode="Q" 
d="M588 80l-119 -119l-54 54c-24 -10 -50 -15 -77 -15h-74c-118 0 -214 94 -214 214l1 274c0 116 94 212 213 212h74c114 0 208 -94 212 -209v-280c0 -27 -6 -54 -15 -78zM264 155h11l-41 41l119 119l44 -44v215c0 29 -25 59 -59 59h-74c-33 0 -60 -24 -60 -59l1 -272
c0 -34 25 -59 59 -59z" />
    <glyph glyph-name="R" unicode="R" horiz-adv-x="612" 
d="M50 0v700h283c319 0 297 -423 91 -457l168 -243h-179l-147 233h-61v-233h-155zM205 387h125c104 0 89 158 3 158h-128v-158z" />
    <glyph glyph-name="Racute" unicode="&#x154;" horiz-adv-x="612" 
d="M329 757h-119l52 156h138zM50 0v700h283c319 0 297 -423 91 -457l168 -243h-179l-147 233h-61v-233h-155zM205 387h125c104 0 89 158 3 158h-128v-158z" />
    <glyph glyph-name="Rcaron" unicode="&#x158;" horiz-adv-x="612" 
d="M143 823l78 103l85 -51l84 51l78 -103l-143 -73h-39zM50 0v700h283c319 0 297 -423 91 -457l168 -243h-179l-147 233h-61v-233h-155zM205 387h125c104 0 89 158 3 158h-128v-158z" />
    <glyph glyph-name="Rcommaaccent" unicode="&#x156;" horiz-adv-x="612" 
d="M50 0v700h283c319 0 297 -423 91 -457l168 -243h-179l-147 233h-61v-233h-155zM205 387h125c104 0 89 158 3 158h-128v-158zM392 -230c2 -86 -71 -158 -150 -160l-1 139c11 0 21 4 21 19c0 18 -9 19 -21 19l-1 139c79 2 151 -69 152 -156z" />
    <glyph glyph-name="S" unicode="S" horiz-adv-x="645" 
d="M84 217h155c-10 -58 46 -64 83 -64c38 0 104 -1 104 49c0 135 -330 17 -330 297c0 162 77 201 226 201c170 0 244 -93 234 -223h-153c10 65 -24 85 -73 85c-8 0 -79 8 -79 -65c0 -114 330 -28 330 -295c0 -158 -116 -202 -259 -202c-98 0 -248 45 -238 217z" />
    <glyph glyph-name="Sacute" unicode="&#x15a;" horiz-adv-x="645" 
d="M378 757h-119l52 156h138zM84 217h155c-10 -58 46 -64 83 -64c38 0 104 -1 104 49c0 135 -330 17 -330 297c0 162 77 201 226 201c170 0 244 -93 234 -223h-153c10 65 -24 85 -73 85c-8 0 -79 8 -79 -65c0 -114 330 -28 330 -295c0 -158 -116 -202 -259 -202
c-98 0 -248 45 -238 217z" />
    <glyph glyph-name="Scaron" unicode="&#x160;" horiz-adv-x="645" 
d="M170 823l78 103l85 -51l84 51l78 -103l-143 -73h-39zM84 217h155c-10 -58 46 -64 83 -64c38 0 104 -1 104 49c0 135 -330 17 -330 297c0 162 77 201 226 201c170 0 244 -93 234 -223h-153c10 65 -24 85 -73 85c-8 0 -79 8 -79 -65c0 -114 330 -28 330 -295
c0 -158 -116 -202 -259 -202c-98 0 -248 45 -238 217z" />
    <glyph glyph-name="Scedilla" unicode="&#x15e;" horiz-adv-x="645" 
d="M84 217h155c-10 -58 46 -64 83 -64c38 0 104 -1 104 49c0 135 -330 17 -330 297c0 162 77 201 226 201c170 0 244 -93 234 -223h-153c10 65 -24 85 -73 85c-8 0 -79 8 -79 -65c0 -114 330 -28 330 -295c0 -158 -116 -202 -259 -202c-98 0 -248 45 -238 217zM296 -41h119
l-52 -156h-138z" />
    <glyph glyph-name="Scommaaccent" unicode="&#x218;" horiz-adv-x="645" 
d="M84 217h155c-10 -58 46 -64 83 -64c38 0 104 -1 104 49c0 135 -330 17 -330 297c0 162 77 201 226 201c170 0 244 -93 234 -223h-153c10 65 -24 85 -73 85c-8 0 -79 8 -79 -65c0 -114 330 -28 330 -295c0 -158 -116 -202 -259 -202c-98 0 -248 45 -238 217zM392 -230
c2 -86 -71 -158 -150 -160l-1 139c11 0 21 4 21 19c0 18 -9 19 -21 19l-1 139c79 2 151 -69 152 -156z" />
    <glyph glyph-name="T" unicode="T" horiz-adv-x="581" 
d="M214 0v545h-164v155h481v-155h-164v-545h-153z" />
    <glyph glyph-name="Tbar" unicode="&#x166;" horiz-adv-x="581" 
d="M531 545h-164v-161h73v-130h-73v-254h-153v254h-82v130h82v161h-164v155h481v-155z" />
    <glyph glyph-name="Tcaron" unicode="&#x164;" horiz-adv-x="581" 
d="M128 823l78 103l85 -51l84 51l78 -103l-143 -73h-39zM214 0v545h-164v155h481v-155h-164v-545h-153z" />
    <glyph glyph-name="uni0162" unicode="&#x162;" horiz-adv-x="581" 
d="M214 0v545h-164v155h481v-155h-164v-545h-153zM232 -44h119l-52 -156h-138z" />
    <glyph glyph-name="uni021A" unicode="&#x21a;" horiz-adv-x="581" 
d="M214 0v545h-164v155h481v-155h-164v-545h-153zM392 -230c2 -86 -71 -158 -150 -160l-1 139c11 0 21 4 21 19c0 18 -9 19 -21 19l-1 139c79 2 151 -69 152 -156z" />
    <glyph glyph-name="U" unicode="U" 
d="M264 0c-120 0 -214 94 -214 214l1 486h155l-1 -486c0 -32 27 -59 59 -59h72c20 0 59 27 59 59v486h155v-487c0 -119 -67 -213 -214 -213h-72z" />
    <glyph glyph-name="Uacute" unicode="&#xda;" 
d="M362 757h-119l52 156h138zM264 0c-120 0 -214 94 -214 214l1 486h155l-1 -486c0 -32 27 -59 59 -59h72c20 0 59 27 59 59v486h155v-487c0 -119 -67 -213 -214 -213h-72z" />
    <glyph glyph-name="Ucircumflex" unicode="&#xdb;" 
d="M138 847l143 73h39l143 -73l-78 -102l-84 52l-85 -52zM264 0c-120 0 -214 94 -214 214l1 486h155l-1 -486c0 -32 27 -59 59 -59h72c20 0 59 27 59 59v486h155v-487c0 -119 -67 -213 -214 -213h-72z" />
    <glyph glyph-name="Udieresis" unicode="&#xdc;" 
d="M181 750c-57 0 -101 36 -101 92c0 57 44 90 101 90c55 0 102 -33 102 -90c0 -56 -47 -92 -102 -92zM419 750c-58 0 -102 36 -102 92c0 57 44 90 102 90c54 0 101 -33 101 -90c0 -56 -47 -92 -101 -92zM264 0c-120 0 -214 94 -214 214l1 486h155l-1 -486
c0 -32 27 -59 59 -59h72c20 0 59 27 59 59v486h155v-487c0 -119 -67 -213 -214 -213h-72z" />
    <glyph glyph-name="Ugrave" unicode="&#xd9;" 
d="M224 757l-71 156h138l52 -156h-119zM264 0c-120 0 -214 94 -214 214l1 486h155l-1 -486c0 -32 27 -59 59 -59h72c20 0 59 27 59 59v486h155v-487c0 -119 -67 -213 -214 -213h-72z" />
    <glyph glyph-name="Uhungarumlaut" unicode="&#x170;" 
d="M385 757h-119l52 156h138zM560 757h-120l52 156h139zM264 0c-120 0 -214 94 -214 214l1 486h155l-1 -486c0 -32 27 -59 59 -59h72c20 0 59 27 59 59v486h155v-487c0 -119 -67 -213 -214 -213h-72z" />
    <glyph glyph-name="Umacron" unicode="&#x16a;" 
d="M165 882h269v-132h-269v132zM264 0c-120 0 -214 94 -214 214l1 486h155l-1 -486c0 -32 27 -59 59 -59h72c20 0 59 27 59 59v486h155v-487c0 -119 -67 -213 -214 -213h-72z" />
    <glyph glyph-name="Uogonek" unicode="&#x172;" 
d="M264 0c-120 0 -214 94 -214 214l1 486h155l-1 -486c0 -32 27 -59 59 -59h72c20 0 59 27 59 59v486h155v-487c0 -119 -67 -213 -214 -213h-72zM353 -44l71 -156h-138l-52 156h119z" />
    <glyph glyph-name="Uring" unicode="&#x16e;" 
d="M299 700c-83 0 -148 66 -148 149c0 81 65 148 148 148c82 0 149 -67 149 -148c0 -83 -67 -149 -149 -149zM299 816c20 0 33 14 33 33s-13 31 -33 31c-18 0 -32 -12 -32 -31s14 -33 32 -33zM264 0c-120 0 -214 94 -214 214l1 486h155l-1 -486c0 -32 27 -59 59 -59h72
c20 0 59 27 59 59v486h155v-487c0 -119 -67 -213 -214 -213h-72z" />
    <glyph glyph-name="V" unicode="V" horiz-adv-x="714" 
d="M303 0l-226 700h163l117 -374l117 374h162l-223 -700h-110z" />
    <glyph glyph-name="W" unicode="W" horiz-adv-x="700" 
d="M50 700h155v-368l86 126h122l82 -127v369h155v-700h-120l-180 268l-181 -268h-119v700z" />
    <glyph glyph-name="Wacute" unicode="&#x1e82;" horiz-adv-x="700" 
d="M427 757h-119l52 156h138zM50 700h155v-368l86 126h122l82 -127v369h155v-700h-120l-180 268l-181 -268h-119v700z" />
    <glyph glyph-name="Wcircumflex" unicode="&#x174;" horiz-adv-x="700" 
d="M188 847l143 73h39l143 -73l-78 -102l-84 52l-85 -52zM50 700h155v-368l86 126h122l82 -127v369h155v-700h-120l-180 268l-181 -268h-119v700z" />
    <glyph glyph-name="Wdieresis" unicode="&#x1e84;" horiz-adv-x="700" 
d="M231 750c-57 0 -101 36 -101 92c0 57 44 90 101 90c55 0 102 -33 102 -90c0 -56 -47 -92 -102 -92zM469 750c-58 0 -102 36 -102 92c0 57 44 90 102 90c54 0 101 -33 101 -90c0 -56 -47 -92 -101 -92zM50 700h155v-368l86 126h122l82 -127v369h155v-700h-120l-180 268
l-181 -268h-119v700z" />
    <glyph glyph-name="Wgrave" unicode="&#x1e80;" horiz-adv-x="700" 
d="M293 757l-71 156h138l52 -156h-119zM50 700h155v-368l86 126h122l82 -127v369h155v-700h-120l-180 268l-181 -268h-119v700z" />
    <glyph glyph-name="X" unicode="X" horiz-adv-x="732" 
d="M50 0l217 350l-217 349l184 1l133 -224l131 224h184l-218 -350l218 -350h-184l-131 224l-133 -224h-184z" />
    <glyph glyph-name="Y" unicode="Y" horiz-adv-x="638" 
d="M242 0l-1 323l-241 377h183l135 -210l135 210h185l-245 -377l1 -323h-152z" />
    <glyph glyph-name="Yacute" unicode="&#xdd;" horiz-adv-x="739" 
d="M437 757h-119l52 156h138zM242 0l-1 323l-241 377h183l135 -210l135 210h185l-245 -377l1 -323h-152z" />
    <glyph glyph-name="Ycircumflex" unicode="&#x176;" horiz-adv-x="739" 
d="M206 847l143 73h39l143 -73l-78 -102l-84 52l-85 -52zM242 0l-1 323l-241 377h183l135 -210l135 210h185l-245 -377l1 -323h-152z" />
    <glyph glyph-name="Ydieresis" unicode="&#x178;" horiz-adv-x="739" 
d="M251 750c-57 0 -101 36 -101 92c0 57 44 90 101 90c55 0 102 -33 102 -90c0 -56 -47 -92 -102 -92zM489 750c-58 0 -102 36 -102 92c0 57 44 90 102 90c54 0 101 -33 101 -90c0 -56 -47 -92 -101 -92zM242 0l-1 323l-241 377h183l135 -210l135 210h185l-245 -377l1 -323
h-152z" />
    <glyph glyph-name="Ygrave" unicode="&#x1ef2;" horiz-adv-x="739" 
d="M317 757l-71 156h138l52 -156h-119zM242 0l-1 323l-241 377h183l135 -210l135 210h185l-245 -377l1 -323h-152z" />
    <glyph glyph-name="Z" unicode="Z" horiz-adv-x="695" 
d="M50 0v124l374 421h-374v155h595v-124l-374 -421h374v-155h-595z" />
    <glyph glyph-name="Zacute" unicode="&#x179;" horiz-adv-x="695" 
d="M362 757h-119l52 156h138zM50 0v124l374 421h-374v155h595v-124l-374 -421h374v-155h-595z" />
    <glyph glyph-name="Zcaron" unicode="&#x17d;" horiz-adv-x="695" 
d="M185 823l78 103l85 -51l84 51l78 -103l-143 -73h-39zM50 0v124l374 421h-374v155h595v-124l-374 -421h374v-155h-595z" />
    <glyph glyph-name="Zdotaccent" unicode="&#x17b;" horiz-adv-x="695" 
d="M349 750c-57 0 -102 36 -102 92c0 57 45 90 102 90c55 0 102 -33 102 -90c0 -56 -47 -92 -102 -92zM50 0v124l374 421h-374v155h595v-124l-374 -421h374v-155h-595z" />
    <glyph glyph-name="S.001" horiz-adv-x="645" 
d="M50 217h156c-10 -58 29 -64 116 -64c71 0 138 -2 138 49c0 118 -398 17 -398 297c0 162 94 201 260 201c220 0 278 -93 268 -223h-153c10 65 -49 68 -115 68c-42 0 -105 15 -105 -48c0 -107 398 -28 398 -295c0 -158 -116 -202 -293 -202c-148 0 -282 45 -272 217z" />
    <glyph glyph-name="a" unicode="a" horiz-adv-x="673" 
d="M177 0h-167l273 700h108l272 -700h-164l-53 141h-219zM269 297h136l-69 179z" />
    <glyph glyph-name="aacute" unicode="&#xe1;" horiz-adv-x="673" 
d="M414 750h-119l52 156h138zM177 0h-167l273 700h108l272 -700h-164l-53 141h-219zM269 297h136l-69 179z" />
    <glyph glyph-name="abreve" unicode="&#x103;" horiz-adv-x="673" 
d="M336 750c-79 0 -144 65 -144 144h139c0 -12 -3 -14 5 -14c11 0 5 2 5 14h139c0 -79 -64 -144 -144 -144zM177 0h-167l273 700h108l272 -700h-164l-53 141h-219zM269 297h136l-69 179z" />
    <glyph glyph-name="acircumflex" unicode="&#xe2;" horiz-adv-x="673" 
d="M174 847l143 73h39l143 -73l-78 -102l-84 52l-85 -52zM177 0h-167l273 700h108l272 -700h-164l-53 141h-219zM269 297h136l-69 179z" />
    <glyph glyph-name="adieresis" unicode="&#xe4;" horiz-adv-x="673" 
d="M217 750c-57 0 -101 36 -101 92c0 57 44 90 101 90c55 0 102 -33 102 -90c0 -56 -47 -92 -102 -92zM455 750c-58 0 -102 36 -102 92c0 57 44 90 102 90c54 0 101 -33 101 -90c0 -56 -47 -92 -101 -92zM177 0h-167l273 700h108l272 -700h-164l-53 141h-219zM269 297h136
l-69 179z" />
    <glyph glyph-name="agrave" unicode="&#xe0;" horiz-adv-x="673" 
d="M276 757l-71 156h138l52 -156h-119zM177 0h-167l273 700h108l272 -700h-164l-53 141h-219zM269 297h136l-69 179z" />
    <glyph glyph-name="amacron" unicode="&#x101;" horiz-adv-x="673" 
d="M207 882h269v-132h-269v132zM177 0h-167l273 700h108l272 -700h-164l-53 141h-219zM269 297h136l-69 179z" />
    <glyph glyph-name="aogonek" unicode="&#x105;" horiz-adv-x="673" 
d="M177 0h-167l273 700h108l272 -700h-164l-53 141h-219zM269 297h136l-69 179zM366 -44l71 -156h-138l-52 156h119z" />
    <glyph glyph-name="aring" unicode="&#xe5;" horiz-adv-x="673" 
d="M335 730c-83 0 -148 66 -148 149c0 81 65 148 148 148c82 0 149 -67 149 -148c0 -83 -67 -149 -149 -149zM335 846c20 0 33 14 33 33s-13 31 -33 31c-18 0 -32 -12 -32 -31s14 -33 32 -33zM177 0h-167l273 700h108l272 -700h-164l-53 141h-219zM269 297h136l-69 179z" />
    <glyph glyph-name="atilde" unicode="&#xe3;" horiz-adv-x="673" 
d="M150 766c0 89 51 150 130 150c43 0 61 -34 95 -34c25 0 36 22 36 34h115c0 -88 -42 -151 -114 -151c-39 0 -69 32 -103 32c-31 0 -40 -16 -40 -31h-119zM177 0h-167l273 700h108l272 -700h-164l-53 141h-219zM269 297h136l-69 179z" />
    <glyph glyph-name="ae" unicode="&#xe6;" horiz-adv-x="924" 
d="M50 0l273 700h551v-155h-267v-118h177v-154h-177v-118h267v-155h-424v141h-183l-50 -141h-167zM309 297l141 -1v250l-47 -1z" />
    <glyph glyph-name="b" unicode="b" 
d="M50 0l-2 700h256c173 0 272 -187 187 -328c130 -170 37 -372 -151 -372h-290zM205 428h99c71 0 90 117 0 117h-99v-117zM205 155h135c71 0 82 117 0 117h-135v-117z" />
    <glyph glyph-name="c" unicode="c" 
d="M264 0c-123 0 -214 103 -214 214v272c0 117 94 214 214 214h72c123 0 214 -103 214 -214h-155c0 32 -27 59 -59 59h-72c-32 0 -59 -27 -59 -59v-272c0 -32 27 -59 59 -59h72c32 0 59 27 59 59h155c0 -117 -94 -214 -214 -214h-72z" />
    <glyph glyph-name="cacute" unicode="&#x107;" 
d="M362 757h-119l52 156h138zM264 0c-123 0 -214 103 -214 214v272c0 117 94 214 214 214h72c123 0 214 -103 214 -214h-155c0 32 -27 59 -59 59h-72c-32 0 -59 -27 -59 -59v-272c0 -32 27 -59 59 -59h72c32 0 59 27 59 59h155c0 -117 -94 -214 -214 -214h-72z" />
    <glyph glyph-name="ccaron" unicode="&#x10d;" 
d="M137 823l78 103l85 -51l84 51l78 -103l-143 -73h-39zM264 0c-123 0 -214 103 -214 214v272c0 117 94 214 214 214h72c123 0 214 -103 214 -214h-155c0 32 -27 59 -59 59h-72c-32 0 -59 -27 -59 -59v-272c0 -32 27 -59 59 -59h72c32 0 59 27 59 59h155
c0 -117 -94 -214 -214 -214h-72z" />
    <glyph glyph-name="ccedilla" unicode="&#xe7;" 
d="M264 0c-123 0 -214 103 -214 214v272c0 117 94 214 214 214h72c123 0 214 -103 214 -214h-155c0 32 -27 59 -59 59h-72c-32 0 -59 -27 -59 -59v-272c0 -32 27 -59 59 -59h72c32 0 59 27 59 59h155c0 -117 -94 -214 -214 -214h-72zM269 -41h119l-52 -156h-138z" />
    <glyph glyph-name="cdotaccent" unicode="&#x10b;" 
d="M300 750c-57 0 -102 36 -102 92c0 57 45 90 102 90c55 0 102 -33 102 -90c0 -56 -47 -92 -102 -92zM264 0c-123 0 -214 103 -214 214v272c0 117 94 214 214 214h72c123 0 214 -103 214 -214h-155c0 32 -27 59 -59 59h-72c-32 0 -59 -27 -59 -59v-272c0 -32 27 -59 59 -59
h72c32 0 59 27 59 59h155c0 -117 -94 -214 -214 -214h-72z" />
    <glyph glyph-name="d" unicode="d" 
d="M50 0v700h286c119 0 211 -95 214 -212v-276c-3 -117 -95 -212 -214 -212h-286zM205 155h131c33 0 59 27 59 59v272c0 32 -26 59 -59 59h-131v-390z" />
    <glyph glyph-name="eth" unicode="&#xf0;" horiz-adv-x="695" 
d="M431 700c119 0 211 -95 214 -212v-276c-3 -117 -95 -212 -214 -212h-286v285h-102v130h102v285h286zM490 214v272c0 32 -26 59 -59 59h-131v-130h109v-130h-109v-130h131c33 0 59 27 59 59z" />
    <glyph glyph-name="dcaron" unicode="&#x10f;" 
d="M138 823l78 103l85 -51l84 51l78 -103l-143 -73h-39zM50 0v700h286c119 0 211 -95 214 -212v-276c-3 -117 -95 -212 -214 -212h-286zM205 155h131c33 0 59 27 59 59v272c0 32 -26 59 -59 59h-131v-390z" />
    <glyph glyph-name="dcroat" unicode="&#x111;" 
d="M336 700c119 0 211 -95 214 -212v-276c-3 -117 -95 -212 -214 -212h-286v285h-173v130h173v285h286zM395 214v272c0 32 -26 59 -59 59h-131v-130h120v-130h-120v-130h131c33 0 59 27 59 59z" />
    <glyph glyph-name="e" unicode="e" horiz-adv-x="523" 
d="M48 0l2 700h456v-155h-301v-118h211v-154h-211v-118h301v-155h-458z" />
    <glyph glyph-name="eacute" unicode="&#xe9;" horiz-adv-x="523" 
d="M362 757h-119l52 156h138zM48 0l2 700h456v-155h-301v-118h211v-154h-211v-118h301v-155h-458z" />
    <glyph glyph-name="ecaron" unicode="&#x11b;" 
d="M137 823l78 103l85 -51l84 51l78 -103l-143 -73h-39zM48 0l2 700h456v-155h-301v-118h211v-154h-211v-118h301v-155h-458z" />
    <glyph glyph-name="ecircumflex" unicode="&#xea;" horiz-adv-x="523" 
d="M98 847l143 73h39l143 -73l-78 -102l-84 52l-85 -52zM48 0l2 700h456v-155h-301v-118h211v-154h-211v-118h301v-155h-458z" />
    <glyph glyph-name="edieresis" unicode="&#xeb;" horiz-adv-x="523" 
d="M141 750c-57 0 -101 36 -101 92c0 57 44 90 101 90c55 0 102 -33 102 -90c0 -56 -47 -92 -102 -92zM379 750c-58 0 -102 36 -102 92c0 57 44 90 102 90c54 0 101 -33 101 -90c0 -56 -47 -92 -101 -92zM48 0l2 700h456v-155h-301v-118h211v-154h-211v-118h301v-155h-458z
" />
    <glyph glyph-name="edotaccent" unicode="&#x117;" 
d="M300 750c-57 0 -102 36 -102 92c0 57 45 90 102 90c55 0 102 -33 102 -90c0 -56 -47 -92 -102 -92zM48 0l2 700h456v-155h-301v-118h211v-154h-211v-118h301v-155h-458z" />
    <glyph glyph-name="egrave" unicode="&#xe8;" horiz-adv-x="523" 
d="M224 757l-71 156h138l52 -156h-119zM48 0l2 700h456v-155h-301v-118h211v-154h-211v-118h301v-155h-458z" />
    <glyph glyph-name="emacron" unicode="&#x113;" 
d="M165 882h269v-132h-269v132zM48 0l2 700h456v-155h-301v-118h211v-154h-211v-118h301v-155h-458z" />
    <glyph glyph-name="eogonek" unicode="&#x119;" 
d="M48 0l2 700h456v-155h-301v-118h211v-154h-211v-118h301v-155h-458zM366 -44l71 -156h-138l-52 156h119z" />
    <glyph glyph-name="f" unicode="f" horiz-adv-x="523" 
d="M50 0v700h423v-155h-268v-118h178v-154h-178v-273h-155z" />
    <glyph glyph-name="g" unicode="g" 
d="M264 0c-123 0 -214 103 -214 214v272c0 117 94 214 214 214h72c123 0 214 -83 214 -194h-155c0 32 -27 39 -59 39h-72c-32 0 -59 -27 -59 -59v-272c0 -32 27 -59 59 -59h72c32 0 59 27 59 59v19h-78v154h233v-173c0 -117 -94 -214 -214 -214h-72z" />
    <glyph glyph-name="gbreve" unicode="&#x11f;" 
d="M310 750c-79 0 -144 65 -144 144h139c0 -12 -3 -14 5 -14c11 0 5 2 5 14h139c0 -79 -64 -144 -144 -144zM264 0c-123 0 -214 103 -214 214v272c0 117 94 214 214 214h72c123 0 214 -83 214 -194h-155c0 32 -27 39 -59 39h-72c-32 0 -59 -27 -59 -59v-272
c0 -32 27 -59 59 -59h72c32 0 59 27 59 59v19h-78v154h233v-173c0 -117 -94 -214 -214 -214h-72z" />
    <glyph glyph-name="gcommaaccent" unicode="&#x123;" 
d="M300 750c-57 0 -102 36 -102 92c-3 57 7 117 30 153c40 58 94 69 148 69v-61c-60 0 -82 -35 -89 -72c4 1 9 1 13 1c55 0 102 -33 102 -90c0 -56 -47 -92 -102 -92zM317 233v154h233v-173c0 -117 -94 -214 -214 -214h-72c-123 0 -214 103 -214 214v272
c0 117 94 214 214 214h72c123 0 214 -83 214 -194h-155c0 32 -27 39 -59 39h-72c-32 0 -59 -27 -59 -59v-272c0 -32 27 -59 59 -59h72c32 0 59 27 59 59v19h-78z" />
    <glyph glyph-name="gdotaccent" unicode="&#x121;" 
d="M300 750c-57 0 -102 36 -102 92c0 57 45 90 102 90c55 0 102 -33 102 -90c0 -56 -47 -92 -102 -92zM264 0c-123 0 -214 103 -214 214v272c0 117 94 214 214 214h72c123 0 214 -83 214 -194h-155c0 32 -27 39 -59 39h-72c-32 0 -59 -27 -59 -59v-272c0 -32 27 -59 59 -59
h72c32 0 59 27 59 59v19h-78v154h233v-173c0 -117 -94 -214 -214 -214h-72z" />
    <glyph glyph-name="h" unicode="h" 
d="M50 0v700h155v-273h190v273h155v-700h-155v273h-190v-273h-155z" />
    <glyph glyph-name="hbar" unicode="&#x127;" horiz-adv-x="733" 
d="M697 639v-147h-78v-492h-155v273h-190v-273h-155v492h-81v147h81v61h155v-61h190v61h155v-61h78zM464 427v65h-190v-65h190z" />
    <glyph glyph-name="i" unicode="i" horiz-adv-x="299" 
d="M75 0v700h149v-700h-149z" />
    <glyph glyph-name="dotlessi" unicode="&#x131;" horiz-adv-x="299" 
d="M75 0v700h149v-700h-149z" />
    <glyph glyph-name="iacute" unicode="&#xed;" horiz-adv-x="249" 
d="M212 757h-119l52 156h138zM75 0v700h149v-700h-149z" />
    <glyph glyph-name="icircumflex" unicode="&#xee;" horiz-adv-x="315" 
d="M-25 847l143 73h39l143 -73l-78 -102l-84 52l-85 -52zM75 0v700h149v-700h-149z" />
    <glyph glyph-name="idieresis" unicode="&#xef;" horiz-adv-x="341" 
d="M43 750c-57 0 -101 36 -101 92c0 57 44 90 101 90c55 0 102 -33 102 -90c0 -56 -47 -92 -102 -92zM281 750c-58 0 -102 36 -102 92c0 57 44 90 102 90c54 0 101 -33 101 -90c0 -56 -47 -92 -101 -92zM75 0v700h149v-700h-149z" />
    <glyph glyph-name="i.loclTRK" horiz-adv-x="303" 
d="M151 750c-57 0 -102 36 -102 92c0 57 45 90 102 90c55 0 102 -33 102 -90c0 -56 -47 -92 -102 -92zM75 0v700h149v-700h-149z" />
    <glyph glyph-name="igrave" unicode="&#xec;" horiz-adv-x="290" 
d="M87 757l-71 156h138l52 -156h-119zM75 0v700h149v-700h-149z" />
    <glyph glyph-name="imacron" unicode="&#x12b;" horiz-adv-x="291" 
d="M11 882h269v-132h-269v132zM75 0v700h149v-700h-149z" />
    <glyph glyph-name="iogonek" unicode="&#x12f;" horiz-adv-x="291" 
d="M92 0v700h149v-700h-149zM228 -46l74 -164h-145l-54 164h125z" />
    <glyph glyph-name="j" unicode="j" 
d="M264 0c-120 0 -214 97 -214 214h155c0 -32 27 -59 59 -59h72c32 0 59 27 59 59v486h155v-486c0 -111 -91 -214 -214 -214h-72z" />
    <glyph glyph-name="k" unicode="k" horiz-adv-x="720" 
d="M464 0l-233 286l-26 -28v-258h-155v700h155v-258l246 258h216l-307 -315l310 -385h-206z" />
    <glyph glyph-name="kcommaaccent" unicode="&#x137;" 
d="M464 0l-233 286l-26 -28v-258h-155v700h155v-258l246 258h216l-307 -315l310 -385h-206zM392 -230c2 -86 -71 -158 -150 -160l-1 139c11 0 21 4 21 19c0 18 -9 19 -21 19l-1 139c79 2 151 -69 152 -156z" />
    <glyph glyph-name="l" unicode="l" horiz-adv-x="517" 
d="M50 0v700h155v-545h262v-155h-417z" />
    <glyph glyph-name="lacute" unicode="&#x13a;" horiz-adv-x="592" 
d="M187 757h-119l52 156h138zM50 0v700h155v-545h262v-155h-417z" />
    <glyph glyph-name="lcaron" unicode="&#x13e;" horiz-adv-x="592" 
d="M457 583c2 -86 -71 -158 -150 -160l-1 139c11 0 21 4 21 19c0 18 -9 19 -21 19l-1 139c79 2 151 -69 152 -156zM50 0v700h155v-545h262v-155h-417z" />
    <glyph glyph-name="lcommaaccent" unicode="&#x13c;" 
d="M50 0v700h155v-545h262v-155h-417zM392 -230c2 -86 -71 -158 -150 -160l-1 139c11 0 21 4 21 19c0 18 -9 19 -21 19l-1 139c79 2 151 -69 152 -156z" />
    <glyph glyph-name="lslash" unicode="&#x142;" horiz-adv-x="517" 
d="M205 155h262v-155h-417v258l-70 -49l-74 107l144 101v283h155v-175l68 48l74 -107l-142 -99v-212z" />
    <glyph glyph-name="m" unicode="m" horiz-adv-x="700" 
d="M50 0v700h117l183 -271l182 271h118v-700h-155v368l-80 -130h-126l-84 129v-367h-155z" />
    <glyph glyph-name="n" unicode="n" 
d="M50 0v700h117l229 -358l-1 358h155v-700h-119l-226 360v-360h-155z" />
    <glyph glyph-name="nacute" unicode="&#x144;" 
d="M362 757h-119l52 156h138zM50 0v700h117l229 -358l-1 358h155v-700h-119l-226 360v-360h-155z" />
    <glyph glyph-name="ncaron" unicode="&#x148;" 
d="M137 823l78 103l85 -51l84 51l78 -103l-143 -73h-39zM50 0v700h117l229 -358l-1 358h155v-700h-119l-226 360v-360h-155z" />
    <glyph glyph-name="ncommaaccent" unicode="&#x146;" 
d="M50 0v700h117l229 -358l-1 358h155v-700h-119l-226 360v-360h-155zM392 -230c2 -86 -71 -158 -150 -160l-1 139c11 0 21 4 21 19c0 18 -9 19 -21 19l-1 139c79 2 151 -69 152 -156z" />
    <glyph glyph-name="eng" unicode="&#x14b;" 
d="M395 700h155v-749c0 -112 -91 -214 -214 -214c-125 0 -218 97 -218 214h155c0 -35 27 -59 63 -59c32 0 59 26 59 59v106l-190 303v-360h-155v700h117l228 -356v93h1z" />
    <glyph glyph-name="ntilde" unicode="&#xf1;" 
d="M113 780c0 89 51 150 130 150c43 0 61 -34 95 -34c25 0 36 22 36 34h115c0 -88 -42 -151 -114 -151c-39 0 -69 32 -103 32c-31 0 -40 -16 -40 -31h-119zM50 0v700h117l229 -358l-1 358h155v-700h-119l-226 360v-360h-155z" />
    <glyph glyph-name="o" unicode="o" 
d="M264 0c-118 0 -214 94 -214 214l1 274c0 116 94 212 213 212h74c114 0 208 -94 212 -209v-280c-1 -116 -96 -211 -212 -211h-74zM264 155h74c32 0 59 25 59 59v272c0 29 -25 59 -59 59h-74c-33 0 -60 -24 -60 -59l1 -272c0 -34 25 -59 59 -59z" />
    <glyph glyph-name="oacute" unicode="&#xf3;" 
d="M362 757h-119l52 156h138zM264 0c-118 0 -214 94 -214 214l1 274c0 116 94 212 213 212h74c114 0 208 -94 212 -209v-280c-1 -116 -96 -211 -212 -211h-74zM264 155h74c32 0 59 25 59 59v272c0 29 -25 59 -59 59h-74c-33 0 -60 -24 -60 -59l1 -272c0 -34 25 -59 59 -59z
" />
    <glyph glyph-name="ocircumflex" unicode="&#xf4;" 
d="M138 847l143 73h39l143 -73l-78 -102l-84 52l-85 -52zM264 0c-118 0 -214 94 -214 214l1 274c0 116 94 212 213 212h74c114 0 208 -94 212 -209v-280c-1 -116 -96 -211 -212 -211h-74zM264 155h74c32 0 59 25 59 59v272c0 29 -25 59 -59 59h-74c-33 0 -60 -24 -60 -59
l1 -272c0 -34 25 -59 59 -59z" />
    <glyph glyph-name="odieresis" unicode="&#xf6;" 
d="M181 750c-57 0 -101 36 -101 92c0 57 44 90 101 90c55 0 102 -33 102 -90c0 -56 -47 -92 -102 -92zM419 750c-58 0 -102 36 -102 92c0 57 44 90 102 90c54 0 101 -33 101 -90c0 -56 -47 -92 -101 -92zM264 0c-118 0 -214 94 -214 214l1 274c0 116 94 212 213 212h74
c114 0 208 -94 212 -209v-280c-1 -116 -96 -211 -212 -211h-74zM264 155h74c32 0 59 25 59 59v272c0 29 -25 59 -59 59h-74c-33 0 -60 -24 -60 -59l1 -272c0 -34 25 -59 59 -59z" />
    <glyph glyph-name="ograve" unicode="&#xf2;" 
d="M224 757l-71 156h138l52 -156h-119zM264 0c-118 0 -214 94 -214 214l1 274c0 116 94 212 213 212h74c114 0 208 -94 212 -209v-280c-1 -116 -96 -211 -212 -211h-74zM264 155h74c32 0 59 25 59 59v272c0 29 -25 59 -59 59h-74c-33 0 -60 -24 -60 -59l1 -272
c0 -34 25 -59 59 -59z" />
    <glyph glyph-name="ohungarumlaut" unicode="&#x151;" 
d="M275 757h-119l52 156h138zM450 757h-120l52 156h139zM264 0c-118 0 -214 94 -214 214l1 274c0 116 94 212 213 212h74c114 0 208 -94 212 -209v-280c-1 -116 -96 -211 -212 -211h-74zM264 155h74c32 0 59 25 59 59v272c0 29 -25 59 -59 59h-74c-33 0 -60 -24 -60 -59
l1 -272c0 -34 25 -59 59 -59z" />
    <glyph glyph-name="omacron" unicode="&#x14d;" 
d="M165 882h269v-132h-269v132zM264 0c-118 0 -214 94 -214 214l1 274c0 116 94 212 213 212h74c114 0 208 -94 212 -209v-280c-1 -116 -96 -211 -212 -211h-74zM264 155h74c32 0 59 25 59 59v272c0 29 -25 59 -59 59h-74c-33 0 -60 -24 -60 -59l1 -272c0 -34 25 -59 59 -59
z" />
    <glyph glyph-name="oslash" unicode="&#xf8;" 
d="M626 724l-106 -131c18 -30 29 -65 30 -102v-280c-1 -116 -96 -211 -212 -211h-74c-65 0 -124 29 -163 74l-68 -84h-132l152 188c-2 12 -3 24 -3 36l1 274c0 116 94 212 213 212h74c40 0 78 -12 111 -32l45 56h132zM204 486v-120l145 178c-4 1 -7 1 -11 1h-74
c-33 0 -60 -24 -60 -59zM397 214v227l-191 -237c4 -29 27 -49 58 -49h74c32 0 59 25 59 59z" />
    <glyph glyph-name="otilde" unicode="&#xf5;" 
d="M113 780c0 89 51 150 130 150c43 0 61 -34 95 -34c25 0 36 22 36 34h115c0 -88 -42 -151 -114 -151c-39 0 -69 32 -103 32c-31 0 -40 -16 -40 -31h-119zM264 0c-118 0 -214 94 -214 214l1 274c0 116 94 212 213 212h74c114 0 208 -94 212 -209v-280
c-1 -116 -96 -211 -212 -211h-74zM264 155h74c32 0 59 25 59 59v272c0 29 -25 59 -59 59h-74c-33 0 -60 -24 -60 -59l1 -272c0 -34 25 -59 59 -59z" />
    <glyph glyph-name="oe" unicode="&#x153;" horiz-adv-x="807" 
d="M264 0c-118 0 -214 94 -214 214l1 274c0 116 94 212 213 212h493v-155h-268v-118h178v-154h-178v-118h268v-155h-493zM264 155h68l2 390h-70c-33 0 -60 -24 -60 -59l1 -272c0 -34 25 -59 59 -59z" />
    <glyph glyph-name="p" unicode="p" 
d="M50 0v700h291c279 0 278 -467 0 -467h-136v-233h-155zM205 387h136c68 0 88 158 0 158h-136v-158z" />
    <glyph glyph-name="thorn" unicode="&#xfe;" 
d="M341 563c279 0 278 -427 0 -427h-136v-136h-155v700h155v-137h136zM341 290c68 0 88 118 0 118h-136v-118h136z" />
    <glyph glyph-name="q" unicode="q" 
d="M588 80l-119 -119l-54 54c-24 -10 -50 -15 -77 -15h-74c-118 0 -214 94 -214 214l1 274c0 116 94 212 213 212h74c114 0 208 -94 212 -209v-280c0 -27 -6 -54 -15 -78zM264 155h11l-41 41l119 119l44 -44v215c0 29 -25 59 -59 59h-74c-33 0 -60 -24 -60 -59l1 -272
c0 -34 25 -59 59 -59z" />
    <glyph glyph-name="r" unicode="r" horiz-adv-x="612" 
d="M50 0v700h283c319 0 297 -423 91 -457l168 -243h-179l-147 233h-61v-233h-155zM205 387h125c104 0 89 158 3 158h-128v-158z" />
    <glyph glyph-name="racute" unicode="&#x155;" 
d="M362 757h-119l52 156h138zM50 0v700h283c319 0 297 -423 91 -457l168 -243h-179l-147 233h-61v-233h-155zM205 387h125c104 0 89 158 3 158h-128v-158z" />
    <glyph glyph-name="rcaron" unicode="&#x159;" 
d="M137 823l78 103l85 -51l84 51l78 -103l-143 -73h-39zM50 0v700h283c319 0 297 -423 91 -457l168 -243h-179l-147 233h-61v-233h-155zM205 387h125c104 0 89 158 3 158h-128v-158z" />
    <glyph glyph-name="rcommaaccent" unicode="&#x157;" 
d="M50 0v700h283c319 0 297 -423 91 -457l168 -243h-179l-147 233h-61v-233h-155zM205 387h125c104 0 89 158 3 158h-128v-158zM392 -217c2 -86 -71 -158 -150 -160l-1 139c11 0 21 4 21 19c0 18 -9 19 -21 19l-1 139c79 2 151 -69 152 -156z" />
    <glyph glyph-name="s" unicode="s" horiz-adv-x="645" 
d="M84 217h155c-10 -58 46 -64 83 -64c38 0 104 -1 104 49c0 135 -330 17 -330 297c0 162 77 201 226 201c170 0 244 -93 234 -223h-153c10 65 -24 85 -73 85c-8 0 -79 8 -79 -65c0 -114 330 -28 330 -295c0 -158 -116 -202 -259 -202c-98 0 -248 45 -238 217z" />
    <glyph glyph-name="sacute" unicode="&#x15b;" 
d="M362 757h-119l52 156h138zM84 217h155c-10 -58 46 -64 83 -64c38 0 104 -1 104 49c0 135 -330 17 -330 297c0 162 77 201 226 201c170 0 244 -93 234 -223h-153c10 65 -24 85 -73 85c-8 0 -79 8 -79 -65c0 -114 330 -28 330 -295c0 -158 -116 -202 -259 -202
c-98 0 -248 45 -238 217z" />
    <glyph glyph-name="scaron" unicode="&#x161;" 
d="M149 823l78 103l85 -51l84 51l78 -103l-143 -73h-39zM84 217h155c-10 -58 46 -64 83 -64c38 0 104 -1 104 49c0 135 -330 17 -330 297c0 162 77 201 226 201c170 0 244 -93 234 -223h-153c10 65 -24 85 -73 85c-8 0 -79 8 -79 -65c0 -114 330 -28 330 -295
c0 -158 -116 -202 -259 -202c-98 0 -248 45 -238 217z" />
    <glyph glyph-name="scedilla" unicode="&#x15f;" 
d="M84 217h155c-10 -58 46 -64 83 -64c38 0 104 -1 104 49c0 135 -330 17 -330 297c0 162 77 201 226 201c170 0 244 -93 234 -223h-153c10 65 -24 85 -73 85c-8 0 -79 8 -79 -65c0 -114 330 -28 330 -295c0 -158 -116 -202 -259 -202c-98 0 -248 45 -238 217zM275 -44h119
l-52 -156h-138z" />
    <glyph glyph-name="scommaaccent" unicode="&#x219;" 
d="M84 217h155c-10 -58 46 -64 83 -64c38 0 104 -1 104 49c0 135 -330 17 -330 297c0 162 77 201 226 201c170 0 244 -93 234 -223h-153c10 65 -24 85 -73 85c-8 0 -79 8 -79 -65c0 -114 330 -28 330 -295c0 -158 -116 -202 -259 -202c-98 0 -248 45 -238 217zM392 -230
c2 -86 -71 -158 -150 -160l-1 139c11 0 21 4 21 19c0 18 -9 19 -21 19l-1 139c79 2 151 -69 152 -156z" />
    <glyph glyph-name="germandbls" unicode="&#xdf;" 
d="M259 0l-1 155h76c71 0 82 111 0 111h-74v154h38c71 0 89 130 0 130h-17c-37 0 -68 -30 -68 -68v-482h-155v481c0 130 94 224 224 224h16c172 0 272 -199 187 -340c130 -170 36 -365 -151 -365h-75z" />
    <glyph glyph-name="t" unicode="t" horiz-adv-x="581" 
d="M214 0v545h-164v155h481v-155h-164v-545h-153z" />
    <glyph glyph-name="tbar" unicode="&#x167;" 
d="M531 545h-164v-99h157v-130h-157v-316h-153v316h-138v130h138v99h-164v155h481v-155z" />
    <glyph glyph-name="tcaron" unicode="&#x165;" horiz-adv-x="581" 
d="M128 823l78 103l85 -51l84 51l78 -103l-143 -73h-39zM214 0v545h-164v155h481v-155h-164v-545h-153z" />
    <glyph glyph-name="uni0163" unicode="&#x163;" 
d="M214 0v545h-164v155h481v-155h-164v-545h-153zM230 -44h119l-52 -156h-138z" />
    <glyph glyph-name="uni021B" unicode="&#x21b;" 
d="M214 0v545h-164v155h481v-155h-164v-545h-153zM392 -230c2 -86 -71 -158 -150 -160l-1 139c11 0 21 4 21 19c0 18 -9 19 -21 19l-1 139c79 2 151 -69 152 -156z" />
    <glyph glyph-name="u" unicode="u" 
d="M264 0c-120 0 -214 94 -214 214l1 486h155l-1 -486c0 -32 27 -59 59 -59h72c20 0 59 27 59 59v486h155v-487c0 -119 -67 -213 -214 -213h-72z" />
    <glyph glyph-name="uacute" unicode="&#xfa;" 
d="M362 757h-119l52 156h138zM264 0c-120 0 -214 94 -214 214l1 486h155l-1 -486c0 -32 27 -59 59 -59h72c20 0 59 27 59 59v486h155v-487c0 -119 -67 -213 -214 -213h-72z" />
    <glyph glyph-name="ucircumflex" unicode="&#xfb;" 
d="M138 847l143 73h39l143 -73l-78 -102l-84 52l-85 -52zM264 0c-120 0 -214 94 -214 214l1 486h155l-1 -486c0 -32 27 -59 59 -59h72c20 0 59 27 59 59v486h155v-487c0 -119 -67 -213 -214 -213h-72z" />
    <glyph glyph-name="udieresis" unicode="&#xfc;" 
d="M181 750c-57 0 -101 36 -101 92c0 57 44 90 101 90c55 0 102 -33 102 -90c0 -56 -47 -92 -102 -92zM419 750c-58 0 -102 36 -102 92c0 57 44 90 102 90c54 0 101 -33 101 -90c0 -56 -47 -92 -101 -92zM264 0c-120 0 -214 94 -214 214l1 486h155l-1 -486
c0 -32 27 -59 59 -59h72c20 0 59 27 59 59v486h155v-487c0 -119 -67 -213 -214 -213h-72z" />
    <glyph glyph-name="ugrave" unicode="&#xf9;" 
d="M224 757l-71 156h138l52 -156h-119zM264 0c-120 0 -214 94 -214 214l1 486h155l-1 -486c0 -32 27 -59 59 -59h72c20 0 59 27 59 59v486h155v-487c0 -119 -67 -213 -214 -213h-72z" />
    <glyph glyph-name="uhungarumlaut" unicode="&#x171;" 
d="M267 757h-119l52 156h138zM442 757h-120l52 156h139zM264 0c-120 0 -214 94 -214 214l1 486h155l-1 -486c0 -32 27 -59 59 -59h72c20 0 59 27 59 59v486h155v-487c0 -119 -67 -213 -214 -213h-72z" />
    <glyph glyph-name="umacron" unicode="&#x16b;" 
d="M165 882h269v-132h-269v132zM264 0c-120 0 -214 94 -214 214l1 486h155l-1 -486c0 -32 27 -59 59 -59h72c20 0 59 27 59 59v486h155v-487c0 -119 -67 -213 -214 -213h-72z" />
    <glyph glyph-name="uogonek" unicode="&#x173;" 
d="M264 0c-120 0 -214 94 -214 214l1 486h155l-1 -486c0 -32 27 -59 59 -59h72c20 0 59 27 59 59v486h155v-487c0 -119 -67 -213 -214 -213h-72zM366 -44l71 -156h-138l-52 156h119z" />
    <glyph glyph-name="uring" unicode="&#x16f;" 
d="M301 715c-83 0 -148 66 -148 149c0 81 65 148 148 148c82 0 149 -67 149 -148c0 -83 -67 -149 -149 -149zM301 831c20 0 33 14 33 33s-13 31 -33 31c-18 0 -32 -12 -32 -31s14 -33 32 -33zM264 0c-120 0 -214 94 -214 214l1 486h155l-1 -486c0 -32 27 -59 59 -59h72
c20 0 59 27 59 59v486h155v-487c0 -119 -67 -213 -214 -213h-72z" />
    <glyph glyph-name="v" unicode="v" horiz-adv-x="714" 
d="M303 0l-226 700h163l117 -374l117 374h162l-223 -700h-110z" />
    <glyph glyph-name="w" unicode="w" horiz-adv-x="700" 
d="M50 700h155v-368l86 126h122l82 -127v369h155v-700h-120l-180 268l-181 -268h-119v700z" />
    <glyph glyph-name="wacute" unicode="&#x1e83;" horiz-adv-x="700" 
d="M427 757h-119l52 156h138zM50 700h155v-368l86 126h122l82 -127v369h155v-700h-120l-180 268l-181 -268h-119v700z" />
    <glyph glyph-name="wcircumflex" unicode="&#x175;" horiz-adv-x="700" 
d="M188 847l143 73h39l143 -73l-78 -102l-84 52l-85 -52zM50 700h155v-368l86 126h122l82 -127v369h155v-700h-120l-180 268l-181 -268h-119v700z" />
    <glyph glyph-name="wdieresis" unicode="&#x1e85;" horiz-adv-x="700" 
d="M231 750c-57 0 -101 36 -101 92c0 57 44 90 101 90c55 0 102 -33 102 -90c0 -56 -47 -92 -102 -92zM469 750c-58 0 -102 36 -102 92c0 57 44 90 102 90c54 0 101 -33 101 -90c0 -56 -47 -92 -101 -92zM50 700h155v-368l86 126h122l82 -127v369h155v-700h-120l-180 268
l-181 -268h-119v700z" />
    <glyph glyph-name="wgrave" unicode="&#x1e81;" horiz-adv-x="700" 
d="M293 757l-71 156h138l52 -156h-119zM50 700h155v-368l86 126h122l82 -127v369h155v-700h-120l-180 268l-181 -268h-119v700z" />
    <glyph glyph-name="x" unicode="x" horiz-adv-x="732" 
d="M50 0l217 350l-217 349l184 1l133 -224l131 224h184l-218 -350l218 -350h-184l-131 224l-133 -224h-184z" />
    <glyph glyph-name="y" unicode="y" horiz-adv-x="638" 
d="M242 0l-1 323l-241 377h183l135 -210l135 210h185l-245 -377l1 -323h-152z" />
    <glyph glyph-name="yacute" unicode="&#xfd;" horiz-adv-x="739" 
d="M437 757h-119l52 156h138zM242 0l-1 323l-241 377h183l135 -210l135 210h185l-245 -377l1 -323h-152z" />
    <glyph glyph-name="ycircumflex" unicode="&#x177;" horiz-adv-x="739" 
d="M206 847l143 73h39l143 -73l-78 -102l-84 52l-85 -52zM242 0l-1 323l-241 377h183l135 -210l135 210h185l-245 -377l1 -323h-152z" />
    <glyph glyph-name="ydieresis" unicode="&#xff;" horiz-adv-x="739" 
d="M251 750c-57 0 -101 36 -101 92c0 57 44 90 101 90c55 0 102 -33 102 -90c0 -56 -47 -92 -102 -92zM489 750c-58 0 -102 36 -102 92c0 57 44 90 102 90c54 0 101 -33 101 -90c0 -56 -47 -92 -101 -92zM242 0l-1 323l-241 377h183l135 -210l135 210h185l-245 -377l1 -323
h-152z" />
    <glyph glyph-name="ygrave" unicode="&#x1ef3;" horiz-adv-x="739" 
d="M317 757l-71 156h138l52 -156h-119zM242 0l-1 323l-241 377h183l135 -210l135 210h185l-245 -377l1 -323h-152z" />
    <glyph glyph-name="z" unicode="z" horiz-adv-x="695" 
d="M50 0v124l374 421h-374v155h595v-124l-374 -421h374v-155h-595z" />
    <glyph glyph-name="zacute" unicode="&#x17a;" 
d="M362 757h-119l52 156h138zM50 0v124l374 421h-374v155h595v-124l-374 -421h374v-155h-595z" />
    <glyph glyph-name="zcaron" unicode="&#x17e;" 
d="M137 823l78 103l85 -51l84 51l78 -103l-143 -73h-39zM50 0v124l374 421h-374v155h595v-124l-374 -421h374v-155h-595z" />
    <glyph glyph-name="zdotaccent" unicode="&#x17c;" 
d="M340 750c-57 0 -102 36 -102 92c0 57 45 90 102 90c55 0 102 -33 102 -90c0 -56 -47 -92 -102 -92zM50 0v124l374 421h-374v155h595v-124l-374 -421h374v-155h-595z" />
    <glyph glyph-name="zero" unicode="0" horiz-adv-x="637" 
d="M317 -5c-149 0 -267 99 -267 267v176c0 170 117 267 272 267c146 0 265 -99 265 -267v-176c0 -173 -123 -267 -265 -267h-5zM317 146h5c64 0 115 32 115 116v176c0 84 -51 116 -115 116c-72 0 -121 -31 -121 -116v-176c0 -84 52 -116 116 -116z" />
    <glyph glyph-name="one" unicode="1" horiz-adv-x="346" 
d="M145 0v487l-72 -49l-84 124l208 138h99v-700h-151z" />
    <glyph glyph-name="two" unicode="2" horiz-adv-x="613" 
d="M50 0v76c0 290 360 280 360 415c0 46 -54 58 -92 58c-42 0 -88 -26 -82 -58h-150c-10 117 107 209 249 209c154 0 220 -75 220 -209c0 -222 -303 -214 -303 -340h294v-151h-496z" />
    <glyph glyph-name="three" unicode="3" horiz-adv-x="632" 
d="M230 0c-102 0 -180 81 -180 189h151c0 -30 14 -38 29 -38h139c81 0 83 123 0 123h-96v152h78c82 0 80 123 0 123h-104c-17 0 -30 -13 -30 -30h-150c0 100 80 181 180 181h104c177 0 271 -199 178 -339c124 -148 23 -361 -160 -361h-139z" />
    <glyph glyph-name="four" unicode="4" horiz-adv-x="611" 
d="M344 0v110l-294 1v122l334 467h116v-434h61v-156h-61v-110h-156zM344 266v116l-80 -117z" />
    <glyph glyph-name="five" unicode="5" horiz-adv-x="633" 
d="M231 0c-104 0 -181 82 -181 186h151c0 -26 13 -35 30 -35h139c30 0 62 32 62 44c0 83 -18 104 -62 104h-309l57 401l420 -8v-149l-289 9l-16 -102h137c141 0 213 -99 213 -255c0 -97 -102 -195 -213 -195h-139z" />
    <glyph glyph-name="six" unicode="6" horiz-adv-x="634" 
d="M259 0c-115 0 -209 92 -209 209v282c0 117 94 209 209 209h99c114 0 209 -92 209 -209h-151c0 32 -26 58 -58 58h-99c-32 0 -58 -26 -58 -58v-51c11 3 37 5 53 5h126c112 0 204 -92 204 -202v-34c0 -117 -94 -209 -209 -209h-116zM259 151h116c32 0 58 26 58 58v34
c0 28 -23 51 -53 51h-126c-28 0 -53 -24 -53 -51v-34c0 -32 26 -58 58 -58z" />
    <glyph glyph-name="seven" unicode="7" horiz-adv-x="583" 
d="M267 0h-172l243 548l-288 1v149l483 3v-115z" />
    <glyph glyph-name="eight" unicode="8" horiz-adv-x="630" 
d="M262 0c-116 0 -211 96 -212 212v1c0 57 18 108 62 160c-17 35 -27 73 -28 115v1c0 111 95 211 213 211h36c118 0 210 -95 214 -211h-2v-1c0 -42 -9 -80 -28 -117c37 -32 64 -102 63 -158c-1 -106 -91 -213 -194 -213h-124zM297 424h36c38 0 63 35 63 63
c-2 34 -28 62 -63 62h-36c-34 0 -63 -28 -62 -62c-1 -31 28 -63 62 -63zM262 151h106c34 0 62 27 62 62c0 34 -28 63 -62 63h-106c-34 0 -61 -29 -61 -63c0 -35 27 -62 61 -62z" />
    <glyph glyph-name="nine" unicode="9" horiz-adv-x="632" 
d="M259 0c-117 0 -209 94 -209 209h151c0 -32 26 -58 58 -58h114c32 0 58 26 58 58v34c-25 9 -36 13 -51 13h-128c-111 0 -202 91 -202 201v34c0 117 94 209 209 209h114c115 0 209 -92 209 -209v-282c0 -122 -97 -209 -209 -209h-114zM252 406h128c27 0 51 24 51 51v34
c0 32 -26 58 -58 58h-114c-32 0 -58 -26 -58 -58v-34c0 -28 23 -51 51 -51z" />
    <glyph glyph-name="fraction" unicode="&#x2044;" 
d="M-99 -10l593 734h132l-593 -734h-132z" />
    <glyph glyph-name="asterisk" unicode="*" 
d="M464 598l-105 -36l105 -35l-41 -108l-84 37v-90h-119v90l-82 -37l-43 108l105 35l-105 36l43 107l82 -38v90h119v-89l84 37z" />
    <glyph glyph-name="backslash" unicode="\" 
d="M374 -195l-332 888l157 45l331 -887z" />
    <glyph glyph-name="periodcentered" unicode="&#xb7;" 
d="M293 220c-57 0 -104 47 -104 104s47 104 104 104h14c57 0 104 -47 104 -104s-47 -104 -104 -104h-14z" />
    <glyph glyph-name="bullet" unicode="&#x2022;" 
d="M280 115c-102 0 -183 80 -183 182c0 100 81 180 183 180h34c102 0 186 -80 186 -180c0 -102 -84 -182 -186 -182h-34z" />
    <glyph glyph-name="colon" unicode=":" horiz-adv-x="404" 
d="M152 330c-57 0 -102 35 -102 91c0 58 45 90 102 90c54 0 102 -32 102 -90c0 -56 -48 -91 -102 -91zM152 -8c-57 0 -102 35 -102 91c0 58 45 90 102 90c54 0 102 -32 102 -90c0 -56 -48 -91 -102 -91z" />
    <glyph glyph-name="comma" unicode="," horiz-adv-x="362" 
d="M169 -106h-119l74 207h138z" />
    <glyph glyph-name="ellipsis" unicode="&#x2026;" 
d="M152 173c54 0 102 -32 102 -90c0 -56 -48 -91 -102 -91c-57 0 -102 35 -102 91c0 58 45 90 102 90z" />
    <glyph glyph-name="exclam" unicode="!" horiz-adv-x="319" 
d="M237 700v-418h-155v418h155zM168 203c62 0 118 -37 118 -104c0 -65 -56 -105 -118 -105c-66 0 -118 40 -118 105c0 67 52 104 118 104z" />
    <glyph glyph-name="exclamdown" unicode="&#xa1;" horiz-adv-x="419" 
d="M168 542c62 0 118 -40 118 -105c0 -67 -56 -104 -118 -104c-66 0 -118 37 -118 104c0 65 52 105 118 105zM82 -164v418h155v-418h-155z" />
    <glyph glyph-name="numbersign" unicode="#" 
d="M414 9l-147 32l21 108h-85l-29 -139l-147 32l21 107h-60v150h93l21 100h-75v150h107l34 146l149 -31l-28 -115h85l33 144l148 -32l-27 -112h78v-150h-111l-21 -100h92v-150h-124zM234 299h87l21 100h-87z" />
    <glyph glyph-name="period" unicode="." horiz-adv-x="304" 
d="M152 -8c-57 0 -102 35 -102 91c0 58 45 90 102 90c54 0 102 -32 102 -90c0 -56 -48 -91 -102 -91z" />
    <glyph glyph-name="question" unicode="?" horiz-adv-x="561" 
d="M193 202c-32 206 163 204 163 295c0 73 -71 65 -79 65c-49 0 -83 -20 -73 -85h-153c-10 130 65 223 234 223c150 0 226 -72 226 -235c0 -145 -184 -93 -163 -263h-155zM273 7c-40 0 -73 33 -73 73c0 41 33 74 73 74h10c41 0 74 -33 74 -74c0 -40 -33 -73 -74 -73h-10z
" />
    <glyph glyph-name="questiondown" unicode="&#xbf;" horiz-adv-x="561" 
d="M288 528c40 0 73 -33 73 -73c0 -41 -33 -74 -73 -74h-10c-41 0 -74 33 -74 74c0 40 33 73 74 73h10zM368 333c32 -206 -163 -204 -163 -295c0 -73 71 -65 79 -65c49 0 83 20 73 85h153c10 -130 -65 -223 -234 -223c-150 0 -226 72 -226 235c0 145 184 93 163 263h155z
" />
    <glyph glyph-name="quotedbl" unicode="&#x22;" horiz-adv-x="427" 
d="M60 524l-10 176h138l-9 -176h-119zM249 524l-10 176h138l-9 -176h-119z" />
    <glyph glyph-name="quotesingle" unicode="'" horiz-adv-x="338" 
d="M110 524l-10 176h138l-9 -176h-119z" />
    <glyph glyph-name="semicolon" unicode=";" 
d="M293 254c-57 0 -104 47 -104 104s47 104 104 104h14c57 0 104 -47 104 -104s-47 -104 -104 -104h-14zM284 -99h-119l74 207h138z" />
    <glyph glyph-name="slash" unicode="/" 
d="M196 -195l-156 46l331 887l157 -45z" />
    <glyph glyph-name="underscore" unicode="_" horiz-adv-x="681" 
d="M116 -48h448v-130h-448v130z" />
    <glyph glyph-name="braceleft" unicode="{" horiz-adv-x="507" 
d="M337 -157c-92 0 -166 75 -166 166v181c0 41 -39 50 -71 50v156c37 0 71 13 71 51v180c0 92 74 166 166 166h70v-155h-37c-40 0 -45 -4 -45 -44v-147c0 -57 -41 -122 -68 -129c23 5 68 -81 68 -128v-147c0 -40 5 -44 45 -44h37v-156h-70z" />
    <glyph glyph-name="braceright" unicode="}" horiz-adv-x="507" 
d="M170 -168h-70v156h37c40 0 45 4 45 44v147c0 47 45 133 68 128c-27 7 -68 72 -68 129v147c0 40 -5 44 -45 44h-37v155h70c92 0 166 -74 166 -166v-180c0 -38 34 -51 71 -51v-156c-32 0 -71 -9 -71 -50v-181c0 -91 -74 -166 -166 -166z" />
    <glyph glyph-name="bracketleft" unicode="[" horiz-adv-x="482" 
d="M100 -162v1018h283v-152h-131v-713h130v-153h-282z" />
    <glyph glyph-name="bracketright" unicode="]" horiz-adv-x="482" 
d="M382 -162h-282v153h130v713h-131v152h283v-1018z" />
    <glyph glyph-name="parenleft" unicode="(" horiz-adv-x="447" 
d="M346 772c-7 -26 -90 -216 -90 -417c0 -169 71 -362 90 -410l-139 -69c-57 115 -107 339 -107 479c0 302 107 483 107 484zM346 -55c7 -15 6 -14 0 0z" />
    <glyph glyph-name="parenright" unicode=")" horiz-adv-x="445" 
d="M346 355c0 -140 -50 -364 -107 -479l-139 69c19 48 90 241 90 410c0 201 -83 391 -90 417l139 67c0 -1 107 -182 107 -484zM100 -55c-6 -14 -7 -15 0 0z" />
    <glyph glyph-name="emdash" unicode="&#x2014;" 
d="M-148 349h896v-130h-896v130z" />
    <glyph glyph-name="endash" unicode="&#x2013;" horiz-adv-x="613" 
d="M83 356h448v-130h-448v130z" />
    <glyph glyph-name="hyphen" unicode="-" horiz-adv-x="493" 
d="M90 344h313v-130h-313v130z" />
    <glyph glyph-name="guillemotleft" unicode="&#xab;" horiz-adv-x="669" 
d="M223 49l-123 199v39l123 204l102 -75l-102 -148l103 -144zM467 49l-123 199v39l123 204l102 -75l-102 -148l103 -144z" />
    <glyph glyph-name="guillemotright" unicode="&#xbb;" horiz-adv-x="669" 
d="M202 49l-103 75l103 144l-102 148l102 75l123 -204v-39zM446 49l-103 75l103 144l-102 148l102 75l123 -204v-39z" />
    <glyph glyph-name="guilsinglleft" unicode="&#x2039;" horiz-adv-x="425" 
d="M223 49l-123 199v39l123 204l102 -75l-102 -148l103 -144z" />
    <glyph glyph-name="guilsinglright" unicode="&#x203a;" horiz-adv-x="425" 
d="M202 49l-103 75l103 144l-102 148l102 75l123 -204v-39z" />
    <glyph glyph-name="quotedblbase" unicode="&#x201e;" 
d="M124 101h138l-93 -207h-119z" />
    <glyph glyph-name="quotedblleft" unicode="&#x201c;" horiz-adv-x="531" 
d="M33 499l93 207h119l-74 -207h-138zM374 706h119l-74 -207h-138z" />
    <glyph glyph-name="quotedblright" unicode="&#x201d;" horiz-adv-x="660" 
d="M100 501l74 207h138l-93 -207h-119zM422 708h138l-93 -207h-119z" />
    <glyph glyph-name="quoteleft" unicode="&#x2018;" horiz-adv-x="312" 
d="M143 701h119l-74 -207h-138z" />
    <glyph glyph-name="quoteright" unicode="&#x2019;" horiz-adv-x="312" 
d="M169 496h-119l74 207h138z" />
    <glyph glyph-name="quotesinglbase" unicode="&#x201a;" 
d="M169 -106h-119l74 207h138z" />
    <glyph glyph-name="space" unicode=" " horiz-adv-x="450" 
 />
    <glyph glyph-name="cent" unicode="&#xa2;" 
d="M524 166c-34 -31 -76 -52 -124 -63v-104l-150 1v103c-120 25 -203 115 -203 247c0 128 81 220 203 246v104h150v-104c48 -10 90 -31 123 -62l-98 -105c-22 20 -58 31 -101 31c-70 0 -133 -28 -133 -110c0 -74 47 -111 133 -111c44 0 79 11 102 32z" />
    <glyph glyph-name="currency" unicode="&#xa4;" horiz-adv-x="597" 
d="M465 261l66 -70l-95 -93l-64 70c-45 -15 -101 -17 -143 0l-70 -70l-94 93l69 70c-17 47 -17 98 0 144l-69 65l94 93l70 -64c45 17 96 15 143 0l64 64l95 -93l-66 -65c16 -44 18 -95 0 -144zM254 332c0 -24 20 -44 46 -44c25 0 45 20 45 44c0 27 -20 47 -45 47
c-26 0 -46 -20 -46 -47z" />
    <glyph glyph-name="dollar" unicode="$" horiz-adv-x="645" 
d="M581 202c0 -125 -73 -179 -174 -196v-93l-150 1v92c-88 18 -181 74 -173 211h155c-10 -58 46 -64 83 -64c38 0 104 -1 104 49c0 135 -330 17 -330 297c0 136 55 186 161 198v89l150 1v-96c110 -27 157 -108 149 -214h-153c10 65 -24 85 -73 85c-8 0 -79 8 -79 -65
c0 -114 330 -28 330 -295z" />
    <glyph glyph-name="Euro" unicode="&#x20ac;" horiz-adv-x="751" 
d="M502 155c22 0 39 10 50 27l99 -122c-38 -37 -91 -60 -149 -60h-72c-117 0 -210 93 -214 206h-116v130h116v26h-116v130h116c3 114 96 208 214 208h72c58 0 111 -23 149 -60l-99 -122c-11 17 -28 27 -50 27h-72c-31 0 -56 -24 -59 -53h177v-130h-177v-26h177v-130h-176
c3 -28 28 -51 58 -51h72z" />
    <glyph glyph-name="sterling" unicode="&#xa3;" horiz-adv-x="656" 
d="M100 149h92c16 -4 30 25 30 30v111h-81v149h81v97c0 141 173 263 334 126l-106 -103c-64 43 -79 -16 -79 -23v-97h79v-149h-79v-111c0 -9 -1 -24 -25 -30h144v-149h-390v149z" />
    <glyph glyph-name="yen" unicode="&#xa5;" horiz-adv-x="638" 
d="M638 700l-207 -318h89v-130h-127v-47h127v-130h-126v-75h-152v75h-142v130h141v47h-141v130h103l-203 318h183l135 -210l135 210h185z" />
    <glyph glyph-name="plus" unicode="+" horiz-adv-x="648" 
d="M548 341v-130h-159v-159h-130v159h-159v130h159v159h130v-159h159z" />
    <glyph glyph-name="minus" unicode="&#x2212;" horiz-adv-x="648" 
d="M100 338h448v-130h-448v130z" />
    <glyph glyph-name="multiply" unicode="&#xd7;" horiz-adv-x="608" 
d="M509 156l-92 -92l-113 113l-113 -113l-92 92l113 113l-112 112l92 92l112 -112l112 112l92 -92l-112 -112z" />
    <glyph glyph-name="divide" unicode="&#xf7;" horiz-adv-x="648" 
d="M318 392c-45 0 -83 38 -83 83c0 46 38 83 83 83h12c45 0 83 -37 83 -83c0 -45 -38 -83 -83 -83h-12zM100 345h448v-130h-448v130zM318 -2c-45 0 -83 38 -83 83c0 46 38 83 83 83h12c45 0 83 -37 83 -83c0 -45 -38 -83 -83 -83h-12z" />
    <glyph glyph-name="equal" unicode="=" horiz-adv-x="648" 
d="M100 464h448v-130h-448v130zM100 220h448v-130h-448v130z" />
    <glyph glyph-name="asciitilde" unicode="~" 
d="M103 254c0 89 51 150 130 150c43 0 61 -34 95 -34c25 0 36 22 36 34h115c0 -88 -42 -151 -114 -151c-39 0 -69 32 -103 32c-31 0 -40 -16 -40 -31h-119z" />
    <glyph glyph-name="percent" unicode="%" 
d="M-81 -10l593 734h132l-593 -734h-132zM65 475c-67 0 -119 53 -119 119c0 65 52 119 119 119c65 0 119 -54 119 -119c0 -66 -54 -119 -119 -119zM65 568c16 0 26 11 26 26s-10 25 -26 25c-15 0 -26 -10 -26 -25s11 -26 26 -26zM494 0c-67 0 -119 53 -119 119
c0 65 52 119 119 119c65 0 119 -54 119 -119c0 -66 -54 -119 -119 -119zM494 93c16 0 26 11 26 26s-10 25 -26 25c-15 0 -26 -10 -26 -25s11 -26 26 -26z" />
    <glyph glyph-name="at" unicode="@" horiz-adv-x="888" 
d="M461 -155c-326 0 -411 235 -411 462c0 271 160 417 394 417c270 0 394 -145 394 -417c0 -156 -62 -272 -199 -272c-61 0 -126 79 -123 108c-6 -22 -61 -36 -72 -36c-100 0 -159 82 -159 185c0 105 64 184 159 184c24 0 71 -23 76 -42c5 22 17 30 34 34l70 -63
c-4 1 -24 -33 -24 -36l2 -151c0 -3 19 -29 37 -34c42 0 49 74 49 123c0 147 -36 268 -244 268c-158 0 -244 -96 -244 -268c0 -146 23 -312 261 -312c24 0 46 4 65 11l54 -141c-38 -13 -77 -20 -119 -20zM444 258c8 0 22 1 22 34c0 29 -11 33 -22 33c-15 0 -22 -21 -22 -33
c0 -13 3 -34 22 -34z" />
    <glyph glyph-name="ampersand" unicode="&#x26;" 
d="M101 83c-72 105 -33 213 70 298c-38 51 -66 95 -66 154c0 100 78 170 183 170c109 0 184 -70 184 -172c0 -66 -35 -124 -100 -171c-5 3 34 -36 98 -99c13 42 13 7 17 87h132c0 -3 1 -95 -53 -185l79 -79l-95 -91l-73 73c-137 -97 -290 -110 -376 15zM280 459
c26 18 60 48 60 74c0 28 -18 40 -52 40c-35 0 -51 -12 -51 -38c0 -13 0 -25 43 -76zM382 163c-21 20 -108 110 -120 121c-60 -48 -79 -81 -51 -125c31 -52 109 -32 171 4z" />
    <glyph glyph-name="trademark" unicode="&#x2122;" horiz-adv-x="1281" 
d="M214 0v545h-164v155h481v-155h-164v-545h-153zM631 0v700h117l183 -271l182 271h118v-700h-155v368l-80 -130h-126l-84 129v-367h-155z" />
    <glyph glyph-name="degree" unicode="&#xb0;" 
d="M298 413c-78 0 -139 61 -139 139c0 76 61 137 139 137c76 0 137 -61 137 -137c0 -78 -61 -139 -137 -139zM297 528c14 0 23 10 23 24c0 13 -9 23 -23 23s-23 -10 -23 -23c0 -14 9 -24 23 -24z" />
    <glyph glyph-name="bar" unicode="|" horiz-adv-x="430" 
d="M280 724v-896h-130v896h130z" />
    <glyph glyph-name="brokenbar" unicode="&#xa6;" horiz-adv-x="430" 
d="M280 699v-313h-130v313h130zM280 162v-313h-130v313h130z" />
    <glyph glyph-name="dagger" unicode="&#x2020;" horiz-adv-x="613" 
d="M463 630v-130h-92v-218h-130v218h-91v130h91v100h130v-100h92z" />
    <glyph glyph-name="daggerdbl" unicode="&#x2021;" 
d="M447 540h-92v-39h92v-130h-92v-76h-130v76h-91v130h91v39h-91v130h91v73h130v-73h92v-130z" />
    <glyph glyph-name="asciicircum" unicode="^" 
d="M127 540l153 160h39l153 -160l-88 -59l-84 95l-85 -95z" />
    <glyph glyph-name="uni0308" unicode="&#x308;" horiz-adv-x="0" 
d="M-419 750c-57 0 -101 36 -101 92c0 57 44 90 101 90c55 0 102 -33 102 -90c0 -56 -47 -92 -102 -92zM-181 750c-58 0 -102 36 -102 92c0 57 44 90 102 90c54 0 101 -33 101 -90c0 -56 -47 -92 -101 -92z" />
    <glyph glyph-name="uni0307" unicode="&#x307;" horiz-adv-x="0" 
d="M-300 750c-57 0 -102 36 -102 92c0 57 45 90 102 90c55 0 102 -33 102 -90c0 -56 -47 -92 -102 -92z" />
    <glyph glyph-name="gravecomb" unicode="&#x300;" horiz-adv-x="0" 
d="M-376 757l-71 156h138l52 -156h-119z" />
    <glyph glyph-name="acutecomb" unicode="&#x301;" horiz-adv-x="0" 
d="M-238 757h-119l52 156h138z" />
    <glyph glyph-name="uni030B" unicode="&#x30b;" horiz-adv-x="0" 
d="M-238 757h-119l52 156h138zM-63 757h-120l52 156h139z" />
    <glyph glyph-name="uni0302" unicode="&#x302;" horiz-adv-x="0" 
d="M-463 847l143 73h39l143 -73l-78 -102l-84 52l-85 -52z" />
    <glyph glyph-name="uni030C" unicode="&#x30c;" horiz-adv-x="0" 
d="M-463 823l78 103l85 -51l84 51l78 -103l-143 -73h-39z" />
    <glyph glyph-name="uni0306" unicode="&#x306;" horiz-adv-x="0" 
d="M-290 750c-79 0 -144 65 -144 144h139c0 -12 -3 -14 5 -14c11 0 5 2 5 14h139c0 -79 -64 -144 -144 -144z" />
    <glyph glyph-name="uni030A" unicode="&#x30a;" horiz-adv-x="0" 
d="M-344 700c-83 0 -148 66 -148 149c0 81 65 148 148 148c82 0 149 -67 149 -148c0 -83 -67 -149 -149 -149zM-344 816c20 0 33 14 33 33s-13 31 -33 31c-18 0 -32 -12 -32 -31s14 -33 32 -33z" />
    <glyph glyph-name="tildecomb" unicode="&#x303;" horiz-adv-x="0" 
d="M-497 780c0 89 51 150 130 150c43 0 61 -34 95 -34c25 0 36 22 36 34h115c0 -88 -42 -151 -114 -151c-39 0 -69 32 -103 32c-31 0 -40 -16 -40 -31h-119z" />
    <glyph glyph-name="uni0304" unicode="&#x304;" horiz-adv-x="0" 
d="M-435 882h269v-132h-269v132z" />
    <glyph glyph-name="uni0312" unicode="&#x312;" horiz-adv-x="0" 
d="M-300 932c55 0 102 -33 102 -90c0 -56 -47 -92 -102 -92c-57 0 -102 36 -102 92c-3 57 7 117 30 153c40 58 94 69 148 69v-61c-60 0 -82 -35 -89 -72c4 1 9 1 13 1z" />
    <glyph glyph-name="uni0326" unicode="&#x326;" horiz-adv-x="0" 
d="M-208 -230c2 -86 -71 -158 -150 -160l-1 139c11 0 21 4 21 19c0 18 -9 19 -21 19l-1 139c79 2 151 -69 152 -156z" />
    <glyph glyph-name="uni0327" unicode="&#x327;" horiz-adv-x="0" 
d="M-327 -44h119l-52 -156h-138z" />
    <glyph glyph-name="uni0328" unicode="&#x328;" horiz-adv-x="0" 
d="M-234 -44l71 -156h-138l-52 156h119z" />
    <glyph glyph-name="uni0335" unicode="&#x335;" horiz-adv-x="0" 
d="M-509 345h448v-130h-448v130z" />
    <glyph glyph-name="uni0336" unicode="&#x336;" horiz-adv-x="0" 
d="M-671 306h672v-130h-672v130z" />
    <glyph glyph-name="uni0337" unicode="&#x337;" horiz-adv-x="0" 
d="M-599 -10l437 541h132l-437 -541h-132z" />
    <glyph glyph-name="uni0338" unicode="&#x338;" horiz-adv-x="0" 
d="M-699 -10l593 734h132l-593 -734h-132z" />
    <glyph glyph-name="_q_tail" 
d="M360 -93l-202 202l119 119l202 -202z" />
    </font>
</defs>
</svg>
