<?xml version="1.0" standalone="no"?>
<!DOCTYPE svg PUBLIC "-//W3C//DTD SVG 1.1//EN" "http://www.w3.org/Graphics/SVG/1.1/DTD/svg11.dtd" >
<svg xmlns="http://www.w3.org/2000/svg" xmlns:xlink="http://www.w3.org/1999/xlink" version="1.1">
<metadata>
Created by FontForge 20190801 at Fri Dec 16 15:44:01 2005
 By Jimmy Wärting
(c) 2005 Microsoft Corporation. All Rights Reserved.
</metadata>
<defs>
<font id="Corbel-Italic" horiz-adv-x="1030" >
  <font-face 
    font-family="Corbel"
    font-weight="400"
    font-style="italic"
    font-stretch="normal"
    units-per-em="2048"
    panose-1="2 11 5 3 2 2 4 9 2 4"
    ascent="1523"
    descent="-525"
    x-height="950"
    cap-height="1338"
    bbox="-878 -490 2325 1943"
    underline-thickness="120"
    underline-position="-250"
    slope="-12"
    unicode-range="U+0020-FB04"
  />
<missing-glyph horiz-adv-x="948" 
d="M948 1338v-1338h-948v1338h948zM855 91v1156h-762v-1156h762zM363 224v125h122v-125h-122zM715 896q0 -35 -9.5 -62t-25 -49.5t-35.5 -41t-42 -35.5q-24 -19 -48 -38.5t-43 -42t-31 -51t-12 -65.5v-11h-88q-1 7 -1.5 15t-0.5 13q0 50 15 85.5t37.5 62t50.5 47.5t53 41
q32 25 54 54t22 73q0 57 -44.5 88.5t-117.5 31.5q-50 0 -96 -12t-82 -28v84q35 19 84 30.5t98 11.5q61 0 109.5 -14.5t82.5 -41t52 -63.5t18 -82z" />
    <glyph glyph-name="f_b.liga" unicode="fb" horiz-adv-x="1649" 
d="M962 1317q-70 21 -144 21q-60 0 -112 -16t-93.5 -50.5t-71.5 -89t-46 -130.5l-21 -102h251l-28 -133h-251l-197 -948q-21 -101 -58 -169.5t-89 -110.5t-117.5 -60.5t-142.5 -18.5q-46 0 -83 7t-54 13l25 132q23 -8 52 -12.5t53 -4.5q58 0 101 14.5t75 49t55 90.5t40 139
l184 879h-175l28 133h175l30 139q26 119 79 193.5t119 117t136.5 58t131.5 15.5q161 -2 323 -61l-123 -585h4q22 31 49 58t60 47t72.5 31.5t85.5 11.5q53 0 105 -18t93 -58t66 -103t25 -153q0 -74 -13.5 -152.5t-42 -152.5t-71.5 -140t-102.5 -115.5t-135.5 -78.5t-168 -29
q-69 0 -123 21.5t-91.5 59t-57 89.5t-19.5 113q0 26 3 51t9 54zM919 366q-5 -24 -9 -47.5t-4 -49.5q0 -75 40 -118.5t116 -43.5q60 0 109.5 24t89 64t69 93t49.5 110.5t30 116.5t10 111q0 41 -9.5 80t-30.5 69t-54.5 48.5t-81.5 18.5q-41 0 -84.5 -17t-83 -53t-71 -91
t-47.5 -131z" />
    <glyph glyph-name="f_f_b.liga" unicode="ffb" horiz-adv-x="2215" 
d="M1012 817l-195 -941q-22 -108 -60 -178.5t-87 -112t-108 -58.5t-123 -17q-45 0 -81 6t-58 14l25 132q23 -8 52 -12.5t61 -4.5q94 0 147.5 69.5t83.5 211.5l187 891h-410l-197 -948q-21 -101 -58 -169.5t-89 -110.5t-117.5 -60.5t-142.5 -18.5q-43 0 -80 6.5t-57 13.5
l25 132q25 -8 54 -12.5t51 -4.5q58 0 101 14.5t75 49t55 90.5t40 139l184 879h-175l28 133h175l36 174q21 101 59.5 168.5t88 107.5t108 56.5t118.5 16.5q41 0 78.5 -7t59.5 -15l-24 -129q-24 7 -54.5 11.5t-58.5 4.5q-94 0 -146.5 -57.5t-77.5 -178.5l-31 -152h410l30 139
q26 119 79 193.5t119 117t136.5 58t131.5 15.5q74 0 157 -16t166 -45l-123 -585h4q22 31 49 58t60 47t72.5 31.5t85.5 11.5q53 0 105 -18t93 -58t66 -103t25 -153q0 -74 -13.5 -152.5t-42 -152.5t-71.5 -140t-102.5 -115.5t-135 -78.5t-168.5 -29q-69 0 -123 21.5t-91.5 59
t-57 89.5t-19.5 113q0 26 3 51t9 54l200 954q-32 10 -69.5 15.5t-74.5 5.5q-60 0 -112 -16t-93.5 -50.5t-71.5 -89t-46 -130.5l-21 -102h251l-28 -133h-251zM1485 366q-5 -24 -9 -47.5t-4 -49.5q0 -75 40 -118.5t116 -43.5q60 0 109.5 24t89 64t69.5 93t49.5 110.5
t29.5 116.5t10 111q0 41 -9.5 80t-30.5 69t-54.5 48.5t-81.5 18.5q-41 0 -84.5 -17t-83 -53t-71 -91t-47.5 -131z" />
    <glyph glyph-name="uniFB00" unicode="ff" horiz-adv-x="1210" 
d="M856 817h-410l-197 -948q-21 -101 -58 -169.5t-89 -110.5t-117.5 -60.5t-142.5 -18.5q-46 0 -83 7t-54 13l25 132q23 -8 52 -12.5t53 -4.5q58 0 100.5 14.5t75 49t55.5 90.5t40 139l184 879h-175l28 133h175l36 174q21 101 59.5 168.5t88 107t108 56.5t118.5 17
q41 0 78.5 -7t59.5 -15l-24 -129q-26 7 -55 11.5t-58 4.5q-94 0 -146.5 -57.5t-77.5 -178.5l-31 -152h410l34 165q38 182 141.5 270t251.5 88q48 0 87.5 -7t61.5 -15l-24 -129q-30 8 -60 12t-59 4q-100 0 -160.5 -57.5t-85.5 -178.5l-31 -152h261l-28 -133h-261l-195 -941
q-22 -108 -60 -178.5t-87.5 -112t-108 -58.5t-122.5 -17q-45 0 -81 6t-58 14l25 132q23 -8 52 -12.5t61 -4.5q94 0 147.5 69.5t83.5 211.5z" />
    <glyph glyph-name="f_h.liga" unicode="fh" horiz-adv-x="1693" 
d="M962 1317q-27 9 -66 15t-78 6q-60 0 -112 -16t-93.5 -50.5t-71.5 -89t-46 -130.5l-21 -102h251l-28 -133h-251l-197 -948q-21 -101 -58 -169.5t-89 -110.5t-117.5 -60.5t-142.5 -18.5q-46 0 -83 7t-54 13l25 132q23 -8 52 -12.5t53 -4.5q58 0 101 14.5t75 49t55 90.5
t40 139l184 879h-175l28 133h175l30 139q26 119 79 193.5t119 117t137 58t131 15.5q67 0 153.5 -16t169.5 -45l-124 -591h4q61 72 142.5 113t179.5 41q59 0 108 -15.5t83.5 -44.5t53.5 -72t19 -98q0 -39 -6.5 -83t-16.5 -90l-119 -572h-155l121 585q11 51 14 80.5t3 44.5
q0 36 -10.5 61.5t-29.5 41t-45.5 23t-57.5 7.5q-67 0 -125 -24.5t-103 -67.5t-76 -101t-45 -126l-109 -524h-155z" />
    <glyph glyph-name="f_f_h.liga" unicode="ffh" horiz-adv-x="2259" 
d="M884 950l30 139q26 119 79 193.5t119 117t136.5 58t131.5 15.5q65 0 151 -15.5t172 -45.5l-124 -591h4q61 72 142.5 113t179.5 41q59 0 108 -15.5t83.5 -44.5t53.5 -72t19 -98q0 -39 -6.5 -83t-16.5 -90l-119 -572h-155l121 585q11 51 14 80.5t3 44.5q0 36 -10.5 61.5
t-29.5 41t-45.5 23t-57.5 7.5q-67 0 -125 -24.5t-103 -67.5t-76 -101t-45 -126l-109 -524h-155l274 1317q-26 8 -65.5 14.5t-78.5 6.5q-60 0 -112 -16t-93.5 -50.5t-71.5 -89t-46 -130.5l-21 -102h251l-28 -133h-251l-195 -941q-22 -108 -60 -178.5t-87.5 -112t-108 -58.5
t-122.5 -17q-43 0 -80 6t-59 14l25 132q23 -8 52 -12.5t61 -4.5q94 0 147.5 69.5t83.5 211.5l187 891h-410l-197 -948q-21 -101 -58 -169.5t-89 -110.5t-117.5 -60.5t-142.5 -18.5q-46 0 -83 7t-54 13l25 132q23 -8 52 -12.5t53 -4.5q58 0 101 14.5t75 49t55 90.5t40 139
l184 879h-175l28 133h175l36 174q21 101 59.5 168.5t88 107.5t108 56.5t118.5 16.5q42 0 79 -7t59 -15l-24 -129q-24 7 -52.5 11.5t-60.5 4.5q-94 0 -146.5 -57.5t-77.5 -178.5l-31 -152h410z" />
    <glyph glyph-name="uniFB01" unicode="fi" horiz-adv-x="1069" 
d="M249 -131q-21 -101 -58 -169.5t-89 -110.5t-117.5 -60.5t-142.5 -18.5q-46 0 -83 7t-54 13l25 132q23 -8 52 -12.5t53 -4.5q58 0 101 15t75 49t55 90t40 139l184 879h-175l28 133h175l30 139q17 79 47 138t68.5 102t82.5 70.5t90 44t90.5 23t83.5 6.5q58 0 120.5 -11
t125.5 -32l-29 -130q-65 21 -115.5 29.5t-93.5 8.5q-60 0 -112 -16t-93.5 -50.5t-71.5 -89t-46 -130.5l-21 -102h565l-197 -950h-155l169 817h-410z" />
    <glyph glyph-name="uniFB03" unicode="ffi" horiz-adv-x="1635" 
d="M1012 817l-195 -941q-22 -108 -60 -178.5t-87 -112t-108 -58.5t-123 -17q-45 0 -81 6t-58 14l25 132q23 -8 52 -12.5t61 -4.5q94 0 147.5 69.5t83.5 211.5l187 891h-410l-197 -948q-21 -101 -58 -169.5t-89 -110.5t-117.5 -60.5t-142.5 -18.5q-46 0 -83 7t-54 13l25 132
q23 -8 52 -12.5t53 -4.5q58 0 101 14.5t75 49t55 90.5t40 139l184 879h-175l28 133h175l36 174q21 101 59.5 168.5t87.5 107t107.5 56.5t118.5 17q40 0 78.5 -7t60.5 -15l-24 -129q-24 7 -52.5 11.5t-60.5 4.5q-94 0 -146.5 -57.5t-77.5 -178.5l-31 -152h410l30 139
q17 79 47 138t68.5 102t82.5 70.5t90 44t90.5 23t83.5 6.5q48 0 110.5 -9.5t135.5 -33.5l-29 -130q-48 17 -105.5 27.5t-103.5 10.5q-60 0 -112 -16t-93.5 -50.5t-71.5 -89t-46 -130.5l-21 -102h565l-197 -950h-155l169 817h-410z" />
    <glyph glyph-name="f_j.liga" unicode="fj" horiz-adv-x="1069" 
d="M856 817h-410l-197 -948q-21 -101 -58 -169.5t-89 -110.5t-117.5 -60.5t-142.5 -18.5q-46 0 -83 7t-54 13l25 132q23 -8 52 -12.5t53 -4.5q58 0 101 14.5t75 49t55 90.5t40 139l184 879h-175l28 133h175l30 139q17 79 47 138t68.5 102t82.5 70.5t90 44t90.5 23t83.5 6.5
q52 0 114.5 -10t131.5 -33l-29 -130q-60 20 -112.5 29t-96.5 9q-60 0 -112 -16t-93.5 -50.5t-71.5 -89t-46 -130.5l-21 -102h565l-226 -1093q-16 -80 -43 -144t-69 -109t-103 -69.5t-145 -24.5q-48 0 -85 7t-54 13l26 131q29 -8 57.5 -12t47.5 -4q58 0 96 20t62.5 57.5
t40.5 90.5t29 119z" />
    <glyph glyph-name="f_f_j.liga" unicode="ffj" horiz-adv-x="1635" 
d="M1012 817l-195 -941q-22 -108 -60 -178.5t-87 -112t-108 -58.5t-123 -17q-45 0 -81 6t-58 14l25 132q23 -8 52 -12.5t61 -4.5q94 0 147.5 69.5t83.5 211.5l187 891h-410l-197 -948q-21 -101 -58 -169.5t-89 -110.5t-117.5 -60.5t-142.5 -18.5q-46 0 -83 7t-54 13l25 132
q23 -8 52 -12.5t53 -4.5q58 0 101 14.5t75 49t55 90.5t40 139l184 879h-175l28 133h175l36 174q21 101 59.5 168.5t88 107.5t108 56.5t118.5 16.5q42 0 79 -7t59 -15l-24 -129q-24 7 -52.5 11.5t-60.5 4.5q-94 0 -146.5 -57.5t-77.5 -178.5l-31 -152h410l30 139
q17 79 47 138t68.5 102t82.5 70.5t90 44t90.5 23t83.5 6.5q57 0 120 -11t126 -32l-29 -130q-60 20 -113.5 29t-95.5 9q-60 0 -112 -16t-93.5 -50.5t-71.5 -89t-46 -130.5l-21 -102h565l-226 -1093q-16 -80 -43 -144t-69 -109t-102.5 -69.5t-145.5 -24.5q-45 0 -83.5 7
t-55.5 13l26 131q29 -8 57.5 -12t47.5 -4q58 0 96 20t62.5 57.5t40.5 90.5t29 119l183 885h-410z" />
    <glyph glyph-name="f_k.liga" unicode="fk" horiz-adv-x="1552" 
d="M962 1317q-26 8 -64.5 14.5t-79.5 6.5q-60 0 -112 -16t-93.5 -50.5t-71.5 -89t-46 -130.5l-21 -102h251l-28 -133h-251l-197 -948q-21 -101 -58 -169.5t-89 -110.5t-117.5 -60.5t-142.5 -18.5q-46 0 -83 7t-54 13l25 132q23 -8 52 -12.5t53 -4.5q58 0 101 14.5t75 49
t55 90.5t40 139l184 879h-175l28 133h175l30 139q26 119 79 193.5t119 117t136.5 58t131.5 15.5q77 0 162 -17t161 -44l-184 -883h5l452 421h212l-492 -442q16 -13 29 -35.5t25 -51t24 -60.5t25 -64q15 -36 33.5 -69.5t42.5 -59.5t55 -41.5t71 -15.5q15 0 33 3l-27 -133
q-25 -3 -49 -3q-62 0 -110.5 23.5t-83.5 62t-60.5 87.5t-46.5 99q-17 42 -33 82.5t-32.5 74t-36 57.5t-43.5 33l-103 -497h-155z" />
    <glyph glyph-name="f_f_k.liga" unicode="ffk" horiz-adv-x="2118" 
d="M1012 817l-195 -941q-22 -108 -60 -178.5t-87 -112t-108 -58.5t-123 -17q-45 0 -81 6t-58 14l25 132q23 -8 52 -12.5t61 -4.5q94 0 147.5 69.5t83.5 211.5l187 891h-410l-197 -948q-21 -101 -58 -169.5t-89 -110.5t-117.5 -60.5t-142.5 -18.5q-46 0 -83 7t-54 13l25 132
q23 -8 52 -12.5t53 -4.5q58 0 101 14.5t75 49t55 90.5t40 139l184 879h-175l28 133h175l36 174q21 101 59.5 168.5t88 107.5t108 56.5t118.5 16.5q43 0 79.5 -7t58.5 -15l-24 -129q-24 7 -52.5 11.5t-60.5 4.5q-94 0 -146.5 -57.5t-77.5 -178.5l-31 -152h410l30 139
q26 119 79 193.5t119 117t136.5 58t131.5 15.5q72 0 159.5 -17t163.5 -44l-184 -883h5l452 421h212l-492 -442q17 -14 31 -38.5t26.5 -55.5t25.5 -66t28 -69q15 -33 33 -63.5t41 -54t52.5 -37t67.5 -13.5q15 0 33 3l-27 -133q-25 -3 -49 -3q-61 0 -107.5 22t-81 58t-60 82.5
t-46.5 94.5q-18 44 -34.5 86.5t-33.5 78t-37.5 61.5t-45.5 36l-103 -497h-155l274 1317q-26 8 -64.5 14.5t-79.5 6.5q-60 0 -112 -16t-93.5 -50.5t-71.5 -89t-46 -130.5l-21 -102h251l-28 -133h-251z" />
    <glyph glyph-name="uniFB02" unicode="fl" horiz-adv-x="1119" 
d="M718 122q0 30 8 70l236 1125q-26 8 -64.5 14.5t-79.5 6.5q-60 0 -112 -16t-93.5 -50.5t-71.5 -89t-46 -130.5l-21 -102h251l-28 -133h-251l-197 -948q-21 -101 -58 -169.5t-89 -110.5t-117.5 -60.5t-142.5 -18.5q-46 0 -83 7t-54 13l25 132q23 -8 52 -12.5t53 -4.5
q58 0 101 14.5t75 49t55 90.5t40 139l184 879h-175l28 133h175l30 139q26 119 79 193.5t119 117t136.5 58t131.5 15.5q76 0 161 -17t162 -44l-247 -1179q-5 -26 -7 -42.5t-2 -22.5q0 -25 13.5 -36.5t47.5 -11.5q35 0 66 6l-27 -132q-40 -9 -94 -9q-84 0 -126.5 32.5
t-42.5 104.5z" />
    <glyph glyph-name="uniFB04" unicode="ffl" horiz-adv-x="1685" 
d="M817 -124q-22 -108 -60 -178.5t-87.5 -112t-108 -58.5t-122.5 -17q-45 0 -81 6t-58 14l25 132q23 -8 52 -12.5t61 -4.5q94 0 147.5 69.5t83.5 211.5l187 891h-410l-197 -948q-21 -101 -58 -169.5t-89 -110.5t-117.5 -60.5t-142.5 -18.5q-46 0 -83 7t-54 13l25 132
q23 -8 52 -12.5t53 -4.5q58 0 101 14.5t75 49t55 90.5t40 139l184 879h-175l28 133h175l36 174q21 101 59.5 168.5t88 107.5t108 56.5t118.5 16.5q42 0 79 -7t59 -15l-24 -129q-24 7 -52.5 11.5t-60.5 4.5q-94 0 -146.5 -57.5t-77.5 -178.5l-31 -152h410l30 139
q26 119 79 193.5t119 117t136.5 58t131.5 15.5q73 0 160.5 -17t162.5 -44l-247 -1179q-5 -26 -7 -42.5t-2 -22.5q0 -25 13.5 -36.5t47.5 -11.5t66 6l-27 -132q-42 -9 -94 -9q-84 0 -126.5 32.5t-42.5 104.5q0 30 8 70l236 1125q-26 8 -64.5 14.5t-79.5 6.5q-60 0 -112 -16
t-93.5 -50.5t-71.5 -89t-46 -130.5l-21 -102h251l-28 -133h-251z" />
    <glyph glyph-name=".notdef" horiz-adv-x="948" 
d="M948 1338v-1338h-948v1338h948zM855 91v1156h-762v-1156h762zM363 224v125h122v-125h-122zM715 896q0 -35 -9.5 -62t-25 -49.5t-35.5 -41t-42 -35.5q-24 -19 -48 -38.5t-43 -42t-31 -51t-12 -65.5v-11h-88q-1 7 -1.5 15t-0.5 13q0 50 15 85.5t37.5 62t50.5 47.5t53 41
q32 25 54 54t22 73q0 57 -44.5 88.5t-117.5 31.5q-50 0 -96 -12t-82 -28v84q35 19 84 30.5t98 11.5q61 0 109.5 -14.5t82.5 -41t52 -63.5t18 -82z" />
    <glyph glyph-name="glyph1" horiz-adv-x="0" 
 />
    <glyph glyph-name="glyph2" horiz-adv-x="410" 
 />
    <glyph glyph-name="space" unicode=" " horiz-adv-x="410" 
 />
    <glyph glyph-name="space" unicode="&#xa0;" horiz-adv-x="410" 
 />
    <glyph glyph-name="A" unicode="A" horiz-adv-x="1252" 
d="M-40 0l741 1338h137l264 -1338h-165l-77 403h-499l-221 -403h-180zM441 550h391l-48 257q-33 177 -50 293h-4q-53 -122 -160 -316z" />
    <glyph glyph-name="B" unicode="B" horiz-adv-x="1210" 
d="M856 683q50 -9 91.5 -30.5t71.5 -55t46.5 -77t16.5 -96.5q0 -70 -25 -134t-74.5 -116.5t-124 -91.5t-174.5 -60q-54 -11 -115.5 -16.5t-141.5 -5.5h-352l279 1338h313q59 0 105.5 -3.5t94.5 -14.5q59 -14 107.5 -41.5t83 -66t53.5 -87t19 -105.5q0 -133 -73 -216
t-201 -117v-4zM365 612l-97 -465h183q68 0 116 4t87 13q72 16 121 44t79.5 63.5t44 76t13.5 81.5q0 61 -34.5 104.5t-98.5 63.5q-48 15 -124 15h-290zM486 1191l-90 -432h244q68 0 126 15t101.5 46.5t68 79t24.5 111.5q0 65 -37.5 106.5t-106.5 59.5q-28 8 -61 11t-74 3
h-195z" />
    <glyph glyph-name="C" unicode="C" horiz-adv-x="1154" 
d="M883 1218q-91 0 -170 -28t-143.5 -77.5t-115 -117t-84.5 -147t-52 -167.5t-18 -177q0 -119 35 -194t91 -117t127 -57.5t143 -15.5q81 0 156 15t136 35l-31 -149q-63 -23 -138.5 -34.5t-150.5 -11.5q-113 0 -211.5 30t-171 93t-114 161t-41.5 234q0 100 20.5 203.5
t62.5 200t105 181.5t148 148.5t192.5 100t236.5 36.5q85 0 158 -14.5t126 -34.5l-30 -145q-56 20 -119 34.5t-147 14.5z" />
    <glyph glyph-name="D" unicode="D" horiz-adv-x="1332" 
d="M1102 842q0 71 -17 125.5t-48 94.5t-73 66.5t-92 41.5q-36 11 -78.5 16t-105.5 5h-203l-217 -1044h134q79 0 139 7t109 20q92 25 161.5 68.5t119.5 100t83.5 122t52.5 131.5t27 129.5t8 116.5zM1272 825q0 -74 -13 -154.5t-42 -160.5t-75.5 -155.5t-113 -139.5
t-154.5 -112.5t-201 -75.5q-57 -13 -123.5 -20t-157.5 -7h-317l278 1338h338q68 0 121.5 -6t99.5 -18q93 -24 162 -70t112.5 -109.5t64.5 -142t21 -167.5z" />
    <glyph glyph-name="E" unicode="E" horiz-adv-x="1073" 
d="M268 147h639l-30 -147h-802l278 1338h765l-31 -147h-602l-90 -432h538l-30 -147h-538z" />
    <glyph glyph-name="F" unicode="F" horiz-adv-x="979" 
d="M75 0l278 1338h751l-31 -147h-588l-89 -432h523l-30 -147h-524l-127 -612h-163z" />
    <glyph glyph-name="G" unicode="G" horiz-adv-x="1375" 
d="M942 1363q50 0 100 -5t95 -13t83 -18t65 -20l-30 -145q-64 23 -140.5 39.5t-164.5 16.5q-103 0 -190 -27t-157.5 -75t-124.5 -114t-90.5 -145t-55 -166.5t-18.5 -179.5q0 -100 24.5 -173.5t70.5 -122t112 -72t148 -23.5q153 0 246 72.5t131 233.5l27 115h-306l31 147h468
l-64 -296q-26 -120 -78 -200.5t-123.5 -128.5t-158 -68t-181.5 -20q-117 0 -213 32t-164.5 96.5t-106 162t-37.5 229.5q0 101 20.5 204t63.5 199.5t108 181t154 147.5t203 99.5t253 36.5z" />
    <glyph glyph-name="H" unicode="H" horiz-adv-x="1340" 
d="M394 759h664l120 579h163l-278 -1338h-163l127 612h-662l-127 -612h-163l278 1338h163z" />
    <glyph glyph-name="I" unicode="I" horiz-adv-x="511" 
d="M75 0l278 1338h163l-278 -1338h-163z" />
    <glyph glyph-name="J" unicode="J" horiz-adv-x="743" 
d="M585 1338h163l-220 -1059q-8 -40 -17 -69t-21 -55q-17 -37 -44 -69.5t-66.5 -57t-94.5 -39t-129 -14.5q-45 0 -92 7.5t-84 21.5l30 141q32 -12 66.5 -18.5t73.5 -6.5q70 0 115 21.5t71 64.5q11 17 18 39t15 57z" />
    <glyph glyph-name="K" unicode="K" horiz-adv-x="1169" 
d="M382 677l701 661h206l-723 -678l494 -660h-191l-491 655h-3l-137 -655h-163l278 1338h163l-137 -661h3z" />
    <glyph glyph-name="L" unicode="L" horiz-adv-x="1017" 
d="M268 147h639l-30 -147h-802l278 1338h163z" />
    <glyph glyph-name="M" unicode="M" horiz-adv-x="1620" 
d="M773 279q88 170 148 273l461 786h243l-278 -1338h-163l147 703q26 124 54.5 240.5t52.5 204.5h-9q-81 -166 -208 -380l-462 -768h-80l-141 742q-40 208 -69 406h-9q-35 -237 -72 -418l-150 -730h-163l278 1338h226l150 -815q26 -141 40 -244h4z" />
    <glyph glyph-name="N" unicode="N" horiz-adv-x="1381" 
d="M1008 241q6 39 12 81.5t13 86t15 86.5t16 82l159 761h163l-278 -1338h-152l-363 780q-35 74 -71.5 157t-65.5 163h-4q-11 -83 -25 -172t-31 -167l-158 -761h-163l278 1338h150l389 -839q28 -60 58 -126.5t54 -131.5h4z" />
    <glyph glyph-name="O" unicode="O" horiz-adv-x="1427" 
d="M643 -25q-114 0 -207 31.5t-159 93.5t-101.5 154t-35.5 213q0 100 20 205.5t60 205t100 188t141 154.5t182 104.5t222 38.5q114 0 207 -31.5t158.5 -93.5t101 -154t35.5 -213q0 -100 -20 -205.5t-60 -205t-100 -188t-140.5 -154.5t-181.5 -104.5t-222 -38.5zM644 120
q91 0 167 32.5t137.5 88t108 129t77.5 155.5t47 168t16 166q0 177 -83.5 268t-250.5 91q-91 0 -167 -32.5t-137.5 -88t-108 -129t-77.5 -155.5t-47 -168t-16 -166q0 -177 83.5 -268t250.5 -91z" />
    <glyph glyph-name="P" unicode="P" horiz-adv-x="1166" 
d="M513 545q-86 0 -160 11l-115 -556h-163l278 1338h327q68 0 114.5 -4.5t83.5 -13.5q67 -16 116.5 -45t82 -68t48.5 -86.5t16 -99.5q0 -90 -34 -175.5t-109 -152t-196.5 -107.5t-288.5 -41zM384 702q67 -11 139 -11q88 0 159 15t120.5 40t82.5 58t52 68.5t26.5 72t7.5 67.5
q0 61 -33 103t-102 62q-24 7 -56.5 10.5t-82.5 3.5h-212z" />
    <glyph glyph-name="Q" unicode="Q" horiz-adv-x="1427" 
d="M1357 871q0 -117 -27 -230t-76.5 -211.5t-118 -177t-152.5 -125.5v-4q102 15 231 15q21 0 71 -1l-31 -147q-125 10 -248 10q-58 0 -108.5 -2.5t-97.5 -5.5t-94 -5.5t-100 -2.5q-108 0 -196 32.5t-150 94t-96 151.5t-34 205q0 101 20 206.5t60.5 205t101 188t142 154
t183 104t223.5 38.5q112 0 203.5 -32t157 -94t101 -154t35.5 -212zM634 120q91 0 167 32.5t137.5 88t108 129t77.5 155.5t47 168t16 166q0 177 -83.5 268t-250.5 91q-91 0 -167 -32.5t-137.5 -88t-108 -129t-77.5 -155.5t-47 -168t-16 -166q0 -177 83.5 -268t250.5 -91z" />
    <glyph glyph-name="R" unicode="R" horiz-adv-x="1190" 
d="M353 554l-115 -554h-163l278 1338h350q58 0 111 -5t93 -16q131 -35 194.5 -116.5t63.5 -191.5q0 -79 -24.5 -149t-76.5 -127t-133 -97.5t-195 -60.5v-4l306 -571h-182l-291 554h-216zM384 701h151q72 0 124.5 5.5t94.5 16.5q72 19 118.5 50.5t74 69t38 78t10.5 79.5
q0 60 -34.5 106.5t-107.5 69.5q-50 15 -140 15h-228z" />
    <glyph glyph-name="S" unicode="S" horiz-adv-x="1120" 
d="M211 946q0 95 33 172t95 131.5t151.5 84t200.5 29.5q116 0 215.5 -23t170.5 -54l-30 -148q-74 35 -166.5 57.5t-183.5 22.5q-72 0 -130.5 -17.5t-100 -49t-63.5 -76t-22 -99.5q0 -49 19.5 -83t53 -57.5t77 -40t91.5 -30.5q72 -21 137 -45.5t115 -63.5t79 -99t29 -145
q0 -102 -40.5 -183t-113.5 -137.5t-176 -86.5t-225 -30q-64 0 -128 8.5t-114.5 21.5t-88 29t-58.5 31l31 144q32 -19 72.5 -35.5t86 -28.5t94 -18.5t97.5 -6.5q96 0 169.5 20t123 56.5t74.5 89t25 116.5q0 56 -25.5 96t-67.5 65t-95.5 41.5t-109.5 33.5q-62 18 -116.5 42.5
t-96 60t-65.5 85.5t-24 120z" />
    <glyph glyph-name="T" unicode="T" horiz-adv-x="1059" 
d="M503 0h-163l247 1191h-415l31 147h993l-31 -147h-415z" />
    <glyph glyph-name="U" unicode="U" horiz-adv-x="1320" 
d="M579 120q69 0 125.5 15t102 42.5t80.5 65.5t60 83q23 42 39 91.5t29 112.5l167 808h163l-177 -858q-13 -62 -29.5 -114t-40.5 -97q-34 -64 -82.5 -118t-113 -93t-146.5 -61t-183 -22q-113 0 -194.5 29.5t-134.5 81.5t-78.5 123t-25.5 153q0 39 6 84.5t16 93.5l165 798
h163l-167 -807q-9 -45 -14.5 -80.5t-5.5 -66.5q0 -57 15 -105.5t48 -84t85.5 -55t127.5 -19.5z" />
    <glyph glyph-name="V" unicode="V" horiz-adv-x="1172" 
d="M1142 1338h180l-731 -1338h-139l-242 1338h161l131 -747q39 -221 55 -368h4q58 141 172 354z" />
    <glyph glyph-name="W" unicode="W" horiz-adv-x="1759" 
d="M1016 717q-7 186 -7 278q1 95 1 103h-5q-60 -162 -132 -339l-320 -759h-153l-190 1338h163l94 -734q37 -298 40 -376h4q40 119 142 366l306 744h171l36 -758q8 -193 11 -352h4q31 79 69 165t98 206l381 739h180l-707 -1338h-153z" />
    <glyph glyph-name="X" unicode="X" horiz-adv-x="1188" 
d="M121 0h-195l609 696l-292 642h176l238 -526h4l459 526h195l-588 -671l305 -667h-176l-251 550h-4z" />
    <glyph glyph-name="Y" unicode="Y" horiz-adv-x="1097" 
d="M400 0l113 541l-313 797h165l242 -638h4l427 638h189l-551 -798l-113 -540h-163z" />
    <glyph glyph-name="Z" unicode="Z" horiz-adv-x="1162" 
d="M955 1191h-698l31 147h924l-21 -102l-923 -1085v-4h728l-30 -147h-956l21 102l924 1085v4z" />
    <glyph glyph-name="Agrave" unicode="&#xc0;" horiz-adv-x="1252" 
d="M-40 0l741 1338h137l264 -1338h-165l-77 403h-499l-221 -403h-180zM441 550h391l-48 257q-33 177 -50 293h-4q-53 -122 -160 -316zM756 1656l95 -247h-135l-130 247h170zM299 1338z" />
    <glyph glyph-name="Aacute" unicode="&#xc1;" horiz-adv-x="1252" 
d="M-40 0l741 1338h137l264 -1338h-165l-77 403h-499l-221 -403h-180zM441 550h391l-48 257q-33 177 -50 293h-4q-53 -122 -160 -316zM1091 1656l-232 -247h-143l193 247h182zM484 1338z" />
    <glyph glyph-name="Acircumflex" unicode="&#xc2;" horiz-adv-x="1252" 
d="M-40 0l741 1338h137l264 -1338h-165l-77 403h-499l-221 -403h-180zM441 550h391l-48 257q-33 177 -50 293h-4q-53 -122 -160 -316zM908 1656l167 -247h-151l-106 151h-4l-167 -151h-165l265 247h161zM351 1338z" />
    <glyph glyph-name="Atilde" unicode="&#xc3;" horiz-adv-x="1252" 
d="M-40 0l741 1338h137l264 -1338h-165l-77 403h-499l-221 -403h-180zM441 550h391l-48 257q-33 177 -50 293h-4q-53 -122 -160 -316zM1132 1633q-7 -45 -23 -83.5t-40.5 -67t-59 -45t-78.5 -16.5q-27 0 -51 5.5t-44.5 14.5t-39 19.5t-35.5 20.5q-24 15 -45.5 25t-42.5 10
q-32 0 -53 -24t-29 -63h-130q7 45 23 84t40.5 67.5t59 44.5t78.5 16t81.5 -14.5t71.5 -35.5q29 -17 54 -31t51 -14q33 0 53.5 24t28.5 63h130zM340 1338z" />
    <glyph glyph-name="Adieresis" unicode="&#xc4;" horiz-adv-x="1252" 
d="M-40 0l741 1338h137l264 -1338h-165l-77 403h-499l-221 -403h-180zM441 550h391l-48 257q-33 177 -50 293h-4q-53 -122 -160 -316zM523 1448l35 169h161l-35 -169h-161zM906 1448l35 169h161l-35 -169h-161zM353 1338z" />
    <glyph glyph-name="Amacron" unicode="&#x100;" horiz-adv-x="1252" 
d="M-40 0l741 1338h137l264 -1338h-165l-77 403h-499l-221 -403h-180zM441 550h391l-48 257q-33 177 -50 293h-4q-53 -122 -160 -316zM546 1581h540l-27 -133h-540zM343 1338z" />
    <glyph glyph-name="Abreve" unicode="&#x102;" horiz-adv-x="1252" 
d="M-40 0l741 1338h137l264 -1338h-165l-77 403h-499l-221 -403h-180zM441 550h391l-48 257q-33 177 -50 293h-4q-53 -122 -160 -316zM782 1530q29 0 60.5 7t60 23t52.5 43t39 67h140q-20 -66 -56.5 -115t-83.5 -81.5t-103.5 -48.5t-116.5 -16q-61 0 -111 17t-83 49.5
t-46.5 74.5t-13.5 82q0 20 2 38h126q-1 -9 -1 -17q1 -55 35 -89t100 -34zM344 1338z" />
    <glyph glyph-name="Aring" unicode="&#xc5;" horiz-adv-x="1252" 
d="M-40 0l741 1338h137l264 -1338h-165l-77 403h-499l-221 -403h-180zM441 550h391l-48 257q-33 177 -50 293h-4q-53 -122 -160 -316zM836 1750q51 0 89 -11.5t64 -32.5t39 -49.5t13 -61.5q0 -39 -16 -78.5t-48 -70.5t-80.5 -50.5t-114.5 -19.5q-51 0 -89 11.5t-64 32.5
t-39 49.5t-13 61.5q0 39 16 78.5t48 70.5t80.5 50.5t114.5 19.5zM790 1474q30 0 53.5 9t40 24t25 34.5t8.5 40.5q0 30 -22 50t-67 20q-30 0 -53.5 -9t-40 -24t-25 -34.5t-8.5 -40.5q0 -30 22 -50t67 -20zM349 1338z" />
    <glyph glyph-name="Aringacute" unicode="&#x1fa;" horiz-adv-x="1252" 
d="M1161 1943l-230 -199h-123l177 199h176zM836 1717q102 0 153.5 -42t51.5 -105q0 -37 -16 -74t-48 -66.5t-80.5 -48t-114.5 -18.5q-102 0 -153.5 41.5t-51.5 104.5q0 38 16 75t48 66.5t80.5 48t114.5 18.5zM916 1558q0 29 -22 45t-67 16q-59 0 -92 -29t-33 -68
q0 -29 22 -45t67 -16q59 0 92 29t33 68zM-40 0l741 1338h137l264 -1338h-165l-77 403h-499l-221 -403h-180zM441 550h391l-48 257q-33 177 -50 293h-4q-53 -122 -160 -316z" />
    <glyph glyph-name="Aogonek" unicode="&#x104;" horiz-adv-x="1252" 
d="M860 403h-499l-221 -403h-180l741 1338h137l264 -1338q-48 -19 -101 -49.5t-96.5 -68t-72 -80t-28.5 -84.5q0 -39 23.5 -56t65.5 -17q29 0 59 5.5t67 17.5l-28 -134q-29 -13 -63.5 -18.5t-68.5 -5.5q-95 0 -144.5 45t-49.5 126q0 56 23.5 107t62 94.5t86.5 78.5t96 59z
M441 550h391l-48 257q-33 177 -50 293h-4q-53 -122 -160 -316z" />
    <glyph glyph-name="AE" unicode="&#xc6;" horiz-adv-x="1701" 
d="M-40 0l907 1338h864l-31 -147h-584l-45 -432h491l-30 -147h-475l-48 -465h586l-30 -147h-734l41 403h-453l-271 -403h-188zM949 1191l-431 -641h369l67 641h-5z" />
    <glyph glyph-name="AEacute" unicode="&#x1fc;" horiz-adv-x="1701" 
d="M-40 0l907 1338h864l-31 -147h-584l-45 -432h491l-30 -147h-475l-48 -465h586l-30 -147h-734l41 403h-453l-271 -403h-188zM949 1191l-431 -641h369l67 641h-5zM1578 1656l-232 -247h-143l193 247h182zM971 1338z" />
    <glyph glyph-name="Cacute" unicode="&#x106;" horiz-adv-x="1154" 
d="M883 1218q-91 0 -170 -28t-143.5 -77.5t-115 -117t-84.5 -147t-52 -167.5t-18 -177q0 -119 35 -194t91 -117t127 -57.5t143 -15.5q81 0 156 15t136 35l-31 -149q-63 -23 -138.5 -34.5t-150.5 -11.5q-113 0 -211.5 30t-171 93t-114 161t-41.5 234q0 100 20.5 203.5
t62.5 200t105 181.5t148 148.5t192.5 100t236.5 36.5q85 0 158 -14.5t126 -34.5l-30 -145q-56 20 -119 34.5t-147 14.5zM1181 1656l-232 -247h-143l193 247h182zM574 1338z" />
    <glyph glyph-name="Ccircumflex" unicode="&#x108;" horiz-adv-x="1154" 
d="M883 1218q-91 0 -170 -28t-143.5 -77.5t-115 -117t-84.5 -147t-52 -167.5t-18 -177q0 -119 35 -194t91 -117t127 -57.5t143 -15.5q81 0 156 15t136 35l-31 -149q-63 -23 -138.5 -34.5t-150.5 -11.5q-113 0 -211.5 30t-171 93t-114 161t-41.5 234q0 100 20.5 203.5
t62.5 200t105 181.5t148 148.5t192.5 100t236.5 36.5q85 0 158 -14.5t126 -34.5l-30 -145q-56 20 -119 34.5t-147 14.5zM994 1656l167 -247h-151l-106 151h-4l-167 -151h-165l265 247h161zM437 1338z" />
    <glyph glyph-name="Ccaron" unicode="&#x10c;" horiz-adv-x="1154" 
d="M883 1218q-91 0 -170 -28t-143.5 -77.5t-115 -117t-84.5 -147t-52 -167.5t-18 -177q0 -119 35 -194t91 -117t127 -57.5t143 -15.5q81 0 156 15t136 35l-31 -149q-63 -23 -138.5 -34.5t-150.5 -11.5q-113 0 -211.5 30t-171 93t-114 161t-41.5 234q0 100 20.5 203.5
t62.5 200t105 181.5t148 148.5t192.5 100t236.5 36.5q85 0 158 -14.5t126 -34.5l-30 -145q-56 20 -119 34.5t-147 14.5zM795 1409l-167 247h151l106 -151h4l167 151h165l-265 -247h-161zM438 1338z" />
    <glyph glyph-name="Cdotaccent" unicode="&#x10a;" horiz-adv-x="1154" 
d="M883 1218q-91 0 -170 -28t-143.5 -77.5t-115 -117t-84.5 -147t-52 -167.5t-18 -177q0 -119 35 -194t91 -117t127 -57.5t143 -15.5q81 0 156 15t136 35l-31 -149q-63 -23 -138.5 -34.5t-150.5 -11.5q-113 0 -211.5 30t-171 93t-114 161t-41.5 234q0 100 20.5 203.5
t62.5 200t105 181.5t148 148.5t192.5 100t236.5 36.5q85 0 158 -14.5t126 -34.5l-30 -145q-56 20 -119 34.5t-147 14.5zM790 1448l35 171h163l-35 -171h-163zM431 1338z" />
    <glyph glyph-name="Ccedilla" unicode="&#xc7;" horiz-adv-x="1154" 
d="M883 1218q-91 0 -170 -28t-143.5 -77.5t-115 -117t-84.5 -147t-52 -167.5t-18 -177q0 -119 35 -194t91 -117t127 -57.5t143 -15.5q81 0 156 15t136 35l-31 -149q-63 -23 -138.5 -34.5t-150.5 -11.5q-24 0 -48 2l-44 -105q35 -4 64.5 -16t51 -31t33.5 -45.5t12 -59.5
q0 -46 -17 -84.5t-51.5 -66.5t-85.5 -43.5t-119 -15.5q-46 0 -87.5 7.5t-64.5 16.5l24 112q23 -9 56 -15t68 -6q75 0 108 26t33 59q0 20 -10 33.5t-32 22.5t-57.5 13.5t-87.5 5.5l89 208q-82 18 -150.5 57t-118 100.5t-77 146.5t-27.5 196q0 100 20.5 203.5t62.5 200
t105 181.5t148 148.5t192.5 100t236.5 36.5q85 0 158 -14.5t126 -34.5l-30 -145q-56 20 -119 34.5t-147 14.5z" />
    <glyph glyph-name="Dcaron" unicode="&#x10e;" horiz-adv-x="1332" 
d="M1102 842q0 71 -17 125.5t-48 94.5t-73 66.5t-92 41.5q-36 11 -78.5 16t-105.5 5h-203l-217 -1044h134q79 0 139 7t109 20q92 25 161.5 68.5t119.5 100t83.5 122t52.5 131.5t27 129.5t8 116.5zM1272 825q0 -74 -13 -154.5t-42 -160.5t-75.5 -155.5t-113 -139.5
t-154.5 -112.5t-201 -75.5q-57 -13 -123.5 -20t-157.5 -7h-317l278 1338h338q68 0 121.5 -6t99.5 -18q93 -24 162 -70t112.5 -109.5t64.5 -142t21 -167.5zM681 1409l-167 247h151l106 -151h4l167 151h165l-265 -247h-161zM324 1338z" />
    <glyph glyph-name="Dcroat" unicode="&#x110;" horiz-adv-x="1356" 
d="M111 759h145l121 579h338q68 0 121.5 -6t99.5 -18q94 -25 162.5 -71t112 -109t64.5 -141.5t21 -167.5q0 -74 -13 -154.5t-42 -160.5t-75.5 -155.5t-113 -139.5t-154.5 -113t-201 -75q-56 -13 -122.5 -20t-158.5 -7h-317l127 612h-146zM1126 842q0 71 -17 125.5t-48 94.5
t-73 66.5t-92 41.5q-39 11 -80 16t-104 5h-203l-90 -432h362l-31 -147h-362l-96 -465h134q81 0 140 7t108 20q92 24 161.5 68t120 100.5t83.5 122t52 131.5t27 129.5t8 116.5z" />
    <glyph glyph-name="Egrave" unicode="&#xc8;" horiz-adv-x="1073" 
d="M268 147h639l-30 -147h-802l278 1338h765l-31 -147h-602l-90 -432h538l-30 -147h-538zM738 1656l95 -247h-135l-130 247h170zM281 1338z" />
    <glyph glyph-name="Eacute" unicode="&#xc9;" horiz-adv-x="1073" 
d="M268 147h639l-30 -147h-802l278 1338h765l-31 -147h-602l-90 -432h538l-30 -147h-538zM1026 1656l-232 -247h-143l193 247h182zM419 1338z" />
    <glyph glyph-name="Ecircumflex" unicode="&#xca;" horiz-adv-x="1073" 
d="M268 147h639l-30 -147h-802l278 1338h765l-31 -147h-602l-90 -432h538l-30 -147h-538zM884 1656l167 -247h-151l-106 151h-4l-167 -151h-165l265 247h161zM327 1338z" />
    <glyph glyph-name="Ecaron" unicode="&#x11a;" horiz-adv-x="1073" 
d="M268 147h639l-30 -147h-802l278 1338h765l-31 -147h-602l-90 -432h538l-30 -147h-538zM654 1409l-167 247h151l106 -151h4l167 151h165l-265 -247h-161zM297 1338z" />
    <glyph glyph-name="Edieresis" unicode="&#xcb;" horiz-adv-x="1073" 
d="M268 147h639l-30 -147h-802l278 1338h765l-31 -147h-602l-90 -432h538l-30 -147h-538zM484 1448l35 169h161l-35 -169h-161zM867 1448l35 169h161l-35 -169h-161zM314 1338z" />
    <glyph glyph-name="Emacron" unicode="&#x112;" horiz-adv-x="1073" 
d="M268 147h639l-30 -147h-802l278 1338h765l-31 -147h-602l-90 -432h538l-30 -147h-538zM504 1581h540l-27 -133h-540zM301 1338z" />
    <glyph glyph-name="Ebreve" unicode="&#x114;" horiz-adv-x="1073" 
d="M268 147h639l-30 -147h-802l278 1338h765l-31 -147h-602l-90 -432h538l-30 -147h-538zM742 1530q29 0 60.5 7t60 23t52.5 43t39 67h140q-20 -66 -56.5 -115t-83.5 -81.5t-103.5 -48.5t-116.5 -16q-61 0 -111 17t-83 49.5t-46.5 74.5t-13.5 82q0 20 2 38h126q-1 -9 -1 -17
q1 -55 35 -89t100 -34zM304 1338z" />
    <glyph glyph-name="Edotaccent" unicode="&#x116;" horiz-adv-x="1073" 
d="M268 147h639l-30 -147h-802l278 1338h765l-31 -147h-602l-90 -432h538l-30 -147h-538zM651 1448l35 171h163l-35 -171h-163zM292 1338z" />
    <glyph glyph-name="Eogonek" unicode="&#x118;" horiz-adv-x="1073" 
d="M437 -315q0 53 22.5 100t58 86.5t78.5 71t85 53.5v4h-606l278 1338h765l-31 -147h-602l-90 -432h538l-30 -147h-538l-97 -465h639l-30 -147q-29 -11 -62.5 -28.5t-67 -39.5t-64.5 -47t-55 -52.5t-38 -56.5t-14 -57q0 -74 96 -74q28 0 59 5.5t68 17.5l-28 -134
q-29 -13 -65 -18.5t-70 -5.5q-95 0 -147 44.5t-52 130.5z" />
    <glyph glyph-name="Gcircumflex" unicode="&#x11c;" horiz-adv-x="1375" 
d="M942 1363q50 0 100 -5t95 -13t83 -18t65 -20l-30 -145q-64 23 -140.5 39.5t-164.5 16.5q-103 0 -190 -27t-157.5 -75t-124.5 -114t-90.5 -145t-55 -166.5t-18.5 -179.5q0 -100 24.5 -173.5t70.5 -122t112 -72t148 -23.5q153 0 246 72.5t131 233.5l27 115h-306l31 147h468
l-64 -296q-26 -120 -78 -200.5t-123.5 -128.5t-158 -68t-181.5 -20q-117 0 -213 32t-164.5 96.5t-106 162t-37.5 229.5q0 101 20.5 204t63.5 199.5t108 181t154 147.5t203 99.5t253 36.5zM1005 1656l167 -247h-151l-106 151h-4l-167 -151h-165l265 247h161zM448 1338z" />
    <glyph glyph-name="Gbreve" unicode="&#x11e;" horiz-adv-x="1375" 
d="M942 1363q50 0 100 -5t95 -13t83 -18t65 -20l-30 -145q-64 23 -140.5 39.5t-164.5 16.5q-103 0 -190 -27t-157.5 -75t-124.5 -114t-90.5 -145t-55 -166.5t-18.5 -179.5q0 -100 24.5 -173.5t70.5 -122t112 -72t148 -23.5q153 0 246 72.5t131 233.5l27 115h-306l31 147h468
l-64 -296q-26 -120 -78 -200.5t-123.5 -128.5t-158 -68t-181.5 -20q-117 0 -213 32t-164.5 96.5t-106 162t-37.5 229.5q0 101 20.5 204t63.5 199.5t108 181t154 147.5t203 99.5t253 36.5zM850 1530q29 0 60.5 7t60 23t52.5 43t39 67h140q-20 -66 -56.5 -115t-83.5 -81.5
t-103.5 -48.5t-116.5 -16q-61 0 -111 17t-83 49.5t-46.5 74.5t-13.5 82q0 20 2 38h126q-1 -9 -1 -17q1 -55 35 -89t100 -34zM412 1338z" />
    <glyph glyph-name="Gdotaccent" unicode="&#x120;" horiz-adv-x="1375" 
d="M942 1363q50 0 100 -5t95 -13t83 -18t65 -20l-30 -145q-64 23 -140.5 39.5t-164.5 16.5q-103 0 -190 -27t-157.5 -75t-124.5 -114t-90.5 -145t-55 -166.5t-18.5 -179.5q0 -100 24.5 -173.5t70.5 -122t112 -72t148 -23.5q153 0 246 72.5t131 233.5l27 115h-306l31 147h468
l-64 -296q-26 -120 -78 -200.5t-123.5 -128.5t-158 -68t-181.5 -20q-117 0 -213 32t-164.5 96.5t-106 162t-37.5 229.5q0 101 20.5 204t63.5 199.5t108 181t154 147.5t203 99.5t253 36.5zM784 1448l35 171h163l-35 -171h-163zM425 1338z" />
    <glyph glyph-name="uni0122" unicode="&#x122;" horiz-adv-x="1375" 
d="M942 1363q50 0 100 -5t95 -13t83 -18t65 -20l-30 -145q-64 23 -140.5 39.5t-164.5 16.5q-103 0 -190 -27t-157.5 -75t-124.5 -114t-90.5 -145t-55 -166.5t-18.5 -179.5q0 -100 24.5 -173.5t70.5 -122t112 -72t148 -23.5q153 0 246 72.5t131 233.5l27 115h-306l31 147h468
l-64 -296q-26 -120 -78 -200.5t-123.5 -128.5t-158 -68t-181.5 -20q-117 0 -213 32t-164.5 96.5t-106 162t-37.5 229.5q0 101 20.5 204t63.5 199.5t108 181t154 147.5t203 99.5t253 36.5zM612 -300q0 23 -15 35.5t-45 13.5h-10l27 129q13 1 25 1q81 0 128 -33.5t47 -95.5
q0 -54 -28.5 -113t-88.5 -127h-149q50 56 79.5 103.5t29.5 86.5z" />
    <glyph glyph-name="Hcircumflex" unicode="&#x124;" horiz-adv-x="1340" 
d="M394 759h664l120 579h163l-278 -1338h-163l127 612h-662l-127 -612h-163l278 1338h163zM985 1656l167 -247h-151l-106 151h-4l-167 -151h-165l265 247h161zM428 1338z" />
    <glyph glyph-name="Hbar" unicode="&#x126;" horiz-adv-x="1340" 
d="M160 1113h146l47 225h163l-48 -225h663l47 225h163l-47 -225h144l-31 -147h-143l-201 -966h-163l127 612h-662l-127 -612h-163l200 966h-146zM1058 759l43 207h-664l-43 -207h664z" />
    <glyph glyph-name="Igrave" unicode="&#xcc;" horiz-adv-x="511" 
d="M64 0l278 1338h163l-278 -1338h-163zM423 1656l95 -247h-135l-130 247h170zM-34 1338z" />
    <glyph glyph-name="Iacute" unicode="&#xcd;" horiz-adv-x="511" 
d="M59 0l278 1338h163l-278 -1338h-163zM724 1656l-232 -247h-143l193 247h182zM117 1338z" />
    <glyph glyph-name="Icircumflex" unicode="&#xce;" horiz-adv-x="511" 
d="M64 0l278 1338h163l-278 -1338h-163zM557 1656l167 -247h-151l-106 151h-4l-167 -151h-165l265 247h161zM0 1338z" />
    <glyph glyph-name="Itilde" unicode="&#x128;" horiz-adv-x="511" 
d="M64 0l278 1338h163l-278 -1338h-163zM780 1633q-7 -45 -23 -83.5t-40.5 -67t-59 -45t-78.5 -16.5q-27 0 -51 5.5t-44.5 14.5t-39 19.5t-35.5 20.5q-24 15 -45.5 25t-42.5 10q-32 0 -53 -24t-29 -63h-130q7 45 23 84t40.5 67.5t59 44.5t78.5 16t81.5 -14.5t71.5 -35.5
q29 -17 54 -31t51 -14q33 0 53.5 24t28.5 63h130zM-12 1338z" />
    <glyph glyph-name="Idieresis" unicode="&#xcf;" horiz-adv-x="511" 
d="M64 0l278 1338h163l-278 -1338h-163zM168 1448l35 169h161l-35 -169h-161zM551 1448l35 169h161l-35 -169h-161zM-2 1338z" />
    <glyph glyph-name="Imacron" unicode="&#x12a;" horiz-adv-x="511" 
d="M64 0l278 1338h163l-278 -1338h-163zM191 1581h540l-27 -133h-540zM-12 1338z" />
    <glyph glyph-name="Ibreve" unicode="&#x12c;" horiz-adv-x="511" 
d="M64 0l278 1338h163l-278 -1338h-163zM429 1530q29 0 60.5 7t60 23t52.5 43t39 67h140q-20 -66 -56.5 -115t-83.5 -81.5t-103.5 -48.5t-116.5 -16q-61 0 -111 17t-83 49.5t-46.5 74.5t-13.5 82q0 20 2 38h126q-1 -9 -1 -17q1 -55 35 -89t100 -34zM-9 1338z" />
    <glyph glyph-name="Idotaccent" unicode="&#x130;" horiz-adv-x="511" 
d="M64 0l278 1338h163l-278 -1338h-163zM359 1448l35 171h163l-35 -171h-163zM0 1338z" />
    <glyph glyph-name="Iogonek" unicode="&#x12e;" horiz-adv-x="511" 
d="M238 0q-51 -35 -91 -73t-67.5 -74.5t-42 -71t-14.5 -62.5q0 -35 19.5 -54.5t66.5 -19.5q28 0 55.5 5.5t64.5 17.5l-28 -134q-31 -13 -62.5 -18.5t-65.5 -5.5q-92 0 -140.5 45t-48.5 123q0 50 15.5 96.5t41.5 88.5t61.5 79t74.5 68l276 1328h163z" />
    <glyph glyph-name="IJ" unicode="&#x132;" horiz-adv-x="1225" 
d="M75 0l278 1338h163l-278 -1338h-163zM1066 1338h163l-220 -1059q-8 -40 -17 -69t-21 -55q-17 -37 -44 -69.5t-66.5 -57t-94.5 -39t-129 -14.5q-45 0 -92 7.5t-84 21.5l30 141q32 -12 66.5 -18.5t73.5 -6.5q70 0 115 21.5t71 64.5q11 17 18 39t15 57z" />
    <glyph glyph-name="Jcircumflex" unicode="&#x134;" horiz-adv-x="743" 
d="M585 1338h163l-220 -1059q-8 -40 -17 -69t-21 -55q-17 -37 -44 -69.5t-66.5 -57t-94.5 -39t-129 -14.5q-45 0 -92 7.5t-84 21.5l30 141q32 -12 66.5 -18.5t73.5 -6.5q70 0 115 21.5t71 64.5q11 17 18 39t15 57zM799 1656l167 -247h-151l-106 151h-4l-167 -151h-165
l265 247h161zM242 1338z" />
    <glyph glyph-name="uni0136" unicode="&#x136;" horiz-adv-x="1169" 
d="M382 677l701 661h206l-723 -678l494 -660h-191l-491 655h-3l-137 -655h-163l278 1338h163l-137 -661h3zM487 -300q0 23 -15 35.5t-45 13.5h-10l27 129q13 1 25 1q81 0 128 -33.5t47 -95.5q0 -54 -28.5 -113t-88.5 -127h-149q50 56 79.5 103.5t29.5 86.5z" />
    <glyph glyph-name="Lacute" unicode="&#x139;" horiz-adv-x="1017" 
d="M268 147h639l-30 -147h-802l278 1338h163zM741 1656l-232 -247h-143l193 247h182zM134 1338z" />
    <glyph glyph-name="Lcaron" unicode="&#x13d;" horiz-adv-x="1017" 
d="M268 147h639l-30 -147h-802l278 1338h163zM749 1166q0 23 -15.5 36t-44.5 13h-10l27 129q15 1 27 1q80 0 126.5 -34t46.5 -95q0 -54 -28.5 -113t-88.5 -127h-149q50 56 79.5 103.5t29.5 86.5z" />
    <glyph glyph-name="uni013B" unicode="&#x13b;" horiz-adv-x="1017" 
d="M268 147h639l-30 -147h-802l278 1338h163zM434 -300q0 23 -15 35.5t-45 13.5h-10l27 129q13 1 25 1q81 0 128 -33.5t47 -95.5q0 -54 -28.5 -113t-88.5 -127h-149q50 56 79.5 103.5t29.5 86.5z" />
    <glyph glyph-name="Lslash" unicode="&#x141;" horiz-adv-x="1017" 
d="M740 752l-374 -133l-98 -472h639l-30 -147h-802l116 560l-150 -53l33 158l150 53l129 620h163l-117 -561l374 133z" />
    <glyph glyph-name="Ldot" unicode="&#x13f;" horiz-adv-x="1017" 
d="M268 147h639l-30 -147h-802l278 1338h163zM627 620l35 171h163l-35 -171h-163z" />
    <glyph glyph-name="Nacute" unicode="&#x143;" horiz-adv-x="1381" 
d="M1008 241q6 39 12 81.5t13 86t15 86.5t16 82l159 761h163l-278 -1338h-152l-363 780q-35 74 -71.5 157t-65.5 163h-4q-11 -83 -25 -172t-31 -167l-158 -761h-163l278 1338h150l389 -839q28 -60 58 -126.5t54 -131.5h4zM1158 1656l-232 -247h-143l193 247h182zM551 1338z
" />
    <glyph glyph-name="Ncaron" unicode="&#x147;" horiz-adv-x="1381" 
d="M1008 241q6 39 12 81.5t13 86t15 86.5t16 82l159 761h163l-278 -1338h-152l-363 780q-35 74 -71.5 157t-65.5 163h-4q-11 -83 -25 -172t-31 -167l-158 -761h-163l278 1338h150l389 -839q28 -60 58 -126.5t54 -131.5h4zM777 1409l-167 247h151l106 -151h4l167 151h165
l-265 -247h-161zM420 1338z" />
    <glyph glyph-name="Ntilde" unicode="&#xd1;" horiz-adv-x="1381" 
d="M1008 241q6 39 12 81.5t13 86t15 86.5t16 82l159 761h163l-278 -1338h-152l-363 780q-35 74 -71.5 157t-65.5 163h-4q-11 -83 -25 -172t-31 -167l-158 -761h-163l278 1338h150l389 -839q28 -60 58 -126.5t54 -131.5h4zM1227 1633q-7 -45 -23 -83.5t-40.5 -67t-59 -45
t-78.5 -16.5q-27 0 -51 5.5t-44.5 14.5t-39 19.5t-35.5 20.5q-24 15 -45.5 25t-42.5 10q-32 0 -53 -24t-29 -63h-130q7 45 23 84t40.5 67.5t59 44.5t78.5 16t81.5 -14.5t71.5 -35.5q29 -17 54 -31t51 -14q33 0 53.5 24t28.5 63h130zM435 1338z" />
    <glyph glyph-name="uni0145" unicode="&#x145;" horiz-adv-x="1381" 
d="M1008 241q6 39 12 81.5t13 86t15 86.5t16 82l159 761h163l-278 -1338h-152l-363 780q-35 74 -71.5 157t-65.5 163h-4q-11 -83 -25 -172t-31 -167l-158 -761h-163l278 1338h150l389 -839q28 -60 58 -126.5t54 -131.5h4zM542 -300q0 23 -15 35.5t-45 13.5h-10l27 129
q13 1 25 1q81 0 128 -33.5t47 -95.5q0 -54 -28.5 -113t-88.5 -127h-149q50 56 79.5 103.5t29.5 86.5z" />
    <glyph glyph-name="Ograve" unicode="&#xd2;" horiz-adv-x="1427" 
d="M643 -25q-114 0 -207 31.5t-159 93.5t-101.5 154t-35.5 213q0 100 20 205.5t60 205t100 188t141 154.5t182 104.5t222 38.5q114 0 207 -31.5t158.5 -93.5t101 -154t35.5 -213q0 -100 -20 -205.5t-60 -205t-100 -188t-140.5 -154.5t-181.5 -104.5t-222 -38.5zM644 120
q91 0 167 32.5t137.5 88t108 129t77.5 155.5t47 168t16 166q0 177 -83.5 268t-250.5 91q-91 0 -167 -32.5t-137.5 -88t-108 -129t-77.5 -155.5t-47 -168t-16 -166q0 -177 83.5 -268t250.5 -91zM847 1656l95 -247h-135l-130 247h170zM390 1338z" />
    <glyph glyph-name="Oacute" unicode="&#xd3;" horiz-adv-x="1427" 
d="M643 -25q-114 0 -207 31.5t-159 93.5t-101.5 154t-35.5 213q0 100 20 205.5t60 205t100 188t141 154.5t182 104.5t222 38.5q114 0 207 -31.5t158.5 -93.5t101 -154t35.5 -213q0 -100 -20 -205.5t-60 -205t-100 -188t-140.5 -154.5t-181.5 -104.5t-222 -38.5zM644 120
q91 0 167 32.5t137.5 88t108 129t77.5 155.5t47 168t16 166q0 177 -83.5 268t-250.5 91q-91 0 -167 -32.5t-137.5 -88t-108 -129t-77.5 -155.5t-47 -168t-16 -166q0 -177 83.5 -268t250.5 -91zM1163 1656l-232 -247h-143l193 247h182zM556 1338z" />
    <glyph glyph-name="Ocircumflex" unicode="&#xd4;" horiz-adv-x="1427" 
d="M643 -25q-114 0 -207 31.5t-159 93.5t-101.5 154t-35.5 213q0 100 20 205.5t60 205t100 188t141 154.5t182 104.5t222 38.5q114 0 207 -31.5t158.5 -93.5t101 -154t35.5 -213q0 -100 -20 -205.5t-60 -205t-100 -188t-140.5 -154.5t-181.5 -104.5t-222 -38.5zM644 120
q91 0 167 32.5t137.5 88t108 129t77.5 155.5t47 168t16 166q0 177 -83.5 268t-250.5 91q-91 0 -167 -32.5t-137.5 -88t-108 -129t-77.5 -155.5t-47 -168t-16 -166q0 -177 83.5 -268t250.5 -91zM1010 1656l167 -247h-151l-106 151h-4l-167 -151h-165l265 247h161zM453 1338z
" />
    <glyph glyph-name="Otilde" unicode="&#xd5;" horiz-adv-x="1427" 
d="M643 -25q-114 0 -207 31.5t-159 93.5t-101.5 154t-35.5 213q0 100 20 205.5t60 205t100 188t141 154.5t182 104.5t222 38.5q114 0 207 -31.5t158.5 -93.5t101 -154t35.5 -213q0 -100 -20 -205.5t-60 -205t-100 -188t-140.5 -154.5t-181.5 -104.5t-222 -38.5zM644 120
q91 0 167 32.5t137.5 88t108 129t77.5 155.5t47 168t16 166q0 177 -83.5 268t-250.5 91q-91 0 -167 -32.5t-137.5 -88t-108 -129t-77.5 -155.5t-47 -168t-16 -166q0 -177 83.5 -268t250.5 -91zM1246 1633q-7 -45 -23 -83.5t-40.5 -67t-59 -45t-78.5 -16.5q-27 0 -51 5.5
t-44.5 14.5t-39 19.5t-35.5 20.5q-24 15 -45.5 25t-42.5 10q-32 0 -53 -24t-29 -63h-130q7 45 23 84t40.5 67.5t59 44.5t78.5 16t81.5 -14.5t71.5 -35.5q29 -17 54 -31t51 -14q33 0 53.5 24t28.5 63h130zM454 1338z" />
    <glyph glyph-name="Odieresis" unicode="&#xd6;" horiz-adv-x="1427" 
d="M643 -25q-114 0 -207 31.5t-159 93.5t-101.5 154t-35.5 213q0 100 20 205.5t60 205t100 188t141 154.5t182 104.5t222 38.5q114 0 207 -31.5t158.5 -93.5t101 -154t35.5 -213q0 -100 -20 -205.5t-60 -205t-100 -188t-140.5 -154.5t-181.5 -104.5t-222 -38.5zM644 120
q91 0 167 32.5t137.5 88t108 129t77.5 155.5t47 168t16 166q0 177 -83.5 268t-250.5 91q-91 0 -167 -32.5t-137.5 -88t-108 -129t-77.5 -155.5t-47 -168t-16 -166q0 -177 83.5 -268t250.5 -91zM617 1448l35 169h161l-35 -169h-161zM1000 1448l35 169h161l-35 -169h-161z
M447 1338z" />
    <glyph glyph-name="Omacron" unicode="&#x14c;" horiz-adv-x="1427" 
d="M643 -25q-114 0 -207 31.5t-159 93.5t-101.5 154t-35.5 213q0 100 20 205.5t60 205t100 188t141 154.5t182 104.5t222 38.5q114 0 207 -31.5t158.5 -93.5t101 -154t35.5 -213q0 -100 -20 -205.5t-60 -205t-100 -188t-140.5 -154.5t-181.5 -104.5t-222 -38.5zM644 120
q91 0 167 32.5t137.5 88t108 129t77.5 155.5t47 168t16 166q0 177 -83.5 268t-250.5 91q-91 0 -167 -32.5t-137.5 -88t-108 -129t-77.5 -155.5t-47 -168t-16 -166q0 -177 83.5 -268t250.5 -91zM641 1581h540l-27 -133h-540zM438 1338z" />
    <glyph glyph-name="Obreve" unicode="&#x14e;" horiz-adv-x="1427" 
d="M643 -25q-114 0 -207 31.5t-159 93.5t-101.5 154t-35.5 213q0 100 20 205.5t60 205t100 188t141 154.5t182 104.5t222 38.5q114 0 207 -31.5t158.5 -93.5t101 -154t35.5 -213q0 -100 -20 -205.5t-60 -205t-100 -188t-140.5 -154.5t-181.5 -104.5t-222 -38.5zM644 120
q91 0 167 32.5t137.5 88t108 129t77.5 155.5t47 168t16 166q0 177 -83.5 268t-250.5 91q-91 0 -167 -32.5t-137.5 -88t-108 -129t-77.5 -155.5t-47 -168t-16 -166q0 -177 83.5 -268t250.5 -91zM886 1530q29 0 60.5 7t60 23t52.5 43t39 67h140q-20 -66 -56.5 -115
t-83.5 -81.5t-103.5 -48.5t-116.5 -16q-61 0 -111 17t-83 49.5t-46.5 74.5t-13.5 82q0 20 2 38h126q-1 -9 -1 -17q1 -55 35 -89t100 -34zM448 1338z" />
    <glyph glyph-name="Ohungarumlaut" unicode="&#x150;" horiz-adv-x="1427" 
d="M643 -25q-114 0 -207 31.5t-159 93.5t-101.5 154t-35.5 213q0 100 20 205.5t60 205t100 188t141 154.5t182 104.5t222 38.5q114 0 207 -31.5t158.5 -93.5t101 -154t35.5 -213q0 -100 -20 -205.5t-60 -205t-100 -188t-140.5 -154.5t-181.5 -104.5t-222 -38.5zM644 120
q91 0 167 32.5t137.5 88t108 129t77.5 155.5t47 168t16 166q0 177 -83.5 268t-250.5 91q-91 0 -167 -32.5t-137.5 -88t-108 -129t-77.5 -155.5t-47 -168t-16 -166q0 -177 83.5 -268t250.5 -91zM1018 1656l-232 -247h-143l193 247h182zM1319 1656l-246 -247h-145l207 247h184
zM508 1338z" />
    <glyph glyph-name="Oslash" unicode="&#xd8;" horiz-adv-x="1427" 
d="M1426 1266l-121 -125q30 -55 46 -122t16 -148q0 -100 -20 -205.5t-60 -205t-100 -188t-140.5 -154.5t-181.5 -104.5t-222 -38.5q-223 0 -355 115l-112 -115l-98 97l123 127q-61 110 -61 268q0 100 20 205.5t60 205t100 188t141 154.5t182 104.5t222 38.5q109 0 198 -28.5
t155 -85.5l110 114zM644 120q91 0 167.5 32.5t138.5 88t109 129t78.5 155.5t47.5 168t16 166q0 85 -20 154l-784 -810q85 -83 247 -83zM863 1218q-91 0 -167.5 -32.5t-138.5 -88t-109 -129t-78.5 -155.5t-47.5 -168t-16 -166q0 -88 19 -152l783 809q-85 82 -245 82z" />
    <glyph glyph-name="Oslashacute" unicode="&#x1fe;" horiz-adv-x="1427" 
d="M1426 1266l-121 -125q30 -55 46 -122t16 -148q0 -100 -20 -205.5t-60 -205t-100 -188t-140.5 -154.5t-181.5 -104.5t-222 -38.5q-223 0 -355 115l-112 -115l-98 97l123 127q-61 110 -61 268q0 100 20 205.5t60 205t100 188t141 154.5t182 104.5t222 38.5q109 0 198 -28.5
t155 -85.5l110 114zM644 120q91 0 167.5 32.5t138.5 88t109 129t78.5 155.5t47.5 168t16 166q0 85 -20 154l-784 -810q85 -83 247 -83zM863 1218q-91 0 -167.5 -32.5t-138.5 -88t-109 -129t-78.5 -155.5t-47.5 -168t-16 -166q0 -88 19 -152l783 809q-85 82 -245 82z
M1160 1656l-232 -247h-143l193 247h182zM553 1338z" />
    <glyph glyph-name="OE" unicode="&#x152;" horiz-adv-x="2035" 
d="M617 -25q-103 0 -190.5 32t-151 95t-99.5 157.5t-36 219.5q0 97 20 200t60 201t99.5 186t139.5 154t180 104.5t220 38.5q155 0 257 -56t155 -163h4l40 194h765l-31 -147h-602l-90 -432h538l-30 -147h-538l-97 -465h639l-30 -147h-802l38 181h-4q-41 -45 -88.5 -83
t-103.5 -65t-121 -42.5t-141 -15.5zM637 120q93 0 170 32.5t139.5 88t109.5 129t78 155.5t47 168t16 166q0 177 -83.5 268t-250.5 91q-91 0 -167 -32.5t-137.5 -88t-108 -129t-77.5 -155.5t-47 -168t-16 -166q0 -177 83 -268t244 -91z" />
    <glyph glyph-name="Racute" unicode="&#x154;" horiz-adv-x="1190" 
d="M353 554l-115 -554h-163l278 1338h350q58 0 111 -5t93 -16q131 -35 194.5 -116.5t63.5 -191.5q0 -79 -24.5 -149t-76.5 -127t-133 -97.5t-195 -60.5v-4l306 -571h-182l-291 554h-216zM384 701h151q72 0 124.5 5.5t94.5 16.5q72 19 118.5 50.5t74 69t38 78t10.5 79.5
q0 60 -34.5 106.5t-107.5 69.5q-50 15 -140 15h-228zM996 1656l-232 -247h-143l193 247h182zM389 1338z" />
    <glyph glyph-name="Rcaron" unicode="&#x158;" horiz-adv-x="1190" 
d="M353 554l-115 -554h-163l278 1338h350q58 0 111 -5t93 -16q131 -35 194.5 -116.5t63.5 -191.5q0 -79 -24.5 -149t-76.5 -127t-133 -97.5t-195 -60.5v-4l306 -571h-182l-291 554h-216zM384 701h151q72 0 124.5 5.5t94.5 16.5q72 19 118.5 50.5t74 69t38 78t10.5 79.5
q0 60 -34.5 106.5t-107.5 69.5q-50 15 -140 15h-228zM637 1409l-167 247h151l106 -151h4l167 151h165l-265 -247h-161zM280 1338z" />
    <glyph glyph-name="uni0156" unicode="&#x156;" horiz-adv-x="1190" 
d="M353 554l-115 -554h-163l278 1338h350q58 0 111 -5t93 -16q131 -35 194.5 -116.5t63.5 -191.5q0 -79 -24.5 -149t-76.5 -127t-133 -97.5t-195 -60.5v-4l306 -571h-182l-291 554h-216zM384 701h151q72 0 124.5 5.5t94.5 16.5q72 19 118.5 50.5t74 69t38 78t10.5 79.5
q0 60 -34.5 106.5t-107.5 69.5q-50 15 -140 15h-228zM483 -300q0 23 -15 35.5t-45 13.5h-10l27 129q13 1 25 1q81 0 128 -33.5t47 -95.5q0 -54 -28.5 -113t-88.5 -127h-149q50 56 79.5 103.5t29.5 86.5z" />
    <glyph glyph-name="Sacute" unicode="&#x15a;" horiz-adv-x="1120" 
d="M211 946q0 95 33 172t95 131.5t151.5 84t200.5 29.5q116 0 215.5 -23t170.5 -54l-30 -148q-74 35 -166.5 57.5t-183.5 22.5q-72 0 -130.5 -17.5t-100 -49t-63.5 -76t-22 -99.5q0 -49 19.5 -83t53 -57.5t77 -40t91.5 -30.5q72 -21 137 -45.5t115 -63.5t79 -99t29 -145
q0 -102 -40.5 -183t-113.5 -137.5t-176 -86.5t-225 -30q-64 0 -128 8.5t-114.5 21.5t-88 29t-58.5 31l31 144q32 -19 72.5 -35.5t86 -28.5t94 -18.5t97.5 -6.5q96 0 169.5 20t123 56.5t74.5 89t25 116.5q0 56 -25.5 96t-67.5 65t-95.5 41.5t-109.5 33.5q-62 18 -116.5 42.5
t-96 60t-65.5 85.5t-24 120zM989 1656l-232 -247h-143l193 247h182zM382 1338z" />
    <glyph glyph-name="Scircumflex" unicode="&#x15c;" horiz-adv-x="1120" 
d="M211 946q0 95 33 172t95 131.5t151.5 84t200.5 29.5q116 0 215.5 -23t170.5 -54l-30 -148q-74 35 -166.5 57.5t-183.5 22.5q-72 0 -130.5 -17.5t-100 -49t-63.5 -76t-22 -99.5q0 -49 19.5 -83t53 -57.5t77 -40t91.5 -30.5q72 -21 137 -45.5t115 -63.5t79 -99t29 -145
q0 -102 -40.5 -183t-113.5 -137.5t-176 -86.5t-225 -30q-64 0 -128 8.5t-114.5 21.5t-88 29t-58.5 31l31 144q32 -19 72.5 -35.5t86 -28.5t94 -18.5t97.5 -6.5q96 0 169.5 20t123 56.5t74.5 89t25 116.5q0 56 -25.5 96t-67.5 65t-95.5 41.5t-109.5 33.5q-62 18 -116.5 42.5
t-96 60t-65.5 85.5t-24 120zM833 1656l167 -247h-151l-106 151h-4l-167 -151h-165l265 247h161zM276 1338z" />
    <glyph glyph-name="Scaron" unicode="&#x160;" horiz-adv-x="1120" 
d="M211 946q0 95 33 172t95 131.5t151.5 84t200.5 29.5q116 0 215.5 -23t170.5 -54l-30 -148q-74 35 -166.5 57.5t-183.5 22.5q-72 0 -130.5 -17.5t-100 -49t-63.5 -76t-22 -99.5q0 -49 19.5 -83t53 -57.5t77 -40t91.5 -30.5q72 -21 137 -45.5t115 -63.5t79 -99t29 -145
q0 -102 -40.5 -183t-113.5 -137.5t-176 -86.5t-225 -30q-64 0 -128 8.5t-114.5 21.5t-88 29t-58.5 31l31 144q32 -19 72.5 -35.5t86 -28.5t94 -18.5t97.5 -6.5q96 0 169.5 20t123 56.5t74.5 89t25 116.5q0 56 -25.5 96t-67.5 65t-95.5 41.5t-109.5 33.5q-62 18 -116.5 42.5
t-96 60t-65.5 85.5t-24 120zM622 1409l-167 247h151l106 -151h4l167 151h165l-265 -247h-161zM265 1338z" />
    <glyph glyph-name="Scedilla" unicode="&#x15e;" horiz-adv-x="1120" 
d="M211 946q0 95 33 172t95 131.5t151.5 84t200.5 29.5q116 0 215.5 -23t170.5 -54l-30 -148q-74 35 -166.5 57.5t-183.5 22.5q-72 0 -130.5 -17.5t-100 -49t-63.5 -76t-22 -99.5q0 -49 19.5 -83t53 -57.5t77 -40t91.5 -30.5q72 -21 137 -45.5t115 -63.5t79 -99t29 -145
q0 -102 -40.5 -183t-114 -137t-165 -83t-183.5 -32l-43 -105q35 -4 64.5 -16t51 -31t33.5 -45.5t12 -59.5q0 -46 -17 -84.5t-51.5 -66.5t-85.5 -43.5t-119 -15.5q-46 0 -87.5 7.5t-64.5 16.5l24 112q23 -9 56 -15t68 -6q71 0 106 25t35 60q0 20 -9.5 33.5t-32 22.5t-58 13.5
t-87.5 5.5l82 193q-29 2 -75 8t-96.5 19t-88 29t-58.5 31l31 144q32 -19 72.5 -35.5t86 -28.5t94 -18.5t97.5 -6.5q96 0 169.5 20t123 56.5t74.5 89t25 116.5q0 56 -25.5 96t-67.5 65t-95.5 41.5t-109.5 33.5q-62 18 -116.5 42.5t-96 60t-65.5 85.5t-24 120z" />
    <glyph glyph-name="uni0218" unicode="&#x218;" horiz-adv-x="1120" 
d="M211 946q0 95 33 172t95 131.5t151.5 84t200.5 29.5q116 0 215.5 -23t170.5 -54l-30 -148q-74 35 -166.5 57.5t-183.5 22.5q-72 0 -130.5 -17.5t-100 -49t-63.5 -76t-22 -99.5q0 -49 19.5 -83t53 -57.5t77 -40t91.5 -30.5q72 -21 137 -45.5t115 -63.5t79 -99t29 -145
q0 -102 -40.5 -183t-113.5 -137.5t-176 -86.5t-225 -30q-64 0 -128 8.5t-114.5 21.5t-88 29t-58.5 31l31 144q32 -19 72.5 -35.5t86 -28.5t94 -18.5t97.5 -6.5q96 0 169.5 20t123 56.5t74.5 89t25 116.5q0 56 -25.5 96t-67.5 65t-95.5 41.5t-109.5 33.5q-62 18 -116.5 42.5
t-96 60t-65.5 85.5t-24 120zM400 -300q0 23 -15 35.5t-45 13.5h-10l27 129q13 1 25 1q81 0 128 -33.5t47 -95.5q0 -54 -28.5 -113t-88.5 -127h-149q50 56 79.5 103.5t29.5 86.5z" />
    <glyph glyph-name="Tcaron" unicode="&#x164;" horiz-adv-x="1059" 
d="M503 0h-163l247 1191h-415l31 147h993l-31 -147h-415zM615 1409l-167 247h151l106 -151h4l167 151h165l-265 -247h-161zM258 1338z" />
    <glyph glyph-name="uni0162" unicode="&#x162;" horiz-adv-x="1059" 
d="M503 0h-163l247 1191h-415l31 147h993l-31 -147h-415zM357 -300q0 23 -15 35.5t-45 13.5h-10l27 129q13 1 25 1q81 0 128 -33.5t47 -95.5q0 -54 -28.5 -113t-88.5 -127h-149q50 56 79.5 103.5t29.5 86.5z" />
    <glyph glyph-name="uni0162" unicode="&#x21a;" horiz-adv-x="1059" 
d="M503 0h-163l247 1191h-415l31 147h993l-31 -147h-415zM357 -300q0 23 -15 35.5t-45 13.5h-10l27 129q13 1 25 1q81 0 128 -33.5t47 -95.5q0 -54 -28.5 -113t-88.5 -127h-149q50 56 79.5 103.5t29.5 86.5z" />
    <glyph glyph-name="Tbar" unicode="&#x166;" horiz-adv-x="1059" 
d="M276 759h221l90 432h-415l31 147h993l-31 -147h-415l-90 -432h236l-31 -147h-235l-127 -612h-163l127 612h-222z" />
    <glyph glyph-name="Ugrave" unicode="&#xd9;" horiz-adv-x="1320" 
d="M579 120q69 0 125.5 15t102 42.5t80.5 65.5t60 83q23 42 39 91.5t29 112.5l167 808h163l-177 -858q-13 -62 -29.5 -114t-40.5 -97q-34 -64 -82.5 -118t-113 -93t-146.5 -61t-183 -22q-113 0 -194.5 29.5t-134.5 81.5t-78.5 123t-25.5 153q0 39 6 84.5t16 93.5l165 798
h163l-167 -807q-9 -45 -14.5 -80.5t-5.5 -66.5q0 -57 15 -105.5t48 -84t85.5 -55t127.5 -19.5zM829 1656l95 -247h-135l-130 247h170zM372 1338z" />
    <glyph glyph-name="Uacute" unicode="&#xda;" horiz-adv-x="1320" 
d="M579 120q69 0 125.5 15t102 42.5t80.5 65.5t60 83q23 42 39 91.5t29 112.5l167 808h163l-177 -858q-13 -62 -29.5 -114t-40.5 -97q-34 -64 -82.5 -118t-113 -93t-146.5 -61t-183 -22q-113 0 -194.5 29.5t-134.5 81.5t-78.5 123t-25.5 153q0 39 6 84.5t16 93.5l165 798
h163l-167 -807q-9 -45 -14.5 -80.5t-5.5 -66.5q0 -57 15 -105.5t48 -84t85.5 -55t127.5 -19.5zM1117 1656l-232 -247h-143l193 247h182zM510 1338z" />
    <glyph glyph-name="Ucircumflex" unicode="&#xdb;" horiz-adv-x="1320" 
d="M579 120q69 0 125.5 15t102 42.5t80.5 65.5t60 83q23 42 39 91.5t29 112.5l167 808h163l-177 -858q-13 -62 -29.5 -114t-40.5 -97q-34 -64 -82.5 -118t-113 -93t-146.5 -61t-183 -22q-113 0 -194.5 29.5t-134.5 81.5t-78.5 123t-25.5 153q0 39 6 84.5t16 93.5l165 798
h163l-167 -807q-9 -45 -14.5 -80.5t-5.5 -66.5q0 -57 15 -105.5t48 -84t85.5 -55t127.5 -19.5zM974 1656l167 -247h-151l-106 151h-4l-167 -151h-165l265 247h161zM417 1338z" />
    <glyph glyph-name="Utilde" unicode="&#x168;" horiz-adv-x="1320" 
d="M579 120q69 0 125.5 15t102 42.5t80.5 65.5t60 83q23 42 39 91.5t29 112.5l167 808h163l-177 -858q-13 -62 -29.5 -114t-40.5 -97q-34 -64 -82.5 -118t-113 -93t-146.5 -61t-183 -22q-113 0 -194.5 29.5t-134.5 81.5t-78.5 123t-25.5 153q0 39 6 84.5t16 93.5l165 798
h163l-167 -807q-9 -45 -14.5 -80.5t-5.5 -66.5q0 -57 15 -105.5t48 -84t85.5 -55t127.5 -19.5zM1198 1633q-7 -45 -23 -83.5t-40.5 -67t-59 -45t-78.5 -16.5q-27 0 -51 5.5t-44.5 14.5t-39 19.5t-35.5 20.5q-24 15 -45.5 25t-42.5 10q-32 0 -53 -24t-29 -63h-130q7 45 23 84
t40.5 67.5t59 44.5t78.5 16t81.5 -14.5t71.5 -35.5q29 -17 54 -31t51 -14q33 0 53.5 24t28.5 63h130zM406 1338z" />
    <glyph glyph-name="Udieresis" unicode="&#xdc;" horiz-adv-x="1320" 
d="M579 120q69 0 125.5 15t102 42.5t80.5 65.5t60 83q23 42 39 91.5t29 112.5l167 808h163l-177 -858q-13 -62 -29.5 -114t-40.5 -97q-34 -64 -82.5 -118t-113 -93t-146.5 -61t-183 -22q-113 0 -194.5 29.5t-134.5 81.5t-78.5 123t-25.5 153q0 39 6 84.5t16 93.5l165 798
h163l-167 -807q-9 -45 -14.5 -80.5t-5.5 -66.5q0 -57 15 -105.5t48 -84t85.5 -55t127.5 -19.5zM578 1448l35 169h161l-35 -169h-161zM961 1448l35 169h161l-35 -169h-161zM408 1338z" />
    <glyph glyph-name="Umacron" unicode="&#x16a;" horiz-adv-x="1320" 
d="M579 120q69 0 125.5 15t102 42.5t80.5 65.5t60 83q23 42 39 91.5t29 112.5l167 808h163l-177 -858q-13 -62 -29.5 -114t-40.5 -97q-34 -64 -82.5 -118t-113 -93t-146.5 -61t-183 -22q-113 0 -194.5 29.5t-134.5 81.5t-78.5 123t-25.5 153q0 39 6 84.5t16 93.5l165 798
h163l-167 -807q-9 -45 -14.5 -80.5t-5.5 -66.5q0 -57 15 -105.5t48 -84t85.5 -55t127.5 -19.5zM605 1581h540l-27 -133h-540zM402 1338z" />
    <glyph glyph-name="Ubreve" unicode="&#x16c;" horiz-adv-x="1320" 
d="M579 120q69 0 125.5 15t102 42.5t80.5 65.5t60 83q23 42 39 91.5t29 112.5l167 808h163l-177 -858q-13 -62 -29.5 -114t-40.5 -97q-34 -64 -82.5 -118t-113 -93t-146.5 -61t-183 -22q-113 0 -194.5 29.5t-134.5 81.5t-78.5 123t-25.5 153q0 39 6 84.5t16 93.5l165 798
h163l-167 -807q-9 -45 -14.5 -80.5t-5.5 -66.5q0 -57 15 -105.5t48 -84t85.5 -55t127.5 -19.5zM840 1530q29 0 60.5 7t60 23t52.5 43t39 67h140q-20 -66 -56.5 -115t-83.5 -81.5t-103.5 -48.5t-116.5 -16q-61 0 -111 17t-83 49.5t-46.5 74.5t-13.5 82q0 20 2 38h126
q-1 -9 -1 -17q1 -55 35 -89t100 -34zM402 1338z" />
    <glyph glyph-name="Uring" unicode="&#x16e;" horiz-adv-x="1320" 
d="M579 120q69 0 125.5 15t102 42.5t80.5 65.5t60 83q23 42 39 91.5t29 112.5l167 808h163l-177 -858q-13 -62 -29.5 -114t-40.5 -97q-34 -64 -82.5 -118t-113 -93t-146.5 -61t-183 -22q-113 0 -194.5 29.5t-134.5 81.5t-78.5 123t-25.5 153q0 39 6 84.5t16 93.5l165 798
h163l-167 -807q-9 -45 -14.5 -80.5t-5.5 -66.5q0 -57 15 -105.5t48 -84t85.5 -55t127.5 -19.5zM891 1750q51 0 89 -11.5t64 -32.5t39 -49.5t13 -61.5q0 -39 -16 -78.5t-48 -70.5t-80.5 -50.5t-114.5 -19.5q-51 0 -89 11.5t-64 32.5t-39 49.5t-13 61.5q0 39 16 78.5t48 70.5
t80.5 50.5t114.5 19.5zM845 1474q30 0 53.5 9t40 24t25 34.5t8.5 40.5q0 30 -22 50t-67 20q-30 0 -53.5 -9t-40 -24t-25 -34.5t-8.5 -40.5q0 -30 22 -50t67 -20zM404 1338z" />
    <glyph glyph-name="Uhungarumlaut" unicode="&#x170;" horiz-adv-x="1320" 
d="M579 120q69 0 125.5 15t102 42.5t80.5 65.5t60 83q23 42 39 91.5t29 112.5l167 808h163l-177 -858q-13 -62 -29.5 -114t-40.5 -97q-34 -64 -82.5 -118t-113 -93t-146.5 -61t-183 -22q-113 0 -194.5 29.5t-134.5 81.5t-78.5 123t-25.5 153q0 39 6 84.5t16 93.5l165 798
h163l-167 -807q-9 -45 -14.5 -80.5t-5.5 -66.5q0 -57 15 -105.5t48 -84t85.5 -55t127.5 -19.5zM984 1656l-232 -247h-143l193 247h182zM1285 1656l-246 -247h-145l207 247h184zM474 1338z" />
    <glyph glyph-name="Uogonek" unicode="&#x172;" horiz-adv-x="1320" 
d="M691 -7q-69 -17 -135 -17q-102 0 -181.5 29.5t-131.5 81.5t-77.5 122.5t-25.5 152.5q0 39 6 84.5t16 93.5l165 798h163l-167 -807q-9 -45 -14.5 -80.5t-5.5 -66.5q0 -57 15 -105.5t48 -84t85.5 -55t127.5 -19.5q69 0 125.5 15t102 42.5t80.5 65.5t60 83q23 42 39 91.5
t29 112.5l167 808h163l-177 -858q-15 -70 -38.5 -129.5t-54.5 -110t-66.5 -92t-74.5 -76.5q-59 -52 -117.5 -97.5t-106 -87t-77 -84t-29.5 -84.5q0 -74 94 -74q28 0 59 5.5t68 17.5l-28 -134q-29 -13 -65 -18.5t-70 -5.5q-95 0 -149 44.5t-54 130.5q0 47 20 90.5t52.5 82
t74.5 71.5t87 60z" />
    <glyph glyph-name="Wgrave" unicode="&#x1e80;" horiz-adv-x="1759" 
d="M1016 717q-7 186 -7 278q1 95 1 103h-5q-60 -162 -132 -339l-320 -759h-153l-190 1338h163l94 -734q37 -298 40 -376h4q40 119 142 366l306 744h171l36 -758q8 -193 11 -352h4q31 79 69 165t98 206l381 739h180l-707 -1338h-153zM1035 1656l95 -247h-135l-130 247h170z
M578 1338z" />
    <glyph glyph-name="Wacute" unicode="&#x1e82;" horiz-adv-x="1759" 
d="M1016 717q-7 186 -7 278q1 95 1 103h-5q-60 -162 -132 -339l-320 -759h-153l-190 1338h163l94 -734q37 -298 40 -376h4q40 119 142 366l306 744h171l36 -758q8 -193 11 -352h4q31 79 69 165t98 206l381 739h180l-707 -1338h-153zM1354 1656l-232 -247h-143l193 247h182z
M747 1338z" />
    <glyph glyph-name="Wcircumflex" unicode="&#x174;" horiz-adv-x="1759" 
d="M1016 717q-7 186 -7 278q1 95 1 103h-5q-60 -162 -132 -339l-320 -759h-153l-190 1338h163l94 -734q37 -298 40 -376h4q40 119 142 366l306 744h171l36 -758q8 -193 11 -352h4q31 79 69 165t98 206l381 739h180l-707 -1338h-153zM1178 1656l167 -247h-151l-106 151h-4
l-167 -151h-165l265 247h161zM621 1338z" />
    <glyph glyph-name="Wdieresis" unicode="&#x1e84;" horiz-adv-x="1759" 
d="M1016 717q-7 186 -7 278q1 95 1 103h-5q-60 -162 -132 -339l-320 -759h-153l-190 1338h163l94 -734q37 -298 40 -376h4q40 119 142 366l306 744h171l36 -758q8 -193 11 -352h4q31 79 69 165t98 206l381 739h180l-707 -1338h-153zM794 1448l35 169h161l-35 -169h-161z
M1177 1448l35 169h161l-35 -169h-161zM624 1338z" />
    <glyph glyph-name="Ygrave" unicode="&#x1ef2;" horiz-adv-x="1097" 
d="M400 0l113 541l-313 797h165l242 -638h4l427 638h189l-551 -798l-113 -540h-163zM682 1656l95 -247h-135l-130 247h170zM225 1338z" />
    <glyph glyph-name="Yacute" unicode="&#xdd;" horiz-adv-x="1097" 
d="M400 0l113 541l-313 797h165l242 -638h4l427 638h189l-551 -798l-113 -540h-163zM987 1656l-232 -247h-143l193 247h182zM380 1338z" />
    <glyph glyph-name="Ycircumflex" unicode="&#x176;" horiz-adv-x="1097" 
d="M400 0l113 541l-313 797h165l242 -638h4l427 638h189l-551 -798l-113 -540h-163zM843 1656l167 -247h-151l-106 151h-4l-167 -151h-165l265 247h161zM286 1338z" />
    <glyph glyph-name="Ydieresis" unicode="&#x178;" horiz-adv-x="1097" 
d="M400 0l113 541l-313 797h165l242 -638h4l427 638h189l-551 -798l-113 -540h-163zM447 1448l35 169h161l-35 -169h-161zM830 1448l35 169h161l-35 -169h-161zM277 1338z" />
    <glyph glyph-name="Zacute" unicode="&#x179;" horiz-adv-x="1162" 
d="M955 1191h-698l31 147h924l-21 -102l-923 -1085v-4h728l-30 -147h-956l21 102l924 1085v4zM1019 1656l-232 -247h-143l193 247h182zM412 1338z" />
    <glyph glyph-name="Zcaron" unicode="&#x17d;" horiz-adv-x="1162" 
d="M955 1191h-698l31 147h924l-21 -102l-923 -1085v-4h728l-30 -147h-956l21 102l924 1085v4zM656 1409l-167 247h151l106 -151h4l167 151h165l-265 -247h-161zM299 1338z" />
    <glyph glyph-name="Zdotaccent" unicode="&#x17b;" horiz-adv-x="1162" 
d="M955 1191h-698l31 147h924l-21 -102l-923 -1085v-4h728l-30 -147h-956l21 102l924 1085v4zM658 1448l35 171h163l-35 -171h-163zM299 1338z" />
    <glyph glyph-name="Eng" unicode="&#x14a;" horiz-adv-x="1381" 
d="M735 -274q49 0 83 12.5t57.5 40t39.5 72.5t29 111l9 44l-360 774q-73 151 -137 320h-4q-27 -202 -56 -339l-158 -761h-163l278 1338h150l389 -839q65 -136 112 -258h4q27 194 56 336l159 761h163l-300 -1442q-16 -77 -42.5 -135t-67.5 -96.5t-99 -58t-137 -19.5
q-51 0 -87 10l27 136q24 -7 55 -7z" />
    <glyph glyph-name="Eth" unicode="&#xd0;" horiz-adv-x="1356" 
d="M111 759h145l121 579h338q68 0 121.5 -6t99.5 -18q94 -25 162.5 -71t112 -109t64.5 -141.5t21 -167.5q0 -74 -13 -154.5t-42 -160.5t-75.5 -155.5t-113 -139.5t-154.5 -113t-201 -75q-56 -13 -122.5 -20t-158.5 -7h-317l127 612h-146zM1126 842q0 71 -17 125.5t-48 94.5
t-73 66.5t-92 41.5q-39 11 -80 16t-104 5h-203l-90 -432h362l-31 -147h-362l-96 -465h134q81 0 140 7t108 20q92 24 161.5 68t120 100.5t83.5 122t52 131.5t27 129.5t8 116.5z" />
    <glyph glyph-name="Thorn" unicode="&#xde;" horiz-adv-x="1120" 
d="M459 1067h160q68 0 114.5 -4.5t83.5 -13.5q67 -16 116.5 -45t82 -68t48.5 -86.5t16 -99.5q0 -90 -33.5 -172t-107.5 -144.5t-191.5 -100t-286.5 -37.5q-37 0 -82 3t-78 8l-63 -307h-163l278 1338h163zM332 453q32 -5 69.5 -8t69.5 -3q119 0 202.5 23t136 63.5t76.5 95
t24 117.5q0 61 -33 103t-102 62q-24 7 -56.5 10.5t-82.5 3.5h-207z" />
    <glyph glyph-name="a" unicode="a" horiz-adv-x="1037" 
d="M762 737q-13 18 -30.5 37t-40.5 34.5t-51.5 25t-64.5 9.5q-59 0 -107 -26t-85 -68.5t-64 -97.5t-44.5 -113.5t-26 -115.5t-8.5 -104q0 -63 11.5 -104t31.5 -64.5t46 -33t54 -9.5q49 0 99.5 25.5t94.5 74t79 119t54 160.5zM650 156q-34 -50 -73 -84.5t-79 -56t-79.5 -31
t-75.5 -9.5q-62 0 -110 22.5t-81 64.5t-50 101t-17 131q0 81 14 162.5t41.5 157.5t68.5 141.5t94 114.5t118 77t142 28q76 0 134 -31.5t89 -88.5h4l46 95h126l-153 -731q-7 -38 -7 -57q0 -24 13.5 -35t47.5 -11q28 0 66 6l-27 -128q-42 -9 -93 -9q-83 0 -120 39t-35 132h-4z
" />
    <glyph glyph-name="b" unicode="b" horiz-adv-x="999" 
d="M368 827q22 31 49 58t60 47t72.5 31.5t85.5 11.5q53 0 105 -18t93 -58t66 -103t25 -153q0 -74 -13.5 -152.5t-42 -152.5t-71.5 -140t-102.5 -115.5t-135 -78.5t-168.5 -29q-69 0 -123 21.5t-91.5 59t-57 89.5t-19.5 113q0 26 3 51t9 54l227 1085h155l-130 -621h4z
M269 366q-5 -24 -9 -47.5t-4 -49.5q0 -75 40 -118.5t114 -43.5q60 0 110.5 24t90 64t69.5 93t49.5 112t29.5 116.5t10 109.5q0 41 -9.5 79.5t-30.5 69t-54.5 49t-81.5 18.5q-41 0 -84.5 -17t-83 -53t-71 -91t-47.5 -131z" />
    <glyph glyph-name="c" unicode="c" horiz-adv-x="849" 
d="M827 790q-48 22 -105.5 36t-107.5 14q-67 0 -122.5 -24t-97 -63.5t-71 -90.5t-48 -105.5t-27 -107.5t-8.5 -97q0 -70 17 -117t47.5 -74.5t73 -39t92.5 -11.5q71 0 138 18.5t113 43.5l-28 -142q-20 -11 -48 -21t-61 -17.5t-68.5 -12t-71.5 -4.5q-72 0 -137 20t-114.5 64.5
t-78.5 114t-29 168.5q0 67 13 139t40.5 143t69.5 134.5t100.5 111.5t134.5 76.5t168 28.5q36 0 71 -5t66.5 -12.5t59 -17t46.5 -18.5z" />
    <glyph glyph-name="d" unicode="d" horiz-adv-x="1050" 
d="M772 737q-13 18 -31.5 37t-42.5 34t-54.5 24.5t-67.5 9.5q-57 0 -105.5 -25.5t-85.5 -67.5t-64.5 -96.5t-45.5 -112.5t-26.5 -115.5t-8.5 -106.5q0 -63 13 -104t34 -64.5t48 -33t55 -9.5q49 0 100 25.5t96 74t80.5 119t53.5 160.5zM350 -25q-63 0 -112 22.5t-83 64.5
t-52 101t-18 131q0 84 14.5 167.5t42.5 159t69 140.5t94 112.5t119.5 74.5t137.5 27q82 0 140 -32.5t90 -88.5h4l124 594h155l-256 -1229q-3 -16 -5 -31.5t-2 -25.5q0 -24 13 -35t48 -11q12 0 30.5 1.5t35.5 4.5l-27 -128q-15 -4 -41 -6.5t-52 -2.5q-83 0 -120 39t-35 132
h-4q-34 -50 -73.5 -84.5t-80 -56t-80.5 -31t-76 -9.5z" />
    <glyph glyph-name="e" unicode="e" horiz-adv-x="934" 
d="M894 729q0 -89 -44 -149t-127.5 -97t-204.5 -54.5t-276 -21.5q-1 -11 -1.5 -22t-0.5 -24q0 -130 65 -190t195 -60q34 0 70.5 4.5t72.5 13t69.5 19.5t60.5 24l-28 -142q-51 -23 -120.5 -39t-150.5 -16q-102 0 -175.5 28t-121 78.5t-70 120t-22.5 152.5q0 76 15 152
t44.5 145t73 128t100.5 102.5t127.5 68.5t152.5 25q59 0 112.5 -14.5t94.5 -45t65 -77t24 -109.5zM271 546q110 0 197 11t147 33.5t92 58t32 86.5q0 21 -9 40.5t-27 34.5t-44.5 24t-60.5 9q-57 0 -108.5 -21t-94 -60t-74.5 -94t-50 -122z" />
    <glyph glyph-name="f" unicode="f" horiz-adv-x="644" 
d="M249 -131q-21 -101 -58 -169.5t-89 -110.5t-117.5 -60.5t-142.5 -18.5q-46 0 -83 7t-54 13l25 132q23 -8 52 -12.5t53 -4.5q58 0 100.5 14.5t75 49t55.5 90.5t40 139l184 879h-175l28 133h175l34 165q38 182 141.5 270t251.5 88q48 0 87.5 -7t61.5 -15l-24 -129
q-30 8 -60 12t-59 4q-100 0 -160.5 -57.5t-85.5 -178.5l-31 -152h261l-28 -133h-261z" />
    <glyph glyph-name="g" unicode="g" horiz-adv-x="1022" 
d="M781 737q-13 18 -31 37t-42 34.5t-53.5 25t-66.5 9.5q-58 0 -106 -26t-85.5 -68.5t-65 -97.5t-45.5 -113.5t-27 -115.5t-9 -104q0 -63 12.5 -104t33.5 -64.5t48 -33t55 -9.5q49 0 100 25.5t96 74t81 119t54 160.5zM666 151h-4q-34 -50 -72.5 -84t-77.5 -54.5t-78 -29
t-75 -8.5q-63 0 -112 22.5t-82.5 64.5t-51.5 101t-18 131q0 81 14.5 162.5t42.5 157.5t69.5 141.5t95.5 114.5t119.5 77t142.5 28q76 0 136 -32t91 -89h4l46 96h126l-208 -1008q-24 -116 -71.5 -197.5t-115.5 -134t-154.5 -76.5t-189.5 -24q-81 0 -152.5 14t-135.5 37
l27 136q57 -23 123.5 -37.5t130.5 -14.5q91 0 159 22t114.5 68t77 116.5t51.5 167.5z" />
    <glyph glyph-name="h" unicode="h" horiz-adv-x="1070" 
d="M394 821q61 72 142.5 113t179.5 41q59 0 108 -15.5t83.5 -44.5t53.5 -72t19 -98q0 -39 -6.5 -83t-16.5 -90l-119 -572h-155l121 585q11 51 14 80.5t3 44.5q0 36 -11 61.5t-29.5 41t-45 23t-57.5 7.5q-67 0 -125 -24.5t-103 -67.5t-76 -101t-45 -126l-109 -524h-155
l301 1448h155l-131 -627h4z" />
    <glyph glyph-name="i" unicode="i" horiz-adv-x="437" 
d="M55 0l197 950h155l-197 -950h-155zM294 1171l35 171h163l-35 -171h-163z" />
    <glyph glyph-name="j" unicode="j" horiz-adv-x="461" 
d="M276 950h155l-233 -1127q-16 -77 -42.5 -135.5t-68.5 -98t-102 -59.5t-142 -20q-48 0 -87 7t-56 13l26 131q29 -8 60 -12t51 -4q53 0 88.5 12.5t59.5 41t40 74.5t30 112zM318 1171l35 171h163l-35 -171h-163z" />
    <glyph glyph-name="k" unicode="k" horiz-adv-x="929" 
d="M818 -19q-25 -3 -49 -3q-61 0 -107.5 22t-81 58t-60 82.5t-46.5 94.5q-18 44 -34.5 86.5t-33.5 78t-37 61.5t-46 36l-103 -497h-155l301 1448h155l-191 -919h5l452 421h212l-492 -442q17 -14 31 -38.5t26.5 -55.5t25.5 -65.5t28 -68.5q15 -33 33 -64t41 -54t52.5 -37
t67.5 -14q15 0 33 3z" />
    <glyph glyph-name="l" unicode="l" horiz-adv-x="491" 
d="M353 -6q-16 -4 -41.5 -6.5t-52.5 -2.5q-84 0 -126.5 33t-42.5 104q0 30 8 70l263 1256h155l-254 -1215q-9 -45 -9 -65q0 -25 14 -36.5t47 -11.5t66 6z" />
    <glyph glyph-name="m" unicode="m" horiz-adv-x="1602" 
d="M928 780q36 52 78 89t86.5 60.5t89.5 34.5t88 11q52 0 96.5 -15.5t76.5 -44.5t50.5 -72t18.5 -98q0 -39 -6.5 -83t-16.5 -90l-119 -572h-155l125 604q8 39 10.5 65t2.5 41q0 68 -35 101t-92 32q-56 0 -109 -24.5t-97 -67.5t-75.5 -101t-45.5 -126l-109 -524h-155l125 604
q8 39 10.5 65t2.5 41q-1 72 -36.5 102.5t-90.5 30.5q-56 0 -109 -24.5t-96.5 -67.5t-75.5 -101t-46 -126l-109 -524h-155l198 950h127v-129h4q61 74 141 114t169 40q47 0 86.5 -12.5t70 -37.5t49.5 -61t24 -84h4z" />
    <glyph glyph-name="n" unicode="n" horiz-adv-x="1060" 
d="M210 0h-155l198 950h127v-129h4q61 72 143.5 113t185.5 41q57 0 104.5 -15.5t81 -44.5t52.5 -72t19 -98q0 -39 -6.5 -83t-16.5 -90l-119 -572h-155l122 590q16 73 16 120q0 36 -10.5 61.5t-29.5 41t-45.5 23t-57.5 7.5q-67 0 -125 -24.5t-103 -67.5t-76 -101t-45 -126z
" />
    <glyph glyph-name="o" unicode="o" horiz-adv-x="1006" 
d="M591 843q-58 0 -106 -22t-87 -59.5t-68.5 -87.5t-49.5 -106t-30 -115t-10 -114q0 -52 11.5 -95t35.5 -73.5t61 -47t87 -16.5q57 0 105.5 22t87.5 59.5t68.5 87t49.5 105.5t30 115t10 115q0 53 -11.5 95.5t-35.5 73t-61 47t-87 16.5zM941 601q0 -62 -13 -133t-40 -140.5
t-68.5 -133.5t-99 -112.5t-131 -77.5t-165.5 -29q-76 0 -139 23.5t-107 69.5t-68.5 112.5t-24.5 152.5q0 63 12.5 135t39.5 143.5t68.5 137t98.5 116t131 80.5t165 30q77 0 139.5 -23.5t107.5 -70t69.5 -116.5t24.5 -164z" />
    <glyph glyph-name="p" unicode="p" horiz-adv-x="1023" 
d="M255 187q33 -33 79 -56.5t115 -23.5q60 0 108.5 25.5t87 67.5t66.5 96.5t46 112t27 114.5t9 104q0 63 -12.5 104.5t-34 66t-49.5 34.5t-58 10q-47 0 -97 -26t-95 -74.5t-80.5 -119.5t-54.5 -161zM386 820h4q34 43 69.5 72.5t72 48t73 26.5t70.5 8q65 0 116 -23.5t86 -68
t53 -107.5t18 -143q0 -75 -13.5 -153.5t-41 -151.5t-68 -137.5t-94.5 -112t-121 -75.5t-147 -28q-75 0 -133 23t-96 62h-4l-110 -525h-155l294 1415h127v-130z" />
    <glyph glyph-name="q" unicode="q" horiz-adv-x="1012" 
d="M772 737q-13 18 -31.5 37t-42 34.5t-53 25t-65.5 9.5q-59 0 -107.5 -25.5t-86 -67.5t-65 -96t-46 -112.5t-27 -116.5t-8.5 -107q0 -63 12.5 -104t33.5 -64.5t48 -33t55 -9.5q49 0 100 25.5t96 74t80.5 119t54.5 160.5zM648 140l-4 1q-34 -47 -71 -79t-75 -51.5
t-76.5 -27.5t-75.5 -8q-60 0 -108.5 23t-82.5 65.5t-52 102t-18 131.5q0 83 14.5 165.5t42 157.5t69 140t95 113t119.5 75t143 27q76 0 136.5 -32t91.5 -89h4l46 96h126l-295 -1415h-156z" />
    <glyph glyph-name="r" unicode="r" horiz-adv-x="651" 
d="M710 818q-31 4 -61 4q-70 0 -126 -23.5t-97 -64t-67.5 -95t-39.5 -115.5l-109 -524h-155l198 950h127v-129h4q24 32 53 60t65 49t78.5 33t92.5 12q18 0 35 -1.5t33 -4.5z" />
    <glyph glyph-name="s" unicode="s" horiz-adv-x="816" 
d="M301 695q0 -31 12.5 -53.5t33.5 -39t49 -28.5t59 -23q43 -15 87 -32.5t80 -45t59 -69.5t23 -108q0 -79 -29.5 -139t-82 -100.5t-125 -61t-158.5 -20.5q-77 0 -155.5 16.5t-123.5 43.5l29 130q53 -23 115.5 -40.5t134.5 -17.5q78 0 125.5 18.5t74 45t35 55.5t8.5 50
q0 39 -18 65t-47 44t-66 31.5t-76 27.5q-37 14 -73 31.5t-63.5 43t-44.5 63t-17 91.5q0 77 28 133.5t75.5 94t109.5 56t131 18.5q41 0 81 -5.5t77 -14.5t69.5 -20.5t57.5 -24.5l-27 -128q-60 26 -123.5 43.5t-126.5 17.5q-48 0 -85 -11.5t-62 -31t-38 -46.5t-13 -59z" />
    <glyph glyph-name="t" unicode="t" horiz-adv-x="699" 
d="M562 -6q-24 -7 -69 -13t-90 -6q-126 0 -184 50.5t-58 138.5q0 33 10 83l118 570h-184l28 133h184l54 260h156l-54 -260h251l-27 -133h-252l-111 -532q-5 -26 -8 -45t-3 -37q0 -52 27.5 -72.5t93.5 -20.5q30 0 71.5 5.5t73.5 13.5z" />
    <glyph glyph-name="u" unicode="u" horiz-adv-x="1020" 
d="M442 -25q-86 0 -149 21.5t-103.5 59.5t-60 90t-19.5 113q0 22 2.5 45.5t8.5 52.5l123 593h155l-121 -583q-5 -25 -8 -47.5t-3 -43.5q0 -38 10 -69.5t31.5 -53.5t56 -34t83.5 -12q62 0 107.5 17.5t77.5 51t52 79.5t32 103l123 592h155l-129 -618q-12 -58 -32.5 -112
t-52.5 -99q-48 -66 -131 -106t-208 -40z" />
    <glyph glyph-name="v" unicode="v" horiz-adv-x="957" 
d="M271 950l105 -513q17 -85 28.5 -146t18.5 -109h4q23 47 54 103.5t67 120.5l306 544h178l-559 -950h-147l-208 950h153z" />
    <glyph glyph-name="w" unicode="w" horiz-adv-x="1459" 
d="M773 775q-9 -27 -22 -62t-29 -74t-33.5 -81t-35.5 -83l-207 -475h-163l-165 950h158l65 -425q9 -58 16 -106.5t12.5 -90t10 -77t8.5 -68.5h5q9 27 21.5 59t25.5 65t26 65t25 59l226 519h168l53 -517q3 -27 5.5 -59t5.5 -65t5.5 -65.5t3.5 -60.5h5q25 63 57 128t61 119
l277 520h176l-529 -950h-160l-46 478q-4 39 -7.5 80.5t-6 81t-4.5 74.5t-2 61h-6z" />
    <glyph glyph-name="x" unicode="x" horiz-adv-x="933" 
d="M667 0l-200 370h-4l-329 -370h-184l444 491l-258 459h166l196 -361h4l322 361h184l-437 -483l262 -467h-166z" />
    <glyph glyph-name="y" unicode="y" horiz-adv-x="962" 
d="M124 950h160l165 -751h4l405 751h179l-543 -977q-50 -90 -96 -165.5t-97 -133.5q-69 -80 -152.5 -122t-196.5 -42q-21 0 -42.5 1.5t-44.5 5.5l28 134q15 -2 29.5 -3.5t28.5 -1.5q60 0 111 21.5t97.5 66t90.5 114t90 165.5z" />
    <glyph glyph-name="z" unicode="z" horiz-adv-x="874" 
d="M634 813v4h-464l28 133h666l-20 -98l-605 -715v-4h505l-27 -133h-717l17 84z" />
    <glyph glyph-name="agrave" unicode="&#xe0;" horiz-adv-x="1037" 
d="M762 737q-13 18 -30.5 37t-40.5 34.5t-51.5 25t-64.5 9.5q-59 0 -107 -26t-85 -68.5t-64 -97.5t-44.5 -113.5t-26 -115.5t-8.5 -104q0 -63 11.5 -104t31.5 -64.5t46 -33t54 -9.5q49 0 99.5 25.5t94.5 74t79 119t54 160.5zM650 156q-34 -50 -73 -84.5t-79 -56t-79.5 -31
t-75.5 -9.5q-62 0 -110 22.5t-81 64.5t-50 101t-17 131q0 81 14 162.5t41.5 157.5t68.5 141.5t94 114.5t118 77t142 28q76 0 134 -31.5t89 -88.5h4l46 95h126l-153 -731q-7 -38 -7 -57q0 -24 13.5 -35t47.5 -11q28 0 66 6l-27 -128q-42 -9 -93 -9q-83 0 -120 39t-35 132h-4z
M624 1473l50 -349h-126l-88 349h164zM106 950z" />
    <glyph glyph-name="aacute" unicode="&#xe1;" horiz-adv-x="1037" 
d="M762 737q-13 18 -30.5 37t-40.5 34.5t-51.5 25t-64.5 9.5q-59 0 -107 -26t-85 -68.5t-64 -97.5t-44.5 -113.5t-26 -115.5t-8.5 -104q0 -63 11.5 -104t31.5 -64.5t46 -33t54 -9.5q49 0 99.5 25.5t94.5 74t79 119t54 160.5zM650 156q-34 -50 -73 -84.5t-79 -56t-79.5 -31
t-75.5 -9.5q-62 0 -110 22.5t-81 64.5t-50 101t-17 131q0 81 14 162.5t41.5 157.5t68.5 141.5t94 114.5t118 77t142 28q76 0 134 -31.5t89 -88.5h4l46 95h126l-153 -731q-7 -38 -7 -57q0 -24 13.5 -35t47.5 -11q28 0 66 6l-27 -128q-42 -9 -93 -9q-83 0 -120 39t-35 132h-4z
M884 1473l-234 -349h-134l192 349h176zM232 950z" />
    <glyph glyph-name="acircumflex" unicode="&#xe2;" horiz-adv-x="1037" 
d="M762 737q-13 18 -30.5 37t-40.5 34.5t-51.5 25t-64.5 9.5q-59 0 -107 -26t-85 -68.5t-64 -97.5t-44.5 -113.5t-26 -115.5t-8.5 -104q0 -63 11.5 -104t31.5 -64.5t46 -33t54 -9.5q49 0 99.5 25.5t94.5 74t79 119t54 160.5zM650 156q-34 -50 -73 -84.5t-79 -56t-79.5 -31
t-75.5 -9.5q-62 0 -110 22.5t-81 64.5t-50 101t-17 131q0 81 14 162.5t41.5 157.5t68.5 141.5t94 114.5t118 77t142 28q76 0 134 -31.5t89 -88.5h4l46 95h126l-153 -731q-7 -38 -7 -57q0 -24 13.5 -35t47.5 -11q28 0 66 6l-27 -128q-42 -9 -93 -9q-83 0 -120 39t-35 132h-4z
M749 1473l139 -349h-135l-96 246h-4l-197 -246h-145l281 349h157zM181 950z" />
    <glyph glyph-name="atilde" unicode="&#xe3;" horiz-adv-x="1037" 
d="M762 737q-13 18 -30.5 37t-40.5 34.5t-51.5 25t-64.5 9.5q-59 0 -107 -26t-85 -68.5t-64 -97.5t-44.5 -113.5t-26 -115.5t-8.5 -104q0 -63 11.5 -104t31.5 -64.5t46 -33t54 -9.5q49 0 99.5 25.5t94.5 74t79 119t54 160.5zM650 156q-34 -50 -73 -84.5t-79 -56t-79.5 -31
t-75.5 -9.5q-62 0 -110 22.5t-81 64.5t-50 101t-17 131q0 81 14 162.5t41.5 157.5t68.5 141.5t94 114.5t118 77t142 28q76 0 134 -31.5t89 -88.5h4l46 95h126l-153 -731q-7 -38 -7 -57q0 -24 13.5 -35t47.5 -11q28 0 66 6l-27 -128q-42 -9 -93 -9q-83 0 -120 39t-35 132h-4z
M986 1382q-7 -45 -23 -83.5t-40.5 -67t-59 -45t-78.5 -16.5q-40 0 -72.5 11.5t-60.5 26.5q-34 20 -66 38.5t-59 18.5q-33 0 -53.5 -24t-28.5 -63h-130q7 45 23 84t40.5 67.5t59 44.5t78.5 16q45 0 82.5 -15t70.5 -35q29 -17 54 -31t51 -14q33 0 53.5 24t28.5 63h130z
M194 950z" />
    <glyph glyph-name="adieresis" unicode="&#xe4;" horiz-adv-x="1037" 
d="M762 737q-13 18 -30.5 37t-40.5 34.5t-51.5 25t-64.5 9.5q-59 0 -107 -26t-85 -68.5t-64 -97.5t-44.5 -113.5t-26 -115.5t-8.5 -104q0 -63 11.5 -104t31.5 -64.5t46 -33t54 -9.5q49 0 99.5 25.5t94.5 74t79 119t54 160.5zM650 156q-34 -50 -73 -84.5t-79 -56t-79.5 -31
t-75.5 -9.5q-62 0 -110 22.5t-81 64.5t-50 101t-17 131q0 81 14 162.5t41.5 157.5t68.5 141.5t94 114.5t118 77t142 28q76 0 134 -31.5t89 -88.5h4l46 95h126l-153 -731q-7 -38 -7 -57q0 -24 13.5 -35t47.5 -11q28 0 66 6l-27 -128q-42 -9 -93 -9q-83 0 -120 39t-35 132h-4z
M372 1171l35 167h159l-35 -167h-159zM753 1171l35 167h159l-35 -167h-159zM200 950z" />
    <glyph glyph-name="amacron" unicode="&#x101;" horiz-adv-x="1037" 
d="M762 737q-13 18 -30.5 37t-40.5 34.5t-51.5 25t-64.5 9.5q-59 0 -107 -26t-85 -68.5t-64 -97.5t-44.5 -113.5t-26 -115.5t-8.5 -104q0 -63 11.5 -104t31.5 -64.5t46 -33t54 -9.5q49 0 99.5 25.5t94.5 74t79 119t54 160.5zM650 156q-34 -50 -73 -84.5t-79 -56t-79.5 -31
t-75.5 -9.5q-62 0 -110 22.5t-81 64.5t-50 101t-17 131q0 81 14 162.5t41.5 157.5t68.5 141.5t94 114.5t118 77t142 28q76 0 134 -31.5t89 -88.5h4l46 95h126l-153 -731q-7 -38 -7 -57q0 -24 13.5 -35t47.5 -11q28 0 66 6l-27 -128q-42 -9 -93 -9q-83 0 -120 39t-35 132h-4z
M383 1300h540l-27 -129h-540zM180 950z" />
    <glyph glyph-name="abreve" unicode="&#x103;" horiz-adv-x="1037" 
d="M762 737q-13 18 -30.5 37t-40.5 34.5t-51.5 25t-64.5 9.5q-59 0 -107 -26t-85 -68.5t-64 -97.5t-44.5 -113.5t-26 -115.5t-8.5 -104q0 -63 11.5 -104t31.5 -64.5t46 -33t54 -9.5q49 0 99.5 25.5t94.5 74t79 119t54 160.5zM650 156q-34 -50 -73 -84.5t-79 -56t-79.5 -31
t-75.5 -9.5q-62 0 -110 22.5t-81 64.5t-50 101t-17 131q0 81 14 162.5t41.5 157.5t68.5 141.5t94 114.5t118 77t142 28q76 0 134 -31.5t89 -88.5h4l46 95h126l-153 -731q-7 -38 -7 -57q0 -24 13.5 -35t47.5 -11q28 0 66 6l-27 -128q-42 -9 -93 -9q-83 0 -120 39t-35 132h-4z
M636 1257q78 0 132.5 42t85.5 133h136q-18 -67 -50 -121.5t-78 -93.5t-105.5 -60t-131.5 -21q-69 0 -120 22.5t-80 59.5t-40 78.5t-11 80.5q0 27 4 55h127q-1 -17 -1 -33q1 -69 32.5 -105.5t99.5 -36.5zM194 950z" />
    <glyph glyph-name="aring" unicode="&#xe5;" horiz-adv-x="1037" 
d="M762 737q-13 18 -30.5 37t-40.5 34.5t-51.5 25t-64.5 9.5q-59 0 -107 -26t-85 -68.5t-64 -97.5t-44.5 -113.5t-26 -115.5t-8.5 -104q0 -63 11.5 -104t31.5 -64.5t46 -33t54 -9.5q49 0 99.5 25.5t94.5 74t79 119t54 160.5zM650 156q-34 -50 -73 -84.5t-79 -56t-79.5 -31
t-75.5 -9.5q-62 0 -110 22.5t-81 64.5t-50 101t-17 131q0 81 14 162.5t41.5 157.5t68.5 141.5t94 114.5t118 77t142 28q76 0 134 -31.5t89 -88.5h4l46 95h126l-153 -731q-7 -38 -7 -57q0 -24 13.5 -35t47.5 -11q28 0 66 6l-27 -128q-42 -9 -93 -9q-83 0 -120 39t-35 132h-4z
M668 1490q100 0 152.5 -45.5t52.5 -121.5q0 -38 -16 -77.5t-48 -71.5t-80.5 -52.5t-114.5 -20.5q-100 0 -152.5 45.5t-52.5 121.5q0 38 16 77.5t48 71.5t80.5 52.5t114.5 20.5zM622 1199q30 0 53.5 10t40 26t25 37.5t8.5 43.5q0 34 -22 55t-67 21q-30 0 -53.5 -10t-40 -26
t-25 -37t-8.5 -44q0 -34 22 -55t67 -21zM180 950z" />
    <glyph glyph-name="aringacute" unicode="&#x1fb;" horiz-adv-x="1037" 
d="M1029 1774l-254 -256h-131l201 256h184zM677 1460q51 0 89 -11.5t64 -32.5t39 -49.5t13 -61.5q0 -39 -16 -78.5t-48 -70.5t-80.5 -50.5t-114.5 -19.5q-51 0 -89 11.5t-64 32.5t-39 49.5t-13 61.5q0 39 16 78.5t48 70.5t80.5 50.5t114.5 19.5zM631 1184q30 0 53.5 9t40 24
t25 34.5t8.5 40.5q0 30 -22 50t-67 20q-30 0 -53.5 -9t-40 -24t-25 -34.5t-8.5 -40.5q0 -30 22 -50t67 -20zM762 737q-13 18 -30.5 37t-40.5 34.5t-51.5 25t-64.5 9.5q-59 0 -107 -26t-85 -68.5t-64 -97.5t-44.5 -113.5t-26 -115.5t-8.5 -104q0 -63 11.5 -104t31.5 -64.5
t46 -33t54 -9.5q49 0 99.5 25.5t94.5 74t79 119t54 160.5zM650 156q-34 -50 -73 -84.5t-79 -56t-79.5 -31t-75.5 -9.5q-62 0 -110 22.5t-81 64.5t-50 101t-17 131q0 81 14 162.5t41.5 157.5t68.5 141.5t94 114.5t118 77t142 28q76 0 134 -31.5t89 -88.5h4l46 95h126
l-153 -731q-7 -38 -7 -57q0 -24 13.5 -35t47.5 -11q28 0 66 6l-27 -128q-42 -9 -93 -9q-83 0 -120 39t-35 132h-4z" />
    <glyph glyph-name="aogonek" unicode="&#x105;" horiz-adv-x="1037" 
d="M762 737q-13 18 -31 37t-40.5 34.5t-52 25t-63.5 9.5q-59 0 -107 -26t-85 -68.5t-64 -97.5t-44.5 -113.5t-26 -115.5t-8.5 -104q0 -63 11.5 -104t31.5 -64.5t46 -33t54 -9.5q49 0 99.5 25.5t94.5 74t79 119t54 160.5zM728 9q-39 15 -57.5 48.5t-16.5 98.5h-4
q-34 -50 -73 -84.5t-79 -56t-79.5 -31t-75.5 -9.5q-62 0 -110 22.5t-81 64.5t-50 101t-17 131q0 81 14 162.5t41.5 157.5t68.5 141.5t94 114.5t118 77t142 28q76 0 134 -31.5t89 -88.5h4l46 95h126l-153 -731q-7 -37 -7 -57q0 -23 13 -34.5t48 -11.5q32 0 66 6l-26 -122
q-30 -12 -63 -29t-66.5 -39t-64.5 -47.5t-55 -53t-38 -56t-14 -56.5q0 -74 96 -74q28 0 59 5.5t68 17.5l-28 -134q-31 -13 -66 -18.5t-69 -5.5q-94 0 -146.5 45t-52.5 130q0 51 24 100t64 91t87 74.5t90 54.5v4z" />
    <glyph glyph-name="ae" unicode="&#xe6;" horiz-adv-x="1569" 
d="M758 213q-21 -40 -59.5 -82t-90 -76.5t-115.5 -57t-137 -22.5q-66 0 -119 18.5t-90 53t-57 84.5t-20 112q0 83 31.5 147t86 107t128 65t157.5 22q32 0 66.5 -3t71 -8.5t69.5 -12t58 -13.5q2 30 2 52q0 74 -19.5 121t-54 74.5t-79 38t-95.5 10.5q-64 0 -131 -15.5
t-129 -38.5l28 135q26 12 56.5 21t64.5 16t69 10.5t69 3.5q74 0 134 -17t101 -47t65.5 -69.5t31.5 -84.5h4q31 49 70 89.5t87 69t105 44t123 15.5q56 0 108.5 -14.5t92.5 -45t64 -77t24 -109.5q0 -89 -44 -149t-130 -97.5t-211.5 -55t-266.5 -20.5q-1 -11 -1.5 -22t-0.5 -24
q0 -130 65 -190t195 -60q60 0 132.5 15t140.5 46l-28 -142q-52 -24 -123.5 -39.5t-147.5 -15.5q-77 0 -137 17t-102 48t-68.5 75t-40.5 98h-3zM373 107q46 0 96.5 19.5t97 58t85.5 96.5t62 135q-52 14 -115.5 24t-119.5 10q-66 0 -114 -16.5t-79 -43.5t-46 -62.5t-15 -73.5
q0 -75 41 -111t107 -36zM905 545q111 0 198.5 10.5t147.5 33.5t91.5 59t31.5 87q0 21 -9 40.5t-27 34.5t-44.5 24t-60.5 9q-57 0 -108.5 -21.5t-94.5 -60.5t-75 -94t-50 -122z" />
    <glyph glyph-name="aeacute" unicode="&#x1fd;" horiz-adv-x="1569" 
d="M758 213q-21 -40 -59.5 -82t-90 -76.5t-115.5 -57t-137 -22.5q-66 0 -119 18.5t-90 53t-57 84.5t-20 112q0 83 31.5 147t86 107t128 65t157.5 22q32 0 66.5 -3t71 -8.5t69.5 -12t58 -13.5q2 30 2 52q0 74 -19.5 121t-54 74.5t-79 38t-95.5 10.5q-64 0 -131 -15.5
t-129 -38.5l28 135q26 12 56.5 21t64.5 16t69 10.5t69 3.5q74 0 134 -17t101 -47t65.5 -69.5t31.5 -84.5h4q31 49 70 89.5t87 69t105 44t123 15.5q56 0 108.5 -14.5t92.5 -45t64 -77t24 -109.5q0 -89 -44 -149t-130 -97.5t-211.5 -55t-266.5 -20.5q-1 -11 -1.5 -22t-0.5 -24
q0 -130 65 -190t195 -60q60 0 132.5 15t140.5 46l-28 -142q-52 -24 -123.5 -39.5t-147.5 -15.5q-77 0 -137 17t-102 48t-68.5 75t-40.5 98h-3zM373 107q46 0 96.5 19.5t97 58t85.5 96.5t62 135q-52 14 -115.5 24t-119.5 10q-66 0 -114 -16.5t-79 -43.5t-46 -62.5t-15 -73.5
q0 -75 41 -111t107 -36zM905 545q111 0 198.5 10.5t147.5 33.5t91.5 59t31.5 87q0 21 -9 40.5t-27 34.5t-44.5 24t-60.5 9q-57 0 -108.5 -21.5t-94.5 -60.5t-75 -94t-50 -122zM1211 1473l-234 -349h-134l192 349h176zM559 950z" />
    <glyph glyph-name="cacute" unicode="&#x107;" horiz-adv-x="849" 
d="M827 790q-48 22 -105.5 36t-107.5 14q-67 0 -122.5 -24t-97 -63.5t-71 -90.5t-48 -105.5t-27 -107.5t-8.5 -97q0 -70 17 -117t47.5 -74.5t73 -39t92.5 -11.5q71 0 138 18.5t113 43.5l-28 -142q-20 -11 -48 -21t-61 -17.5t-68.5 -12t-71.5 -4.5q-72 0 -137 20t-114.5 64.5
t-78.5 114t-29 168.5q0 67 13 139t40.5 143t69.5 134.5t100.5 111.5t134.5 76.5t168 28.5q36 0 71 -5t66.5 -12.5t59 -17t46.5 -18.5zM914 1473l-234 -349h-134l192 349h176zM262 950z" />
    <glyph glyph-name="ccircumflex" unicode="&#x109;" horiz-adv-x="849" 
d="M827 790q-48 22 -105.5 36t-107.5 14q-67 0 -122.5 -24t-97 -63.5t-71 -90.5t-48 -105.5t-27 -107.5t-8.5 -97q0 -70 17 -117t47.5 -74.5t73 -39t92.5 -11.5q71 0 138 18.5t113 43.5l-28 -142q-20 -11 -48 -21t-61 -17.5t-68.5 -12t-71.5 -4.5q-72 0 -137 20t-114.5 64.5
t-78.5 114t-29 168.5q0 67 13 139t40.5 143t69.5 134.5t100.5 111.5t134.5 76.5t168 28.5q36 0 71 -5t66.5 -12.5t59 -17t46.5 -18.5zM770 1473l139 -349h-135l-96 246h-4l-197 -246h-145l281 349h157zM202 950z" />
    <glyph glyph-name="ccaron" unicode="&#x10d;" horiz-adv-x="849" 
d="M827 790q-48 22 -105.5 36t-107.5 14q-67 0 -122.5 -24t-97 -63.5t-71 -90.5t-48 -105.5t-27 -107.5t-8.5 -97q0 -70 17 -117t47.5 -74.5t73 -39t92.5 -11.5q71 0 138 18.5t113 43.5l-28 -142q-20 -11 -48 -21t-61 -17.5t-68.5 -12t-71.5 -4.5q-72 0 -137 20t-114.5 64.5
t-78.5 114t-29 168.5q0 67 13 139t40.5 143t69.5 134.5t100.5 111.5t134.5 76.5t168 28.5q36 0 71 -5t66.5 -12.5t59 -17t46.5 -18.5zM540 1124l-139 349h135l96 -246h4l197 246h145l-281 -349h-157zM194 950z" />
    <glyph glyph-name="cdotaccent" unicode="&#x10b;" horiz-adv-x="898" 
d="M827 790q-48 22 -105.5 36t-107.5 14q-67 0 -122.5 -24t-97 -63.5t-71 -90.5t-48 -105.5t-27 -107.5t-8.5 -97q0 -70 17 -117t47.5 -74.5t73 -39t92.5 -11.5q71 0 138 18.5t113 43.5l-28 -142q-20 -11 -48 -21t-61 -17.5t-68.5 -12t-71.5 -4.5q-72 0 -137 20t-114.5 64.5
t-78.5 114t-29 168.5q0 67 13 139t40.5 143t69.5 134.5t100.5 111.5t134.5 76.5t168 28.5q36 0 71 -5t66.5 -12.5t59 -17t46.5 -18.5zM546 1171l35 171h163l-35 -171h-163zM187 950z" />
    <glyph glyph-name="ccedilla" unicode="&#xe7;" horiz-adv-x="849" 
d="M85 342q0 67 13 139t40.5 143t69.5 134.5t100.5 111.5t134.5 76.5t168 28.5q36 0 71 -5t66.5 -12.5t59 -17t46.5 -18.5l-27 -132q-48 22 -105.5 36t-107.5 14q-67 0 -122.5 -24t-97 -63.5t-71 -90.5t-48 -105.5t-27 -107.5t-8.5 -97q0 -70 17 -117t47.5 -74.5t73 -39
t92.5 -11.5q71 0 138 18.5t113 43.5l-28 -142q-95 -48 -226 -54l-43 -104q35 -4 64.5 -16t51 -31t33.5 -45.5t12 -59.5q0 -46 -17 -84.5t-51.5 -66.5t-85.5 -43.5t-119 -15.5q-46 0 -87.5 7.5t-64.5 16.5l24 112q23 -9 56 -15t68 -6q69 0 105 24.5t36 60.5q0 20 -10 33.5
t-32 22.5t-57.5 13.5t-87.5 5.5l85 200q-55 12 -103 38.5t-83.5 70t-55.5 105t-20 143.5z" />
    <glyph glyph-name="dcaron" unicode="&#x10f;" horiz-adv-x="1050" 
d="M772 737q-13 18 -31.5 37t-42.5 34t-54.5 24.5t-67.5 9.5q-57 0 -105.5 -25.5t-85.5 -67.5t-64.5 -96.5t-45.5 -112.5t-26.5 -115.5t-8.5 -106.5q0 -63 13 -104t34 -64.5t48 -33t55 -9.5q49 0 100 25.5t96 74t80.5 119t53.5 160.5zM350 -25q-63 0 -112 22.5t-83 64.5
t-52 101t-18 131q0 84 14.5 167.5t42.5 159t69 140.5t94 112.5t119.5 74.5t137.5 27q82 0 140 -32.5t90 -88.5h4l124 594h155l-256 -1229q-3 -16 -5 -31.5t-2 -25.5q0 -24 13 -35t48 -11q12 0 30.5 1.5t35.5 4.5l-27 -128q-15 -4 -41 -6.5t-52 -2.5q-83 0 -120 39t-35 132
h-4q-34 -50 -73.5 -84.5t-80 -56t-80.5 -31t-76 -9.5zM1239 1270q0 23 -15.5 36t-44.5 13h-10l27 129q15 1 27 1q80 0 126.5 -34t46.5 -95q0 -54 -28.5 -113t-88.5 -127h-149q50 56 79.5 103.5t29.5 86.5z" />
    <glyph glyph-name="dcroat" unicode="&#x111;" horiz-adv-x="1050" 
d="M1176 1152h-163l-194 -933q-7 -38 -7 -56q0 -25 13.5 -36t47.5 -11q25 0 66 6l-27 -128q-43 -9 -93 -9q-84 0 -120.5 39t-34.5 132h-4q-34 -50 -73.5 -84.5t-80 -56t-80.5 -31t-76 -9.5q-63 0 -112 22.5t-83 64.5t-52 101t-18 131q0 84 14.5 167.5t42.5 159t69 140.5
t94 112.5t117.5 74.5t139.5 27q85 0 141.5 -33t88.5 -88h4l62 298h-267l27 133h268l34 163h155l-34 -163h162zM772 737q-13 18 -31.5 37t-42.5 34t-54.5 24.5t-67.5 9.5q-58 0 -106 -25.5t-85 -67.5t-64.5 -96.5t-45.5 -112.5t-26.5 -115.5t-8.5 -106.5q0 -63 13 -104
t34 -64.5t48 -33t55 -9.5q49 0 100 25.5t96 74t80.5 119t53.5 160.5z" />
    <glyph glyph-name="egrave" unicode="&#xe8;" horiz-adv-x="934" 
d="M637 1473l50 -349h-126l-88 349h164zM119 950zM894 729q0 -89 -44 -149t-127.5 -97t-204.5 -54.5t-276 -21.5q-1 -11 -1.5 -22t-0.5 -24q0 -130 65 -190t195 -60q34 0 70.5 4.5t72.5 13t69.5 19.5t60.5 24l-28 -142q-51 -23 -120.5 -39t-150.5 -16q-102 0 -175.5 28
t-121 78.5t-70 120t-22.5 152.5q0 76 15 152t44.5 145t73 128t100.5 102.5t127.5 68.5t152.5 25q59 0 112.5 -14.5t94.5 -45t65 -77t24 -109.5zM271 546q110 0 197 11t147 33.5t92 58t32 86.5q0 21 -9 40.5t-27 34.5t-44.5 24t-60.5 9q-57 0 -108.5 -21t-94 -60t-74.5 -94
t-50 -122z" />
    <glyph glyph-name="eacute" unicode="&#xe9;" horiz-adv-x="934" 
d="M901 1473l-234 -349h-134l192 349h176zM249 950zM894 729q0 -89 -44 -149t-127.5 -97t-204.5 -54.5t-276 -21.5q-1 -11 -1.5 -22t-0.5 -24q0 -130 65 -190t195 -60q34 0 70.5 4.5t72.5 13t69.5 19.5t60.5 24l-28 -142q-51 -23 -120.5 -39t-150.5 -16q-102 0 -175.5 28
t-121 78.5t-70 120t-22.5 152.5q0 76 15 152t44.5 145t73 128t100.5 102.5t127.5 68.5t152.5 25q59 0 112.5 -14.5t94.5 -45t65 -77t24 -109.5zM271 546q110 0 197 11t147 33.5t92 58t32 86.5q0 21 -9 40.5t-27 34.5t-44.5 24t-60.5 9q-57 0 -108.5 -21t-94 -60t-74.5 -94
t-50 -122z" />
    <glyph glyph-name="ecircumflex" unicode="&#xea;" horiz-adv-x="934" 
d="M753 1473l139 -349h-135l-96 246h-4l-197 -246h-145l281 349h157zM185 950zM894 729q0 -89 -44 -149t-127.5 -97t-204.5 -54.5t-276 -21.5q-1 -11 -1.5 -22t-0.5 -24q0 -130 65 -190t195 -60q34 0 70.5 4.5t72.5 13t69.5 19.5t60.5 24l-28 -142q-51 -23 -120.5 -39
t-150.5 -16q-102 0 -175.5 28t-121 78.5t-70 120t-22.5 152.5q0 76 15 152t44.5 145t73 128t100.5 102.5t127.5 68.5t152.5 25q59 0 112.5 -14.5t94.5 -45t65 -77t24 -109.5zM271 546q110 0 197 11t147 33.5t92 58t32 86.5q0 21 -9 40.5t-27 34.5t-44.5 24t-60.5 9
q-57 0 -108.5 -21t-94 -60t-74.5 -94t-50 -122z" />
    <glyph glyph-name="ecaron" unicode="&#x11b;" horiz-adv-x="934" 
d="M534 1124l-139 349h135l96 -246h4l197 246h145l-281 -349h-157zM188 950zM894 729q0 -89 -44 -149t-127.5 -97t-204.5 -54.5t-276 -21.5q-1 -11 -1.5 -22t-0.5 -24q0 -130 65 -190t195 -60q34 0 70.5 4.5t72.5 13t69.5 19.5t60.5 24l-28 -142q-51 -23 -120.5 -39
t-150.5 -16q-102 0 -175.5 28t-121 78.5t-70 120t-22.5 152.5q0 76 15 152t44.5 145t73 128t100.5 102.5t127.5 68.5t152.5 25q59 0 112.5 -14.5t94.5 -45t65 -77t24 -109.5zM271 546q110 0 197 11t147 33.5t92 58t32 86.5q0 21 -9 40.5t-27 34.5t-44.5 24t-60.5 9
q-57 0 -108.5 -21t-94 -60t-74.5 -94t-50 -122z" />
    <glyph glyph-name="edieresis" unicode="&#xeb;" horiz-adv-x="934" 
d="M345 1171l35 167h159l-35 -167h-159zM726 1171l35 167h159l-35 -167h-159zM173 950zM894 729q0 -89 -44 -149t-127.5 -97t-204.5 -54.5t-276 -21.5q-1 -11 -1.5 -22t-0.5 -24q0 -130 65 -190t195 -60q34 0 70.5 4.5t72.5 13t69.5 19.5t60.5 24l-28 -142
q-51 -23 -120.5 -39t-150.5 -16q-102 0 -175.5 28t-121 78.5t-70 120t-22.5 152.5q0 76 15 152t44.5 145t73 128t100.5 102.5t127.5 68.5t152.5 25q59 0 112.5 -14.5t94.5 -45t65 -77t24 -109.5zM271 546q110 0 197 11t147 33.5t92 58t32 86.5q0 21 -9 40.5t-27 34.5
t-44.5 24t-60.5 9q-57 0 -108.5 -21t-94 -60t-74.5 -94t-50 -122z" />
    <glyph glyph-name="emacron" unicode="&#x113;" horiz-adv-x="934" 
d="M373 1300h540l-27 -129h-540zM170 950zM894 729q0 -89 -44 -149t-127.5 -97t-204.5 -54.5t-276 -21.5q-1 -11 -1.5 -22t-0.5 -24q0 -130 65 -190t195 -60q34 0 70.5 4.5t72.5 13t69.5 19.5t60.5 24l-28 -142q-51 -23 -120.5 -39t-150.5 -16q-102 0 -175.5 28t-121 78.5
t-70 120t-22.5 152.5q0 76 15 152t44.5 145t73 128t100.5 102.5t127.5 68.5t152.5 25q59 0 112.5 -14.5t94.5 -45t65 -77t24 -109.5zM271 546q110 0 197 11t147 33.5t92 58t32 86.5q0 21 -9 40.5t-27 34.5t-44.5 24t-60.5 9q-57 0 -108.5 -21t-94 -60t-74.5 -94t-50 -122z
" />
    <glyph glyph-name="ebreve" unicode="&#x115;" horiz-adv-x="934" 
d="M609 1257q78 0 132.5 42t85.5 133h136q-18 -67 -50 -121.5t-78 -93.5t-105.5 -60t-131.5 -21q-69 0 -120 22.5t-80 59.5t-40 78.5t-11 80.5q0 27 4 55h127q-1 -17 -1 -33q1 -69 32.5 -105.5t99.5 -36.5zM167 950zM894 729q0 -89 -44 -149t-127.5 -97t-204.5 -54.5
t-276 -21.5q-1 -11 -1.5 -22t-0.5 -24q0 -130 65 -190t195 -60q34 0 70.5 4.5t72.5 13t69.5 19.5t60.5 24l-28 -142q-51 -23 -120.5 -39t-150.5 -16q-102 0 -175.5 28t-121 78.5t-70 120t-22.5 152.5q0 76 15 152t44.5 145t73 128t100.5 102.5t127.5 68.5t152.5 25
q59 0 112.5 -14.5t94.5 -45t65 -77t24 -109.5zM271 546q110 0 197 11t147 33.5t92 58t32 86.5q0 21 -9 40.5t-27 34.5t-44.5 24t-60.5 9q-57 0 -108.5 -21t-94 -60t-74.5 -94t-50 -122z" />
    <glyph glyph-name="edotaccent" unicode="&#x117;" horiz-adv-x="934" 
d="M529 1171l35 171h163l-35 -171h-163zM170 950zM894 729q0 -89 -44 -149t-127.5 -97t-204.5 -54.5t-276 -21.5q-1 -11 -1.5 -22t-0.5 -24q0 -130 65 -190t195 -60q34 0 70.5 4.5t72.5 13t69.5 19.5t60.5 24l-28 -142q-51 -23 -120.5 -39t-150.5 -16q-102 0 -175.5 28
t-121 78.5t-70 120t-22.5 152.5q0 76 15 152t44.5 145t73 128t100.5 102.5t127.5 68.5t152.5 25q59 0 112.5 -14.5t94.5 -45t65 -77t24 -109.5zM271 546q110 0 197 11t147 33.5t92 58t32 86.5q0 21 -9 40.5t-27 34.5t-44.5 24t-60.5 9q-57 0 -108.5 -21t-94 -60t-74.5 -94
t-50 -122z" />
    <glyph glyph-name="eogonek" unicode="&#x119;" horiz-adv-x="934" 
d="M271 546q110 0 197 11t147 33.5t92 58t32 86.5q0 21 -9 40.5t-27 34.5t-44.5 24t-60.5 9q-57 0 -108.5 -21t-94 -60t-74.5 -94t-50 -122zM472 -25q-102 0 -175 28t-120.5 78.5t-69.5 120t-22 152.5q0 76 15 152t44.5 145t73 128t100.5 102.5t127.5 68.5t152.5 25
q59 0 112.5 -14.5t94.5 -45t65 -77t24 -109.5q0 -89 -44 -149t-129 -97t-210 -55t-269 -21q-1 -11 -1.5 -22t-0.5 -24q0 -130 65 -190t195 -60q144 2 273 61l-27 -138q-64 -27 -125 -63.5t-108 -78.5t-75.5 -86.5t-28.5 -86.5q0 -74 96 -74q58 0 127 23l-28 -134
q-57 -24 -135 -24q-94 0 -146.5 44.5t-52.5 130.5q0 43 18 85.5t47 79t66 67.5t76 55z" />
    <glyph glyph-name="gcircumflex" unicode="&#x11d;" horiz-adv-x="1022" 
d="M775 1473l139 -349h-135l-96 246h-4l-197 -246h-145l281 349h157zM207 950zM781 737q-13 18 -31 37t-42 34.5t-53.5 25t-66.5 9.5q-58 0 -106 -26t-85.5 -68.5t-65 -97.5t-45.5 -113.5t-27 -115.5t-9 -104q0 -63 12.5 -104t33.5 -64.5t48 -33t55 -9.5q49 0 100 25.5
t96 74t81 119t54 160.5zM666 151h-4q-34 -50 -72.5 -84t-77.5 -54.5t-78 -29t-75 -8.5q-63 0 -112 22.5t-82.5 64.5t-51.5 101t-18 131q0 81 14.5 162.5t42.5 157.5t69.5 141.5t95.5 114.5t119.5 77t142.5 28q76 0 136 -32t91 -89h4l46 96h126l-208 -1008
q-24 -116 -71.5 -197.5t-115.5 -134t-154.5 -76.5t-189.5 -24q-81 0 -152.5 14t-135.5 37l27 136q57 -23 123.5 -37.5t130.5 -14.5q91 0 159 22t114.5 68t77 116.5t51.5 167.5z" />
    <glyph glyph-name="gbreve" unicode="&#x11f;" horiz-adv-x="1022" 
d="M642 1257q78 0 132.5 42t85.5 133h136q-18 -67 -50 -121.5t-78 -93.5t-105.5 -60t-131.5 -21q-69 0 -120 22.5t-80 59.5t-40 78.5t-11 80.5q0 27 4 55h127q-1 -17 -1 -33q1 -69 32.5 -105.5t99.5 -36.5zM200 950zM781 737q-13 18 -31 37t-42 34.5t-53.5 25t-66.5 9.5
q-58 0 -106 -26t-85.5 -68.5t-65 -97.5t-45.5 -113.5t-27 -115.5t-9 -104q0 -63 12.5 -104t33.5 -64.5t48 -33t55 -9.5q49 0 100 25.5t96 74t81 119t54 160.5zM666 151h-4q-34 -50 -72.5 -84t-77.5 -54.5t-78 -29t-75 -8.5q-63 0 -112 22.5t-82.5 64.5t-51.5 101t-18 131
q0 81 14.5 162.5t42.5 157.5t69.5 141.5t95.5 114.5t119.5 77t142.5 28q76 0 136 -32t91 -89h4l46 96h126l-208 -1008q-24 -116 -71.5 -197.5t-115.5 -134t-154.5 -76.5t-189.5 -24q-81 0 -152.5 14t-135.5 37l27 136q57 -23 123.5 -37.5t130.5 -14.5q91 0 159 22t114.5 68
t77 116.5t51.5 167.5z" />
    <glyph glyph-name="gdotaccent" unicode="&#x121;" horiz-adv-x="1022" 
d="M546 1171l35 171h163l-35 -171h-163zM187 950zM781 737q-13 18 -31 37t-42 34.5t-53.5 25t-66.5 9.5q-58 0 -106 -26t-85.5 -68.5t-65 -97.5t-45.5 -113.5t-27 -115.5t-9 -104q0 -63 12.5 -104t33.5 -64.5t48 -33t55 -9.5q49 0 100 25.5t96 74t81 119t54 160.5zM666 151
h-4q-34 -50 -72.5 -84t-77.5 -54.5t-78 -29t-75 -8.5q-63 0 -112 22.5t-82.5 64.5t-51.5 101t-18 131q0 81 14.5 162.5t42.5 157.5t69.5 141.5t95.5 114.5t119.5 77t142.5 28q76 0 136 -32t91 -89h4l46 96h126l-208 -1008q-24 -116 -71.5 -197.5t-115.5 -134t-154.5 -76.5
t-189.5 -24q-81 0 -152.5 14t-135.5 37l27 136q57 -23 123.5 -37.5t130.5 -14.5q91 0 159 22t114.5 68t77 116.5t51.5 167.5z" />
    <glyph glyph-name="uni0123" unicode="&#x123;" horiz-adv-x="1022" 
d="M664 1283q0 -23 15.5 -36t46.5 -13h8l-27 -129q-12 -1 -23 -1q-83 0 -130 33.5t-47 95.5q0 54 28.5 113t88.5 127h149q-50 -56 -79.5 -103.5t-29.5 -86.5zM985 950zM781 737q-13 18 -31 37t-42 34.5t-53.5 25t-66.5 9.5q-58 0 -106 -26t-85.5 -68.5t-65 -97.5
t-45.5 -113.5t-27 -115.5t-9 -104q0 -63 12.5 -104t33.5 -64.5t48 -33t55 -9.5q49 0 100 25.5t96 74t81 119t54 160.5zM666 151h-4q-34 -50 -72.5 -84t-77.5 -54.5t-78 -29t-75 -8.5q-63 0 -112 22.5t-82.5 64.5t-51.5 101t-18 131q0 81 14.5 162.5t42.5 157.5t69.5 141.5
t95.5 114.5t119.5 77t142.5 28q76 0 136 -32t91 -89h4l46 96h126l-208 -1008q-24 -116 -71.5 -197.5t-115.5 -134t-154.5 -76.5t-189.5 -24q-81 0 -152.5 14t-135.5 37l27 136q57 -23 123.5 -37.5t130.5 -14.5q91 0 159 22t114.5 68t77 116.5t51.5 167.5z" />
    <glyph glyph-name="hcircumflex" unicode="&#x125;" horiz-adv-x="1070" 
d="M394 821q61 72 142.5 113t179.5 41q59 0 108 -15.5t83.5 -44.5t53.5 -72t19 -98q0 -39 -6.5 -83t-16.5 -90l-119 -572h-155l121 585q11 51 14 80.5t3 44.5q0 36 -11 61.5t-29.5 41t-45 23t-57.5 7.5q-67 0 -125 -24.5t-103 -67.5t-76 -101t-45 -126l-109 -524h-155
l301 1448h155l-131 -627h4zM571 1767l167 -247h-151l-106 151h-4l-167 -151h-165l265 247h161z" />
    <glyph glyph-name="hbar" unicode="&#x127;" horiz-adv-x="1070" 
d="M169 1285h163l34 163h155l-34 -163h267l-27 -133h-268l-69 -331h4q61 72 142.5 113t179.5 41q59 0 108 -15.5t83.5 -44.5t53.5 -72t19 -98q0 -39 -6.5 -83t-16.5 -90l-119 -572h-155l121 585q11 51 14 80.5t3 44.5q0 36 -10.5 61.5t-29.5 41t-45.5 23t-57.5 7.5
q-67 0 -125 -24.5t-103 -67.5t-76 -101t-45 -126l-109 -524h-155l239 1152h-162z" />
    <glyph glyph-name="igrave" unicode="&#xec;" horiz-adv-x="437" 
d="M55 0l197 950h155l-197 -950h-155zM391 1473l50 -349h-126l-88 349h164zM-127 950z" />
    <glyph glyph-name="iacute" unicode="&#xed;" horiz-adv-x="437" 
d="M55 0l197 950h155l-197 -950h-155zM656 1473l-234 -349h-134l192 349h176zM4 950z" />
    <glyph glyph-name="icircumflex" unicode="&#xee;" horiz-adv-x="437" 
d="M55 0l197 950h155l-197 -950h-155zM504 1473l139 -349h-135l-96 246h-4l-197 -246h-145l281 349h157zM-64 950z" />
    <glyph glyph-name="itilde" unicode="&#x129;" horiz-adv-x="437" 
d="M55 0l197 950h155l-197 -950h-155zM722 1382q-7 -45 -23 -83.5t-40.5 -67t-59 -45t-78.5 -16.5q-40 0 -72.5 11.5t-60.5 26.5q-34 20 -66 38.5t-59 18.5q-33 0 -53.5 -24t-28.5 -63h-130q7 45 23 84t40.5 67.5t59 44.5t78.5 16q45 0 82.5 -15t70.5 -35q29 -17 54 -31
t51 -14q33 0 53.5 24t28.5 63h130zM-70 950z" />
    <glyph glyph-name="idieresis" unicode="&#xef;" horiz-adv-x="437" 
d="M55 0l197 950h155l-197 -950h-155zM100 1171l35 167h159l-35 -167h-159zM481 1171l35 167h159l-35 -167h-159zM-72 950z" />
    <glyph glyph-name="imacron" unicode="&#x12b;" horiz-adv-x="437" 
d="M55 0l197 950h155l-197 -950h-155zM119 1300h540l-27 -129h-540zM-84 950z" />
    <glyph glyph-name="ibreve" unicode="&#x12d;" horiz-adv-x="437" 
d="M55 0l197 950h155l-197 -950h-155zM369 1257q78 0 132.5 42t85.5 133h136q-18 -67 -50 -121.5t-78 -93.5t-105.5 -60t-131.5 -21q-69 0 -120 22.5t-80 59.5t-40 78.5t-11 80.5q0 27 4 55h127q-1 -17 -1 -33q1 -69 32.5 -105.5t99.5 -36.5zM-73 950z" />
    <glyph glyph-name="iogonek" unicode="&#x12f;" horiz-adv-x="437" 
d="M210 0q-102 -77 -154.5 -150.5t-52.5 -130.5q0 -35 19.5 -54.5t66.5 -19.5q54 0 120 23l-28 -134q-55 -24 -128 -24q-93 0 -141 45t-48 123q0 50 15.5 96.5t41.5 88.5t61.5 79t74.5 68l195 940h155zM294 1171l35 171h163l-35 -171h-163z" />
    <glyph glyph-name="dotlessi" unicode="&#x131;" horiz-adv-x="437" 
d="M55 0l197 950h155l-197 -950h-155z" />
    <glyph glyph-name="ij" unicode="&#x133;" horiz-adv-x="898" 
d="M55 0l197 950h155l-197 -950h-155zM294 1171l35 171h163l-35 -171h-163zM713 950h155l-233 -1127q-16 -77 -42.5 -135.5t-68.5 -98t-102 -59.5t-142 -20q-48 0 -87 7t-56 13l26 131q29 -8 60 -12t51 -4q53 0 88.5 12.5t59.5 41t40 74.5t30 112zM755 1171l35 171h163
l-35 -171h-163z" />
    <glyph glyph-name="jcircumflex" unicode="&#x135;" horiz-adv-x="461" 
d="M276 950h155l-233 -1127q-16 -77 -42.5 -135.5t-68.5 -98t-102 -59.5t-142 -20q-48 0 -87 7t-56 13l26 131q29 -8 60 -12t51 -4q53 0 88.5 12.5t59.5 41t40 74.5t30 112zM525 1473l139 -349h-135l-96 246h-4l-197 -246h-145l281 349h157z" />
    <glyph glyph-name="uni0137" unicode="&#x137;" horiz-adv-x="929" 
d="M818 -19q-25 -3 -49 -3q-61 0 -107.5 22t-81 58t-60 82.5t-46.5 94.5q-18 44 -34.5 86.5t-33.5 78t-37 61.5t-46 36l-103 -497h-155l301 1448h155l-191 -919h5l452 421h212l-492 -442q17 -14 31 -38.5t26.5 -55.5t25.5 -65.5t28 -68.5q15 -33 33 -64t41 -54t52.5 -37
t67.5 -14q15 0 33 3zM386 -300q0 23 -15 35.5t-45 13.5h-10l27 129q13 1 25 1q81 0 128 -33.5t47 -95.5q0 -54 -28.5 -113t-88.5 -127h-149q50 56 79.5 103.5t29.5 86.5z" />
    <glyph glyph-name="kgreenlandic" unicode="&#x138;" horiz-adv-x="919" 
d="M808 -19q-25 -3 -49 -3q-62 0 -108.5 21t-81.5 55.5t-61 78.5t-47 90q-19 42 -35.5 82.5t-34 74.5t-37.5 59t-46 35l-98 -474h-155l197 950h155l-92 -444h5l457 444h212l-494 -466q17 -14 30.5 -37t26 -51.5t25.5 -60.5t28 -64t33.5 -61t42 -51t53.5 -35t68 -13
q15 0 33 3z" />
    <glyph glyph-name="lacute" unicode="&#x13a;" horiz-adv-x="491" 
d="M353 -6q-16 -4 -41.5 -6.5t-52.5 -2.5q-84 0 -126.5 33t-42.5 104q0 30 8 70l263 1256h155l-254 -1215q-9 -45 -9 -65q0 -25 14 -36.5t47 -11.5t66 6zM753 1766l-232 -247h-143l193 247h182z" />
    <glyph glyph-name="lcaron" unicode="&#x13e;" horiz-adv-x="590" 
d="M353 -6q-16 -4 -41.5 -6.5t-52.5 -2.5q-84 0 -126.5 33t-42.5 104q0 30 8 70l263 1256h155l-254 -1215q-9 -45 -9 -65q0 -25 14 -36.5t47 -11.5t66 6zM665 1270q0 23 -15.5 36t-44.5 13h-10l27 129q15 1 27 1q80 0 126.5 -34t46.5 -95q0 -54 -28.5 -113t-88.5 -127h-149
q50 56 79.5 103.5t29.5 86.5z" />
    <glyph glyph-name="uni013C" unicode="&#x13c;" horiz-adv-x="491" 
d="M353 -6q-16 -4 -41.5 -6.5t-52.5 -2.5q-84 0 -126.5 33t-42.5 104q0 30 8 70l263 1256h155l-254 -1215q-9 -45 -9 -65q0 -25 14 -36.5t47 -11.5t66 6zM145 -300q0 23 -15 35.5t-45 13.5h-10l27 129q13 1 25 1q81 0 128 -33.5t47 -95.5q0 -54 -28.5 -113t-88.5 -127h-149
q50 56 79.5 103.5t29.5 86.5z" />
    <glyph glyph-name="lslash" unicode="&#x142;" horiz-adv-x="491" 
d="M565 828l-200 -103l-103 -492q-5 -26 -7 -42.5t-2 -22.5q0 -25 13.5 -36.5t47.5 -11.5t66 6l-27 -132q-40 -9 -94 -9q-84 0 -126.5 32.5t-42.5 104.5q0 30 8 70l94 448l-162 -83l35 168l162 83l134 640h155l-116 -554l200 102z" />
    <glyph glyph-name="ldot" unicode="&#x140;" horiz-adv-x="700" 
d="M353 -6q-16 -4 -41.5 -6.5t-52.5 -2.5q-84 0 -126.5 33t-42.5 104q0 30 8 70l263 1256h155l-254 -1215q-9 -45 -9 -65q0 -25 14 -36.5t47 -11.5t66 6zM514 543l35 171h163l-35 -171h-163zM155 322z" />
    <glyph glyph-name="nacute" unicode="&#x144;" horiz-adv-x="1060" 
d="M210 0h-155l198 950h127v-129h4q61 72 143.5 113t185.5 41q57 0 104.5 -15.5t81 -44.5t52.5 -72t19 -98q0 -39 -6.5 -83t-16.5 -90l-119 -572h-155l122 590q16 73 16 120q0 36 -10.5 61.5t-29.5 41t-45.5 23t-57.5 7.5q-67 0 -125 -24.5t-103 -67.5t-76 -101t-45 -126z
M995 1473l-234 -349h-134l192 349h176zM343 950z" />
    <glyph glyph-name="ncaron" unicode="&#x148;" horiz-adv-x="1060" 
d="M210 0h-155l198 950h127v-129h4q61 72 143.5 113t185.5 41q57 0 104.5 -15.5t81 -44.5t52.5 -72t19 -98q0 -39 -6.5 -83t-16.5 -90l-119 -572h-155l122 590q16 73 16 120q0 36 -10.5 61.5t-29.5 41t-45.5 23t-57.5 7.5q-67 0 -125 -24.5t-103 -67.5t-76 -101t-45 -126z
M599 1124l-139 349h135l96 -246h4l197 246h145l-281 -349h-157zM253 950z" />
    <glyph glyph-name="ntilde" unicode="&#xf1;" horiz-adv-x="1060" 
d="M210 0h-155l198 950h127v-129h4q61 72 143.5 113t185.5 41q57 0 104.5 -15.5t81 -44.5t52.5 -72t19 -98q0 -39 -6.5 -83t-16.5 -90l-119 -572h-155l122 590q16 73 16 120q0 36 -10.5 61.5t-29.5 41t-45.5 23t-57.5 7.5q-67 0 -125 -24.5t-103 -67.5t-76 -101t-45 -126z
M1030 1382q-7 -45 -23 -83.5t-40.5 -67t-59 -45t-78.5 -16.5q-40 0 -72.5 11.5t-60.5 26.5q-34 20 -66 38.5t-59 18.5q-33 0 -53.5 -24t-28.5 -63h-130q7 45 23 84t40.5 67.5t59 44.5t78.5 16q45 0 82.5 -15t70.5 -35q29 -17 54 -31t51 -14q33 0 53.5 24t28.5 63h130z
M238 950z" />
    <glyph glyph-name="uni0146" unicode="&#x146;" horiz-adv-x="1060" 
d="M210 0h-155l198 950h127v-129h4q61 72 143.5 113t185.5 41q57 0 104.5 -15.5t81 -44.5t52.5 -72t19 -98q0 -39 -6.5 -83t-16.5 -90l-119 -572h-155l122 590q16 73 16 120q0 36 -10.5 61.5t-29.5 41t-45.5 23t-57.5 7.5q-67 0 -125 -24.5t-103 -67.5t-76 -101t-45 -126z
M400 -300q0 23 -15 35.5t-45 13.5h-10l27 129q13 1 25 1q81 0 128 -33.5t47 -95.5q0 -54 -28.5 -113t-88.5 -127h-149q50 56 79.5 103.5t29.5 86.5z" />
    <glyph glyph-name="napostrophe" unicode="&#x149;" horiz-adv-x="1060" 
d="M210 0h-155l198 950h127v-129h4q61 72 143.5 113t185.5 41q57 0 104.5 -15.5t81 -44.5t52.5 -72t19 -98q0 -39 -6.5 -83t-16.5 -90l-119 -572h-155l122 590q16 73 16 120q0 36 -10.5 61.5t-29.5 41t-45.5 23t-57.5 7.5q-67 0 -125 -24.5t-103 -67.5t-76 -101t-45 -126z
M183 1270q0 23 -15.5 36t-44.5 13h-10l27 129q15 1 27 1q80 0 126.5 -34t46.5 -95q0 -54 -28.5 -113t-88.5 -127h-149q50 56 79.5 103.5t29.5 86.5z" />
    <glyph glyph-name="ograve" unicode="&#xf2;" horiz-adv-x="1006" 
d="M591 843q-58 0 -106 -22t-87 -59.5t-68.5 -87.5t-49.5 -106t-30 -115t-10 -114q0 -52 11.5 -95t35.5 -73.5t61 -47t87 -16.5q57 0 105.5 22t87.5 59.5t68.5 87t49.5 105.5t30 115t10 115q0 53 -11.5 95.5t-35.5 73t-61 47t-87 16.5zM941 601q0 -62 -13 -133t-40 -140.5
t-68.5 -133.5t-99 -112.5t-131 -77.5t-165.5 -29q-76 0 -139 23.5t-107 69.5t-68.5 112.5t-24.5 152.5q0 63 12.5 135t39.5 143.5t68.5 137t98.5 116t131 80.5t165 30q77 0 139.5 -23.5t107.5 -70t69.5 -116.5t24.5 -164zM644 1473l50 -349h-126l-88 349h164zM126 950z" />
    <glyph glyph-name="oacute" unicode="&#xf3;" horiz-adv-x="1006" 
d="M591 843q-58 0 -106 -22t-87 -59.5t-68.5 -87.5t-49.5 -106t-30 -115t-10 -114q0 -52 11.5 -95t35.5 -73.5t61 -47t87 -16.5q57 0 105.5 22t87.5 59.5t68.5 87t49.5 105.5t30 115t10 115q0 53 -11.5 95.5t-35.5 73t-61 47t-87 16.5zM941 601q0 -62 -13 -133t-40 -140.5
t-68.5 -133.5t-99 -112.5t-131 -77.5t-165.5 -29q-76 0 -139 23.5t-107 69.5t-68.5 112.5t-24.5 152.5q0 63 12.5 135t39.5 143.5t68.5 137t98.5 116t131 80.5t165 30q77 0 139.5 -23.5t107.5 -70t69.5 -116.5t24.5 -164zM927 1473l-234 -349h-134l192 349h176zM275 950z
" />
    <glyph glyph-name="ocircumflex" unicode="&#xf4;" horiz-adv-x="1006" 
d="M591 843q-58 0 -106 -22t-87 -59.5t-68.5 -87.5t-49.5 -106t-30 -115t-10 -114q0 -52 11.5 -95t35.5 -73.5t61 -47t87 -16.5q57 0 105.5 22t87.5 59.5t68.5 87t49.5 105.5t30 115t10 115q0 53 -11.5 95.5t-35.5 73t-61 47t-87 16.5zM941 601q0 -62 -13 -133t-40 -140.5
t-68.5 -133.5t-99 -112.5t-131 -77.5t-165.5 -29q-76 0 -139 23.5t-107 69.5t-68.5 112.5t-24.5 152.5q0 63 12.5 135t39.5 143.5t68.5 137t98.5 116t131 80.5t165 30q77 0 139.5 -23.5t107.5 -70t69.5 -116.5t24.5 -164zM775 1473l139 -349h-135l-96 246h-4l-197 -246h-145
l281 349h157zM207 950z" />
    <glyph glyph-name="otilde" unicode="&#xf5;" horiz-adv-x="1006" 
d="M591 843q-58 0 -106 -22t-87 -59.5t-68.5 -87.5t-49.5 -106t-30 -115t-10 -114q0 -52 11.5 -95t35.5 -73.5t61 -47t87 -16.5q57 0 105.5 22t87.5 59.5t68.5 87t49.5 105.5t30 115t10 115q0 53 -11.5 95.5t-35.5 73t-61 47t-87 16.5zM941 601q0 -62 -13 -133t-40 -140.5
t-68.5 -133.5t-99 -112.5t-131 -77.5t-165.5 -29q-76 0 -139 23.5t-107 69.5t-68.5 112.5t-24.5 152.5q0 63 12.5 135t39.5 143.5t68.5 137t98.5 116t131 80.5t165 30q77 0 139.5 -23.5t107.5 -70t69.5 -116.5t24.5 -164zM994 1382q-7 -45 -23 -83.5t-40.5 -67t-59 -45
t-78.5 -16.5q-40 0 -72.5 11.5t-60.5 26.5q-34 20 -66 38.5t-59 18.5q-33 0 -53.5 -24t-28.5 -63h-130q7 45 23 84t40.5 67.5t59 44.5t78.5 16q45 0 82.5 -15t70.5 -35q29 -17 54 -31t51 -14q33 0 53.5 24t28.5 63h130zM202 950z" />
    <glyph glyph-name="odieresis" unicode="&#xf6;" horiz-adv-x="1006" 
d="M591 843q-58 0 -106 -22t-87 -59.5t-68.5 -87.5t-49.5 -106t-30 -115t-10 -114q0 -52 11.5 -95t35.5 -73.5t61 -47t87 -16.5q57 0 105.5 22t87.5 59.5t68.5 87t49.5 105.5t30 115t10 115q0 53 -11.5 95.5t-35.5 73t-61 47t-87 16.5zM941 601q0 -62 -13 -133t-40 -140.5
t-68.5 -133.5t-99 -112.5t-131 -77.5t-165.5 -29q-76 0 -139 23.5t-107 69.5t-68.5 112.5t-24.5 152.5q0 63 12.5 135t39.5 143.5t68.5 137t98.5 116t131 80.5t165 30q77 0 139.5 -23.5t107.5 -70t69.5 -116.5t24.5 -164zM375 1171l35 167h159l-35 -167h-159zM756 1171
l35 167h159l-35 -167h-159zM203 950z" />
    <glyph glyph-name="omacron" unicode="&#x14d;" horiz-adv-x="1006" 
d="M591 843q-58 0 -106 -22t-87 -59.5t-68.5 -87.5t-49.5 -106t-30 -115t-10 -114q0 -52 11.5 -95t35.5 -73.5t61 -47t87 -16.5q57 0 105.5 22t87.5 59.5t68.5 87t49.5 105.5t30 115t10 115q0 53 -11.5 95.5t-35.5 73t-61 47t-87 16.5zM941 601q0 -62 -13 -133t-40 -140.5
t-68.5 -133.5t-99 -112.5t-131 -77.5t-165.5 -29q-76 0 -139 23.5t-107 69.5t-68.5 112.5t-24.5 152.5q0 63 12.5 135t39.5 143.5t68.5 137t98.5 116t131 80.5t165 30q77 0 139.5 -23.5t107.5 -70t69.5 -116.5t24.5 -164zM401 1300h540l-27 -129h-540zM198 950z" />
    <glyph glyph-name="obreve" unicode="&#x14f;" horiz-adv-x="1006" 
d="M591 843q-58 0 -106 -22t-87 -59.5t-68.5 -87.5t-49.5 -106t-30 -115t-10 -114q0 -52 11.5 -95t35.5 -73.5t61 -47t87 -16.5q57 0 105.5 22t87.5 59.5t68.5 87t49.5 105.5t30 115t10 115q0 53 -11.5 95.5t-35.5 73t-61 47t-87 16.5zM941 601q0 -62 -13 -133t-40 -140.5
t-68.5 -133.5t-99 -112.5t-131 -77.5t-165.5 -29q-76 0 -139 23.5t-107 69.5t-68.5 112.5t-24.5 152.5q0 63 12.5 135t39.5 143.5t68.5 137t98.5 116t131 80.5t165 30q77 0 139.5 -23.5t107.5 -70t69.5 -116.5t24.5 -164zM638 1257q78 0 132.5 42t85.5 133h136
q-18 -67 -50 -121.5t-78 -93.5t-105.5 -60t-131.5 -21q-69 0 -120 22.5t-80 59.5t-40 78.5t-11 80.5q0 27 4 55h127q-1 -17 -1 -33q1 -69 32.5 -105.5t99.5 -36.5zM196 950z" />
    <glyph glyph-name="ohungarumlaut" unicode="&#x151;" horiz-adv-x="1006" 
d="M591 843q-58 0 -106 -22t-87 -59.5t-68.5 -87.5t-49.5 -106t-30 -115t-10 -114q0 -52 11.5 -95t35.5 -73.5t61 -47t87 -16.5q57 0 105.5 22t87.5 59.5t68.5 87t49.5 105.5t30 115t10 115q0 53 -11.5 95.5t-35.5 73t-61 47t-87 16.5zM941 601q0 -62 -13 -133t-40 -140.5
t-68.5 -133.5t-99 -112.5t-131 -77.5t-165.5 -29q-76 0 -139 23.5t-107 69.5t-68.5 112.5t-24.5 152.5q0 63 12.5 135t39.5 143.5t68.5 137t98.5 116t131 80.5t165 30q77 0 139.5 -23.5t107.5 -70t69.5 -116.5t24.5 -164zM780 1473l-234 -349h-134l192 349h176zM1089 1473
l-256 -349h-134l214 349h176zM279 950z" />
    <glyph glyph-name="oslash" unicode="&#xf8;" horiz-adv-x="1006" 
d="M31 60l89 93q-35 76 -35 180q0 63 12.5 135t39.5 143.5t68.5 137t98.5 116t131 80.5t165 30q71 0 129.5 -20t103.5 -60l77 80l91 -85l-95 -99q35 -79 35 -190q0 -62 -13 -133t-40 -140.5t-68.5 -133.5t-99 -112.5t-131 -77.5t-165.5 -29q-141 0 -229 76l-73 -76zM591 843
q-86 0 -152.5 -47t-111.5 -120.5t-68 -162.5t-23 -174q0 -17 1 -32t3 -30l493 514q-24 25 -59 38.5t-83 13.5zM790 611q0 14 -1 28t-3 27l-490 -510q49 -49 139 -49q86 0 152.5 47t111.5 120.5t68 162.5t23 174z" />
    <glyph glyph-name="oslashacute" unicode="&#x1ff;" horiz-adv-x="1006" 
d="M31 60l89 93q-35 76 -35 180q0 63 12.5 135t39.5 143.5t68.5 137t98.5 116t131 80.5t165 30q71 0 129.5 -20t103.5 -60l77 80l91 -85l-95 -99q35 -79 35 -190q0 -62 -13 -133t-40 -140.5t-68.5 -133.5t-99 -112.5t-131 -77.5t-165.5 -29q-141 0 -229 76l-73 -76zM591 843
q-86 0 -152.5 -47t-111.5 -120.5t-68 -162.5t-23 -174q0 -17 1 -32t3 -30l493 514q-24 25 -59 38.5t-83 13.5zM790 611q0 14 -1 28t-3 27l-490 -510q49 -49 139 -49q86 0 152.5 47t111.5 120.5t68 162.5t23 174zM929 1473l-234 -349h-134l192 349h176zM277 950z" />
    <glyph glyph-name="oe" unicode="&#x153;" horiz-adv-x="1611" 
d="M805 200q-31 -49 -70.5 -90.5t-87.5 -71.5t-104 -46.5t-119 -16.5q-76 0 -139 23.5t-107 69.5t-68.5 112.5t-24.5 152.5q0 63 13 135t39.5 143.5t67 137t97 116t128.5 80.5t161 30q122 0 198.5 -58t107.5 -158h4q30 46 70 85.5t88 68.5t104 45.5t119 16.5
q56 0 108.5 -14.5t92.5 -45t64 -77t24 -109.5q0 -89 -44 -149t-129 -97t-209.5 -55t-269.5 -21q-1 -11 -1.5 -22t-0.5 -24q0 -130 65 -190t195 -60q139 1 273 61l-28 -142q-52 -24 -123 -39.5t-148 -15.5q-70 0 -126.5 17.5t-99.5 48t-72 71.5t-44 88h-4zM591 843
q-58 0 -106 -22.5t-87 -60.5t-68.5 -88t-49.5 -106t-30 -114.5t-10 -112.5q0 -52 11.5 -95t35.5 -73.5t61 -47t87 -16.5q86 0 152 47t110 120.5t66.5 162.5t22.5 174q0 53 -11.5 95.5t-35.5 73t-61 47t-87 16.5zM948 546q108 0 196 11t148 33.5t92 58t32 86.5q0 21 -9 40.5
t-27 34.5t-44.5 24t-60.5 9q-57 0 -108.5 -21t-94 -60t-74.5 -94t-50 -122z" />
    <glyph glyph-name="racute" unicode="&#x155;" horiz-adv-x="651" 
d="M791 1473l-234 -349h-134l192 349h176zM139 950zM710 818q-31 4 -61 4q-70 0 -126 -23.5t-97 -64t-67.5 -95t-39.5 -115.5l-109 -524h-155l198 950h127v-129h4q24 32 53 60t65 49t78.5 33t92.5 12q18 0 35 -1.5t33 -4.5z" />
    <glyph glyph-name="rcaron" unicode="&#x159;" horiz-adv-x="651" 
d="M432 1124l-139 349h135l96 -246h4l197 246h145l-281 -349h-157zM86 950zM710 818q-31 4 -61 4q-70 0 -126 -23.5t-97 -64t-67.5 -95t-39.5 -115.5l-109 -524h-155l198 950h127v-129h4q24 32 53 60t65 49t78.5 33t92.5 12q18 0 35 -1.5t33 -4.5z" />
    <glyph glyph-name="uni0157" unicode="&#x157;" horiz-adv-x="651" 
d="M82 -300q0 23 -15 35.5t-45 13.5h-10l27 129q13 1 25 1q81 0 128 -33.5t47 -95.5q0 -54 -28.5 -113t-88.5 -127h-149q50 56 79.5 103.5t29.5 86.5zM710 818q-31 4 -61 4q-70 0 -126 -23.5t-97 -64t-67.5 -95t-39.5 -115.5l-109 -524h-155l198 950h127v-129h4q24 32 53 60
t65 49t78.5 33t92.5 12q18 0 35 -1.5t33 -4.5z" />
    <glyph glyph-name="sacute" unicode="&#x15b;" horiz-adv-x="816" 
d="M810 1473l-234 -349h-134l192 349h176zM158 950zM301 695q0 -31 12.5 -53.5t33.5 -39t49 -28.5t59 -23q43 -15 87 -32.5t80 -45t59 -69.5t23 -108q0 -79 -29.5 -139t-82 -100.5t-125 -61t-158.5 -20.5q-77 0 -155.5 16.5t-123.5 43.5l29 130q53 -23 115.5 -40.5
t134.5 -17.5q78 0 125.5 18.5t74 45t35 55.5t8.5 50q0 39 -18 65t-47 44t-66 31.5t-76 27.5q-37 14 -73 31.5t-63.5 43t-44.5 63t-17 91.5q0 77 28 133.5t75.5 94t109.5 56t131 18.5q41 0 81 -5.5t77 -14.5t69.5 -20.5t57.5 -24.5l-27 -128q-60 26 -123.5 43.5t-126.5 17.5
q-48 0 -85 -11.5t-62 -31t-38 -46.5t-13 -59z" />
    <glyph glyph-name="scircumflex" unicode="&#x15d;" horiz-adv-x="816" 
d="M673 1473l139 -349h-135l-96 246h-4l-197 -246h-145l281 349h157zM105 950zM301 695q0 -31 12.5 -53.5t33.5 -39t49 -28.5t59 -23q43 -15 87 -32.5t80 -45t59 -69.5t23 -108q0 -79 -29.5 -139t-82 -100.5t-125 -61t-158.5 -20.5q-77 0 -155.5 16.5t-123.5 43.5l29 130
q53 -23 115.5 -40.5t134.5 -17.5q78 0 125.5 18.5t74 45t35 55.5t8.5 50q0 39 -18 65t-47 44t-66 31.5t-76 27.5q-37 14 -73 31.5t-63.5 43t-44.5 63t-17 91.5q0 77 28 133.5t75.5 94t109.5 56t131 18.5q41 0 81 -5.5t77 -14.5t69.5 -20.5t57.5 -24.5l-27 -128
q-60 26 -123.5 43.5t-126.5 17.5q-48 0 -85 -11.5t-62 -31t-38 -46.5t-13 -59z" />
    <glyph glyph-name="scaron" unicode="&#x161;" horiz-adv-x="816" 
d="M445 1124l-139 349h135l96 -246h4l197 246h145l-281 -349h-157zM99 950zM301 695q0 -31 12.5 -53.5t33.5 -39t49 -28.5t59 -23q43 -15 87 -32.5t80 -45t59 -69.5t23 -108q0 -79 -29.5 -139t-82 -100.5t-125 -61t-158.5 -20.5q-77 0 -155.5 16.5t-123.5 43.5l29 130
q53 -23 115.5 -40.5t134.5 -17.5q78 0 125.5 18.5t74 45t35 55.5t8.5 50q0 39 -18 65t-47 44t-66 31.5t-76 27.5q-37 14 -73 31.5t-63.5 43t-44.5 63t-17 91.5q0 77 28 133.5t75.5 94t109.5 56t131 18.5q41 0 81 -5.5t77 -14.5t69.5 -20.5t57.5 -24.5l-27 -128
q-60 26 -123.5 43.5t-126.5 17.5q-48 0 -85 -11.5t-62 -31t-38 -46.5t-13 -59z" />
    <glyph glyph-name="scedilla" unicode="&#x15f;" horiz-adv-x="816" 
d="M301 695q0 -31 12.5 -53.5t33.5 -39t49 -28.5t59 -23q43 -15 87 -32.5t80 -45t59 -69.5t23 -108q0 -73 -25.5 -130t-71.5 -97t-109.5 -63t-140.5 -29l-44 -105q35 -4 64.5 -16t51 -31t33.5 -45.5t12 -59.5q0 -46 -17 -84.5t-51.5 -66.5t-85.5 -43.5t-119 -15.5
q-46 0 -87.5 7.5t-64.5 16.5l24 112q23 -9 56 -15t68 -6q70 0 105.5 24.5t35.5 60.5q0 20 -10 34t-32.5 22.5t-57.5 13t-87 5.5l83 194q-76 8 -130 25t-74 31l29 130q53 -23 115.5 -40.5t134.5 -17.5q78 0 125.5 18.5t74 45t35 55.5t8.5 50q0 39 -18 65t-47 44t-66 31.5
t-76 27.5q-37 14 -73 31t-63.5 43t-44.5 63.5t-17 91.5q0 77 28 133.5t75.5 94t109.5 56t131 18.5q41 0 81 -5.5t77 -14.5t69.5 -20.5t57.5 -24.5l-27 -128q-60 26 -122.5 43.5t-127.5 17.5q-48 0 -85 -11.5t-62 -31t-38 -46.5t-13 -59z" />
    <glyph glyph-name="uni0219" unicode="&#x219;" horiz-adv-x="816" 
d="M267 -300q0 23 -15 35.5t-45 13.5h-10l27 129q13 1 25 1q81 0 128 -33.5t47 -95.5q0 -54 -28.5 -113t-88.5 -127h-149q50 56 79.5 103.5t29.5 86.5zM301 695q0 -31 12.5 -53.5t33.5 -39t49 -28.5t59 -23q43 -15 87 -32.5t80 -45t59 -69.5t23 -108q0 -79 -29.5 -139
t-82 -100.5t-125 -61t-158.5 -20.5q-77 0 -155.5 16.5t-123.5 43.5l29 130q53 -23 115.5 -40.5t134.5 -17.5q78 0 125.5 18.5t74 45t35 55.5t8.5 50q0 39 -18 65t-47 44t-66 31.5t-76 27.5q-37 14 -73 31.5t-63.5 43t-44.5 63t-17 91.5q0 77 28 133.5t75.5 94t109.5 56
t131 18.5q41 0 81 -5.5t77 -14.5t69.5 -20.5t57.5 -24.5l-27 -128q-60 26 -123.5 43.5t-126.5 17.5q-48 0 -85 -11.5t-62 -31t-38 -46.5t-13 -59z" />
    <glyph glyph-name="germandbls" unicode="&#xdf;" horiz-adv-x="1234" 
d="M1124 1198q0 -53 -14.5 -94t-37.5 -74t-53 -60t-60 -51q-28 -22 -54 -42.5t-46 -43t-32 -47.5t-12 -56q0 -29 10.5 -52t28 -42t40.5 -35.5t48 -32.5q32 -21 64 -44.5t58 -54.5t42.5 -72.5t16.5 -98.5q0 -74 -26.5 -133.5t-75 -101.5t-118 -65t-155.5 -23q-51 0 -93.5 6
t-75.5 14t-56 17.5t-36 17.5l29 130q51 -23 105 -38t120 -15q62 0 106 14.5t71.5 39.5t40 58.5t12.5 71.5q0 36 -13 63t-34 49t-48.5 40.5t-55.5 36.5q-29 19 -57.5 39.5t-50.5 46.5t-35.5 60t-13.5 79q0 56 16.5 99t42.5 77t58 61.5t64 53.5q25 21 48 41.5t41 43.5
t28.5 50.5t10.5 60.5q0 24 -7.5 50t-28 47t-56 35t-92.5 14q-75 0 -140 -32t-110 -105q-20 -33 -35.5 -78.5t-29.5 -112.5l-236 -1134q-23 -108 -60.5 -178.5t-87 -112t-108 -58.5t-122.5 -17q-45 0 -81 6t-58 14l25 132q23 -8 52 -12.5t61 -4.5q94 0 147.5 69.5t83.5 211.5
l234 1110q17 82 37.5 137.5t46.5 97.5q39 61 87.5 100.5t99.5 62t101 31t93 8.5q75 0 137 -19.5t106.5 -55.5t68.5 -86.5t24 -113.5z" />
    <glyph glyph-name="longs" unicode="&#x17f;" horiz-adv-x="602" 
d="M340 1124q21 101 59.5 168.5t88.5 107.5t108 56.5t118 16.5q45 0 80.5 -7t57.5 -15l-24 -129q-24 7 -52.5 11.5t-60.5 4.5q-94 0 -146.5 -57.5t-77.5 -178.5l-254 -1226q-22 -108 -60 -178.5t-87 -112t-108 -58.5t-123 -17q-45 0 -81 6t-58 14l25 132q23 -8 52 -12.5
t61 -4.5q94 0 147.5 69.5t83.5 211.5z" />
    <glyph glyph-name="tcaron" unicode="&#x165;" horiz-adv-x="699" 
d="M562 -6q-24 -7 -69 -13t-90 -6q-126 0 -184 50.5t-58 138.5q0 33 10 83l118 570h-184l28 133h184l54 260h156l-54 -260h251l-27 -133h-252l-111 -532q-5 -26 -8 -45t-3 -37q0 -52 27.5 -72.5t93.5 -20.5q30 0 71.5 5.5t73.5 13.5zM757 1270q0 23 -15.5 36t-44.5 13h-10
l27 129q15 1 27 1q80 0 126.5 -34t46.5 -95q0 -54 -28.5 -113t-88.5 -127h-149q50 56 79.5 103.5t29.5 86.5z" />
    <glyph glyph-name="uni0163" unicode="&#x163;" horiz-adv-x="699" 
d="M562 -6q-24 -7 -69 -13t-90 -6q-126 0 -184 50.5t-58 138.5q0 33 10 83l118 570h-184l28 133h184l54 260h156l-54 -260h251l-27 -133h-252l-111 -532q-5 -26 -8 -45t-3 -37q0 -52 27.5 -72.5t93.5 -20.5q30 0 71.5 5.5t73.5 13.5zM290 -300q0 23 -15 35.5t-45 13.5h-10
l27 129q13 1 25 1q81 0 128 -33.5t47 -95.5q0 -54 -28.5 -113t-88.5 -127h-149q50 56 79.5 103.5t29.5 86.5z" />
    <glyph glyph-name="uni0163" unicode="&#x21b;" horiz-adv-x="699" 
d="M562 -6q-24 -7 -69 -13t-90 -6q-126 0 -184 50.5t-58 138.5q0 33 10 83l118 570h-184l28 133h184l54 260h156l-54 -260h251l-27 -133h-252l-111 -532q-5 -26 -8 -45t-3 -37q0 -52 27.5 -72.5t93.5 -20.5q30 0 71.5 5.5t73.5 13.5zM290 -300q0 23 -15 35.5t-45 13.5h-10
l27 129q13 1 25 1q81 0 128 -33.5t47 -95.5q0 -54 -28.5 -113t-88.5 -127h-149q50 56 79.5 103.5t29.5 86.5z" />
    <glyph glyph-name="tbar" unicode="&#x167;" horiz-adv-x="699" 
d="M562 -6q-24 -7 -66.5 -13t-92.5 -6q-125 0 -183.5 49.5t-58.5 139.5q0 33 10 83l46 221h-183l28 133h182l45 216h-184l28 133h184l54 260h156l-54 -260h251l-27 -133h-252l-45 -216h218l-27 -133h-219l-38 -183q-5 -26 -8 -44.5t-3 -37.5q0 -52 27.5 -72.5t93.5 -20.5
q36 0 74.5 5.5t70.5 13.5z" />
    <glyph glyph-name="ugrave" unicode="&#xf9;" horiz-adv-x="1020" 
d="M442 -25q-86 0 -149 21.5t-103.5 59.5t-60 90t-19.5 113q0 22 2.5 45.5t8.5 52.5l123 593h155l-121 -583q-5 -25 -8 -47.5t-3 -43.5q0 -38 10 -69.5t31.5 -53.5t56 -34t83.5 -12q62 0 107.5 17.5t77.5 51t52 79.5t32 103l123 592h155l-129 -618q-12 -58 -32.5 -112
t-52.5 -99q-48 -66 -131 -106t-208 -40zM651 1473l50 -349h-126l-88 349h164zM133 950z" />
    <glyph glyph-name="uacute" unicode="&#xfa;" horiz-adv-x="1020" 
d="M442 -25q-86 0 -149 21.5t-103.5 59.5t-60 90t-19.5 113q0 22 2.5 45.5t8.5 52.5l123 593h155l-121 -583q-5 -25 -8 -47.5t-3 -43.5q0 -38 10 -69.5t31.5 -53.5t56 -34t83.5 -12q62 0 107.5 17.5t77.5 51t52 79.5t32 103l123 592h155l-129 -618q-12 -58 -32.5 -112
t-52.5 -99q-48 -66 -131 -106t-208 -40zM932 1473l-234 -349h-134l192 349h176zM280 950z" />
    <glyph glyph-name="ucircumflex" unicode="&#xfb;" horiz-adv-x="1020" 
d="M442 -25q-86 0 -149 21.5t-103.5 59.5t-60 90t-19.5 113q0 22 2.5 45.5t8.5 52.5l123 593h155l-121 -583q-5 -25 -8 -47.5t-3 -43.5q0 -38 10 -69.5t31.5 -53.5t56 -34t83.5 -12q62 0 107.5 17.5t77.5 51t52 79.5t32 103l123 592h155l-129 -618q-12 -58 -32.5 -112
t-52.5 -99q-48 -66 -131 -106t-208 -40zM798 1473l139 -349h-135l-96 246h-4l-197 -246h-145l281 349h157zM230 950z" />
    <glyph glyph-name="utilde" unicode="&#x169;" horiz-adv-x="1020" 
d="M442 -25q-86 0 -149 21.5t-103.5 59.5t-60 90t-19.5 113q0 22 2.5 45.5t8.5 52.5l123 593h155l-121 -583q-5 -25 -8 -47.5t-3 -43.5q0 -38 10 -69.5t31.5 -53.5t56 -34t83.5 -12q62 0 107.5 17.5t77.5 51t52 79.5t32 103l123 592h155l-129 -618q-12 -58 -32.5 -112
t-52.5 -99q-48 -66 -131 -106t-208 -40zM1027 1382q-7 -45 -23 -83.5t-40.5 -67t-59 -45t-78.5 -16.5q-40 0 -72.5 11.5t-60.5 26.5q-34 20 -66 38.5t-59 18.5q-33 0 -53.5 -24t-28.5 -63h-130q7 45 23 84t40.5 67.5t59 44.5t78.5 16q45 0 82.5 -15t70.5 -35q29 -17 54 -31
t51 -14q33 0 53.5 24t28.5 63h130zM235 950z" />
    <glyph glyph-name="udieresis" unicode="&#xfc;" horiz-adv-x="1020" 
d="M442 -25q-86 0 -149 21.5t-103.5 59.5t-60 90t-19.5 113q0 22 2.5 45.5t8.5 52.5l123 593h155l-121 -583q-5 -25 -8 -47.5t-3 -43.5q0 -38 10 -69.5t31.5 -53.5t56 -34t83.5 -12q62 0 107.5 17.5t77.5 51t52 79.5t32 103l123 592h155l-129 -618q-12 -58 -32.5 -112
t-52.5 -99q-48 -66 -131 -106t-208 -40zM382 1171l35 167h159l-35 -167h-159zM763 1171l35 167h159l-35 -167h-159zM210 950z" />
    <glyph glyph-name="umacron" unicode="&#x16b;" horiz-adv-x="1020" 
d="M442 -25q-86 0 -149 21.5t-103.5 59.5t-60 90t-19.5 113q0 22 2.5 45.5t8.5 52.5l123 593h155l-121 -583q-5 -25 -8 -47.5t-3 -43.5q0 -38 10 -69.5t31.5 -53.5t56 -34t83.5 -12q62 0 107.5 17.5t77.5 51t52 79.5t32 103l123 592h155l-129 -618q-12 -58 -32.5 -112
t-52.5 -99q-48 -66 -131 -106t-208 -40zM406 1300h540l-27 -129h-540zM203 950z" />
    <glyph glyph-name="ubreve" unicode="&#x16d;" horiz-adv-x="1020" 
d="M442 -25q-86 0 -149 21.5t-103.5 59.5t-60 90t-19.5 113q0 22 2.5 45.5t8.5 52.5l123 593h155l-121 -583q-5 -25 -8 -47.5t-3 -43.5q0 -38 10 -69.5t31.5 -53.5t56 -34t83.5 -12q62 0 107.5 17.5t77.5 51t52 79.5t32 103l123 592h155l-129 -618q-12 -58 -32.5 -112
t-52.5 -99q-48 -66 -131 -106t-208 -40zM642 1257q78 0 132.5 42t85.5 133h136q-18 -67 -50 -121.5t-78 -93.5t-105.5 -60t-131.5 -21q-69 0 -120 22.5t-80 59.5t-40 78.5t-11 80.5q0 27 4 55h127q-1 -17 -1 -33q1 -69 32.5 -105.5t99.5 -36.5zM200 950z" />
    <glyph glyph-name="uring" unicode="&#x16f;" horiz-adv-x="1020" 
d="M442 -25q-86 0 -149 21.5t-103.5 59.5t-60 90t-19.5 113q0 22 2.5 45.5t8.5 52.5l123 593h155l-121 -583q-5 -25 -8 -47.5t-3 -43.5q0 -38 10 -69.5t31.5 -53.5t56 -34t83.5 -12q62 0 107.5 17.5t77.5 51t52 79.5t32 103l123 592h155l-129 -618q-12 -58 -32.5 -112
t-52.5 -99q-48 -66 -131 -106t-208 -40zM695 1490q100 0 152.5 -45.5t52.5 -121.5q0 -38 -16 -77.5t-48 -71.5t-80.5 -52.5t-114.5 -20.5q-100 0 -152.5 45.5t-52.5 121.5q0 38 16 77.5t48 71.5t80.5 52.5t114.5 20.5zM649 1199q30 0 53.5 10t40 26t25 37.5t8.5 43.5
q0 34 -22 55t-67 21q-30 0 -53.5 -10t-40 -26t-25 -37t-8.5 -44q0 -34 22 -55t67 -21zM207 950z" />
    <glyph glyph-name="uhungarumlaut" unicode="&#x171;" horiz-adv-x="1020" 
d="M442 -25q-86 0 -149 21.5t-103.5 59.5t-60 90t-19.5 113q0 22 2.5 45.5t8.5 52.5l123 593h155l-121 -583q-5 -25 -8 -47.5t-3 -43.5q0 -38 10 -69.5t31.5 -53.5t56 -34t83.5 -12q62 0 107.5 17.5t77.5 51t52 79.5t32 103l123 592h155l-129 -618q-12 -58 -32.5 -112
t-52.5 -99q-48 -66 -131 -106t-208 -40zM790 1473l-234 -349h-134l192 349h176zM1099 1473l-256 -349h-134l214 349h176zM289 950z" />
    <glyph glyph-name="uogonek" unicode="&#x173;" horiz-adv-x="1020" 
d="M495 -15q-11 -4 -33 -6.5t-41 -2.5q-77 0 -135 21.5t-97 59t-59 89.5t-20 113q0 22 2.5 45.5t8.5 52.5l123 593h155l-121 -583q-5 -25 -8 -47.5t-3 -43.5q0 -38 9 -69.5t30.5 -53.5t56 -34t85.5 -12q62 0 107.5 17.5t77.5 50.5t52 79.5t32 103.5l123 592h155l-133 -636
q-21 -99 -67.5 -170t-112.5 -128q-48 -40 -96 -76.5t-87.5 -71.5t-63.5 -72t-24 -77q0 -74 94 -74q28 0 59 5.5t68 17.5l-28 -134q-29 -13 -65 -18.5t-70 -5.5q-95 0 -148 44.5t-53 130.5q0 47 19.5 90t51.5 80.5t73 69.5t84 56z" />
    <glyph glyph-name="wgrave" unicode="&#x1e81;" horiz-adv-x="1459" 
d="M773 775q-9 -27 -22 -62t-29 -74t-33.5 -81t-35.5 -83l-207 -475h-163l-165 950h158l65 -425q9 -58 16 -106.5t12.5 -90t10 -77t8.5 -68.5h5q9 27 21.5 59t25.5 65t26 65t25 59l226 519h168l53 -517q3 -27 5.5 -59t5.5 -65t5.5 -65.5t3.5 -60.5h5q25 63 57 128t61 119
l277 520h176l-529 -950h-160l-46 478q-4 39 -7.5 80.5t-6 81t-4.5 74.5t-2 61h-6zM842 1473l50 -349h-126l-88 349h164zM324 950z" />
    <glyph glyph-name="wacute" unicode="&#x1e83;" horiz-adv-x="1459" 
d="M773 775q-9 -27 -22 -62t-29 -74t-33.5 -81t-35.5 -83l-207 -475h-163l-165 950h158l65 -425q9 -58 16 -106.5t12.5 -90t10 -77t8.5 -68.5h5q9 27 21.5 59t25.5 65t26 65t25 59l226 519h168l53 -517q3 -27 5.5 -59t5.5 -65t5.5 -65.5t3.5 -60.5h5q25 63 57 128t61 119
l277 520h176l-529 -950h-160l-46 478q-4 39 -7.5 80.5t-6 81t-4.5 74.5t-2 61h-6zM1136 1473l-234 -349h-134l192 349h176zM484 950z" />
    <glyph glyph-name="wcircumflex" unicode="&#x175;" horiz-adv-x="1459" 
d="M773 775q-9 -27 -22 -62t-29 -74t-33.5 -81t-35.5 -83l-207 -475h-163l-165 950h158l65 -425q9 -58 16 -106.5t12.5 -90t10 -77t8.5 -68.5h5q9 27 21.5 59t25.5 65t26 65t25 59l226 519h168l53 -517q3 -27 5.5 -59t5.5 -65t5.5 -65.5t3.5 -60.5h5q25 63 57 128t61 119
l277 520h176l-529 -950h-160l-46 478q-4 39 -7.5 80.5t-6 81t-4.5 74.5t-2 61h-6zM976 1473l139 -349h-135l-96 246h-4l-197 -246h-145l281 349h157zM408 950z" />
    <glyph glyph-name="wdieresis" unicode="&#x1e85;" horiz-adv-x="1459" 
d="M773 775q-9 -27 -22 -62t-29 -74t-33.5 -81t-35.5 -83l-207 -475h-163l-165 950h158l65 -425q9 -58 16 -106.5t12.5 -90t10 -77t8.5 -68.5h5q9 27 21.5 59t25.5 65t26 65t25 59l226 519h168l53 -517q3 -27 5.5 -59t5.5 -65t5.5 -65.5t3.5 -60.5h5q25 63 57 128t61 119
l277 520h176l-529 -950h-160l-46 478q-4 39 -7.5 80.5t-6 81t-4.5 74.5t-2 61h-6zM581 1171l35 167h159l-35 -167h-159zM962 1171l35 167h159l-35 -167h-159zM409 950z" />
    <glyph glyph-name="ygrave" unicode="&#x1ef3;" horiz-adv-x="962" 
d="M124 950h160l165 -751h4l405 751h179l-543 -977q-50 -90 -96 -165.5t-97 -133.5q-69 -80 -152.5 -122t-196.5 -42q-21 0 -42.5 1.5t-44.5 5.5l28 134q15 -2 29.5 -3.5t28.5 -1.5q60 0 111 21.5t97.5 66t90.5 114t90 165.5zM606 1473l50 -349h-126l-88 349h164zM88 950z
" />
    <glyph glyph-name="yacute" unicode="&#xfd;" horiz-adv-x="962" 
d="M124 950h160l165 -751h4l405 751h179l-543 -977q-50 -90 -96 -165.5t-97 -133.5q-69 -80 -152.5 -122t-196.5 -42q-21 0 -42.5 1.5t-44.5 5.5l28 134q15 -2 29.5 -3.5t28.5 -1.5q60 0 111 21.5t97.5 66t90.5 114t90 165.5zM879 1473l-234 -349h-134l192 349h176zM227 950
z" />
    <glyph glyph-name="ycircumflex" unicode="&#x177;" horiz-adv-x="962" 
d="M124 950h160l165 -751h4l405 751h179l-543 -977q-50 -90 -96 -165.5t-97 -133.5q-69 -80 -152.5 -122t-196.5 -42q-21 0 -42.5 1.5t-44.5 5.5l28 134q15 -2 29.5 -3.5t28.5 -1.5q60 0 111 21.5t97.5 66t90.5 114t90 165.5zM735 1473l139 -349h-135l-96 246h-4l-197 -246
h-145l281 349h157zM167 950z" />
    <glyph glyph-name="ydieresis" unicode="&#xff;" horiz-adv-x="962" 
d="M124 950h160l165 -751h4l405 751h179l-543 -977q-50 -90 -96 -165.5t-97 -133.5q-69 -80 -152.5 -122t-196.5 -42q-21 0 -42.5 1.5t-44.5 5.5l28 134q15 -2 29.5 -3.5t28.5 -1.5q60 0 111 21.5t97.5 66t90.5 114t90 165.5zM339 1171l35 167h159l-35 -167h-159zM720 1171
l35 167h159l-35 -167h-159zM167 950z" />
    <glyph glyph-name="zacute" unicode="&#x17a;" horiz-adv-x="874" 
d="M634 813v4h-464l28 133h666l-20 -98l-605 -715v-4h505l-27 -133h-717l17 84zM831 1473l-234 -349h-134l192 349h176zM179 950z" />
    <glyph glyph-name="zcaron" unicode="&#x17e;" horiz-adv-x="874" 
d="M634 813v4h-464l28 133h666l-20 -98l-605 -715v-4h505l-27 -133h-717l17 84zM469 1124l-139 349h135l96 -246h4l197 246h145l-281 -349h-157zM123 950z" />
    <glyph glyph-name="zdotaccent" unicode="&#x17c;" horiz-adv-x="874" 
d="M634 813v4h-464l28 133h666l-20 -98l-605 -715v-4h505l-27 -133h-717l17 84zM469 1171l35 171h163l-35 -171h-163zM110 950z" />
    <glyph glyph-name="eng" unicode="&#x14b;" horiz-adv-x="1060" 
d="M461 -413q-25 0 -48 2.5t-39 7.5l26 132q9 -3 24 -5t31 -2q50 0 84 12.5t57.5 41t39.5 74.5t29 112l130 628q5 25 8.5 43t5 32t2 24.5t0.5 20.5q0 36 -10.5 61.5t-29.5 41t-45.5 23t-57.5 7.5q-67 0 -125 -24.5t-103 -67.5t-76 -101t-45 -126l-109 -524h-155l198 950h127
v-129h4q61 72 143.5 113t185.5 41q57 0 104.5 -15.5t81 -44.5t52.5 -72t19 -98q0 -39 -6.5 -83t-16.5 -90l-139 -672q-16 -77 -42.5 -135.5t-67.5 -98t-99.5 -59.5t-137.5 -20z" />
    <glyph glyph-name="eth" unicode="&#xf0;" horiz-adv-x="1009" 
d="M1004 1204l-210 -46q64 -116 103 -249.5t39 -278.5q0 -75 -12.5 -152t-39 -150t-67.5 -137.5t-97.5 -112t-130 -75.5t-165.5 -28q-75 0 -137 22t-107 65t-70 107t-25 149q0 79 16 155t46 143.5t72.5 125t95 99t113.5 64.5t129 23q44 0 80 -10t63 -25.5t45.5 -34.5
t27.5 -37l5 1q-20 80 -52 156t-75 148l-258 -56l-29 123l212 47q-42 57 -88 109t-95 99h185q38 -41 74 -84t70 -91l252 56zM581 796q-84 0 -147.5 -44t-106.5 -112.5t-65 -152t-22 -162.5q0 -106 48 -162t145 -56q57 0 105.5 20.5t87.5 55t68.5 80.5t49.5 97t30 104.5
t10 102.5q0 110 -53.5 169.5t-149.5 59.5z" />
    <glyph glyph-name="thorn" unicode="&#xfe;" horiz-adv-x="1023" 
d="M-35 -465l398 1913h155l-130 -621h4q22 31 51 58t64 47t76 31.5t88 11.5q62 0 113 -23.5t87.5 -68t56.5 -107.5t20 -143q0 -75 -13.5 -153.5t-41 -151.5t-68 -137.5t-94.5 -112t-121 -75.5t-147 -28q-75 0 -133 23t-96 62h-4l-110 -525h-155zM639 842q-41 0 -88 -17.5
t-91.5 -57.5t-80.5 -103.5t-56 -155.5l-68 -321q33 -33 79 -56.5t115 -23.5q60 0 108.5 25.5t87 67.5t66.5 96.5t46 112t27 114.5t9 104q0 63 -12.5 104.5t-34 66t-49.5 34.5t-58 10z" />
    <glyph glyph-name="A.c2sc" horiz-adv-x="1020" 
d="M673 302h-405l-162 -302h-166l570 1045h169l202 -1045h-152zM343 440h305l-26 141q-17 90 -30 166t-20 127h-5q-44 -101 -150 -296z" />
    <glyph glyph-name="B.c2sc" horiz-adv-x="1016" 
d="M715 531q79 -15 126.5 -66t47.5 -133q0 -63 -23 -115t-66 -92.5t-104 -68.5t-137 -42q-40 -7 -88 -10.5t-92 -3.5h-329l218 1045h308q73 0 123.5 -10t89.5 -29q66 -32 101.5 -86t35.5 -123q0 -105 -55 -170.5t-156 -91.5v-4zM304 467l-68 -329h163q165 0 247 52t82 145
q0 28 -10 52t-33 42t-59.5 28t-89.5 10h-232zM396 907l-63 -302h157q53 0 86.5 4t59.5 12q60 18 94.5 59t34.5 105t-46.5 93t-141.5 29h-181z" />
    <glyph glyph-name="C.c2sc" horiz-adv-x="942" 
d="M696 932q-69 0 -130.5 -20.5t-112.5 -56.5t-91.5 -86.5t-68 -110.5t-42.5 -127t-15 -138q0 -83 21.5 -137.5t61.5 -85.5t94 -44t124 -13q65 0 132 12.5t115 29.5l-30 -142q-50 -18 -115 -28t-125 -10q-99 0 -180 23.5t-138.5 73t-89 127t-31.5 185.5q0 82 17.5 164.5
t52.5 158.5t87 142.5t121 115.5t155.5 77t186.5 28q75 0 134 -12t100 -29l-28 -138q-45 17 -95.5 29t-109.5 12z" />
    <glyph glyph-name="D.c2sc" horiz-adv-x="1123" 
d="M892 658q0 79 -26.5 127.5t-70.5 75.5t-101.5 36.5t-119.5 9.5h-179l-159 -769h122q59 0 110 5t89 16q89 24 152.5 73.5t104 115.5t59.5 145.5t19 164.5zM1053 649q0 -114 -30.5 -215t-88.5 -182.5t-142 -139.5t-192 -87q-46 -12 -109 -18.5t-130 -6.5h-311l217 1045h303
q135 0 222 -27q126 -38 193.5 -129.5t67.5 -239.5z" />
    <glyph glyph-name="E.c2sc" horiz-adv-x="923" 
d="M236 138h517l-29 -138h-674l217 1045h646l-30 -138h-488l-63 -302h438l-27 -138h-439z" />
    <glyph glyph-name="F.c2sc" horiz-adv-x="838" 
d="M50 0l217 1045h631l-30 -138h-473l-63 -302h423l-27 -138h-424l-97 -467h-157z" />
    <glyph glyph-name="G.c2sc" horiz-adv-x="1085" 
d="M736 1070q40 0 80.5 -4t75.5 -11t63.5 -14.5t49.5 -15.5l-28 -139q-55 22 -114.5 34t-128.5 12q-119 0 -213 -46.5t-157.5 -123.5t-95.5 -173.5t-32 -195.5q0 -77 19 -130.5t54 -86.5t84 -48t108 -15q54 0 102.5 12.5t86 39t63 68t37.5 98.5l14 68h-239l29 138h396
l-43 -210q-21 -103 -66 -171t-105.5 -108t-133.5 -56.5t-150 -16.5q-87 0 -163.5 23t-132.5 71.5t-88.5 125t-32.5 184.5q0 142 46.5 268t132.5 220t209 148.5t273 54.5z" />
    <glyph glyph-name="H.c2sc" horiz-adv-x="1154" 
d="M333 605h532l91 440h158l-217 -1045h-158l97 467h-532l-97 -467h-157l217 1045h157z" />
    <glyph glyph-name="I.c2sc" horiz-adv-x="464" 
d="M50 0l217 1045h157l-217 -1045h-157z" />
    <glyph glyph-name="J.c2sc" horiz-adv-x="619" 
d="M432 1045h157l-173 -833q-26 -123 -106 -180t-214 -57q-38 0 -77.5 6t-68.5 17l28 135q26 -10 55.5 -15t58.5 -5q81 0 121 36t54 106z" />
    <glyph glyph-name="K.c2sc" 
d="M492 512l410 -512h-186l-399 508h-4l-106 -508h-157l217 1045h157l-106 -512h4l518 512h195z" />
    <glyph glyph-name="L.c2sc" horiz-adv-x="873" 
d="M753 138l-29 -138h-674l217 1045h157l-188 -907h517z" />
    <glyph glyph-name="M.c2sc" horiz-adv-x="1397" 
d="M653 258q59 113 119 216l340 571h245l-218 -1045h-157l115 549q46 212 84 348h-8q-43 -90 -167 -297l-358 -600h-85l-116 580q-33 163 -59 317h-7q-24 -158 -57 -327l-117 -570h-157l217 1045h236l115 -594q19 -100 31 -193h4z" />
    <glyph glyph-name="N.c2sc" horiz-adv-x="1189" 
d="M824 188q20 144 44 263l124 594h157l-217 -1045h-175l-276 609q-56 125 -102 250h-5q-15 -122 -44 -265l-123 -594h-157l217 1045h173l296 -655q40 -88 84 -202h4z" />
    <glyph glyph-name="O.c2sc" horiz-adv-x="1132" 
d="M664 932q-69 0 -128 -24.5t-106.5 -66.5t-83.5 -98t-60.5 -118.5t-37 -128t-12.5 -126.5q0 -125 60 -191t175 -66q70 0 129 24.5t107 66.5t84 98t60.5 118.5t37 128t12.5 126.5q0 125 -60.5 191t-176.5 66zM670 1070q91 0 163.5 -25t123.5 -73.5t78 -119.5t27 -163
q0 -79 -16 -162.5t-49 -162.5t-82 -150t-116 -124t-151 -84t-186 -31q-89 0 -160.5 25t-122 73.5t-77.5 119.5t-27 163q0 79 16 162.5t48.5 162.5t82 150t115.5 124t149 84t184 31z" />
    <glyph glyph-name="P.c2sc" horiz-adv-x="962" 
d="M427 401q-72 0 -135 9l-85 -410h-157l217 1045h312q71 0 121.5 -8.5t88.5 -25.5q77 -34 112.5 -94t35.5 -132q0 -64 -27 -132t-87 -124t-159.5 -92t-236.5 -36zM321 548q55 -9 114 -9q106 0 174 24.5t105 62t49.5 78.5t12.5 74q0 67 -50 98t-146 31h-185z" />
    <glyph glyph-name="Q.c2sc" horiz-adv-x="1122" 
d="M1062 689q0 -87 -20 -172t-57 -160t-89 -137.5t-117 -105.5v-4q90 19 197 19q20 0 46 -2l-29 -138q-82 11 -181 11q-51 0 -94 -3.5t-82 -7t-79 -7t-83 -3.5q-87 0 -160.5 24.5t-126.5 72t-82.5 118t-29.5 162.5q0 83 17 168.5t50.5 165t83 149t115 121t146.5 81t176 29.5
q91 0 165 -25t126 -73.5t80 -119.5t28 -163zM657 932q-68 0 -125.5 -24.5t-104 -66.5t-82.5 -98t-60 -118.5t-36.5 -128t-12.5 -126.5q0 -125 62 -191t182 -66q66 0 124.5 24.5t105 66.5t82.5 98t60 118.5t36.5 128t12.5 126.5q0 125 -61.5 191t-182.5 66z" />
    <glyph glyph-name="R.c2sc" horiz-adv-x="1015" 
d="M294 421l-87 -421h-157l217 1045h342q69 0 121 -9.5t92 -27.5q68 -31 105.5 -86.5t37.5 -133.5q0 -61 -22 -117.5t-65.5 -103t-107.5 -80t-148 -49.5v-4l236 -434h-169l-220 421h-175zM323 559h148q163 0 248 57.5t85 164.5q0 65 -52 95.5t-138 30.5h-219z" />
    <glyph glyph-name="S.c2sc" horiz-adv-x="925" 
d="M161 752q0 69 25.5 127.5t74 101t118.5 66t158 23.5q98 0 184.5 -18.5t143.5 -42.5l-28 -141q-61 28 -139 46t-151 18q-115 0 -170.5 -44.5t-55.5 -125.5q0 -36 15 -60.5t40.5 -42t59 -29.5t70.5 -24q49 -15 99.5 -33.5t92 -49.5t67 -81t25.5 -123q0 -77 -29 -140.5
t-85.5 -108.5t-139 -70t-189.5 -25q-57 0 -106 6.5t-89 16.5t-70.5 23t-51.5 25l29 138q26 -16 58.5 -29t70 -22.5t79 -14.5t82.5 -5q142 0 211 53t69 145q0 41 -17.5 68t-47 46t-67 32t-78.5 26q-48 15 -93.5 33t-82.5 47.5t-59.5 74.5t-22.5 114z" />
    <glyph glyph-name="T.c2sc" horiz-adv-x="910" 
d="M431 0h-157l188 907h-347l29 138h851l-29 -138h-347z" />
    <glyph glyph-name="U.c2sc" horiz-adv-x="1112" 
d="M464 113q77 0 134.5 21.5t98.5 61t67.5 96.5t41.5 128l129 625h157l-131 -632q-8 -38 -15.5 -68t-15 -53.5t-16 -43t-17.5 -36.5q-58 -108 -166.5 -172.5t-274.5 -64.5q-80 0 -147 18t-115.5 56t-75.5 96t-27 139q0 27 3.5 57.5t11.5 69.5l131 634h157l-133 -639
q-13 -59 -13 -106q0 -92 52 -139.5t164 -47.5z" />
    <glyph glyph-name="V.c2sc" horiz-adv-x="993" 
d="M899 1045h169l-572 -1045h-156l-190 1045h149l102 -579q29 -171 43 -281h4q44 97 132 266z" />
    <glyph glyph-name="W.c2sc" horiz-adv-x="1501" 
d="M829 560q-7 155 -7 299h-5q-49 -144 -100 -266l-250 -593h-169l-148 1045h152l74 -573q23 -186 30 -294h4q38 107 111 286l239 581h179l26 -533q9 -186 9 -334h4q44 115 131 290l298 577h167l-552 -1045h-167z" />
    <glyph glyph-name="X.c2sc" horiz-adv-x="970" 
d="M112 0h-183l479 547l-227 498h158l179 -396h5l344 396h183l-462 -527l237 -518h-158l-189 415h-4z" />
    <glyph glyph-name="Y.c2sc" horiz-adv-x="927" 
d="M138 1045h155l190 -494h4l342 494h177l-456 -645l-84 -400h-157l84 405z" />
    <glyph glyph-name="Z.c2sc" horiz-adv-x="939" 
d="M713 907h-535l29 138h747l-21 -99l-702 -804v-4h559l-28 -138h-772l20 99l703 804v4z" />
    <glyph glyph-name="Agrave.c2sc" horiz-adv-x="1020" 
d="M673 302h-405l-162 -302h-166l570 1045h169l202 -1045h-152zM343 440h305l-26 141q-17 90 -30 166t-20 127h-5q-44 -101 -150 -296zM636 1518l50 -349h-126l-88 349h164zM118 995z" />
    <glyph glyph-name="Aacute.c2sc" horiz-adv-x="1020" 
d="M673 302h-405l-162 -302h-166l570 1045h169l202 -1045h-152zM343 440h305l-26 141q-17 90 -30 166t-20 127h-5q-44 -101 -150 -296zM904 1518l-234 -349h-134l192 349h176zM252 995z" />
    <glyph glyph-name="Acircumflex.c2sc" horiz-adv-x="1020" 
d="M673 302h-405l-162 -302h-166l570 1045h169l202 -1045h-152zM343 440h305l-26 141q-17 90 -30 166t-20 127h-5q-44 -101 -150 -296zM753 1518l139 -349h-135l-96 246h-4l-197 -246h-145l281 349h157zM185 995z" />
    <glyph glyph-name="Atilde.c2sc" horiz-adv-x="1020" 
d="M673 302h-405l-162 -302h-166l570 1045h169l202 -1045h-152zM343 440h305l-26 141q-17 90 -30 166t-20 127h-5q-44 -101 -150 -296zM976 1427q-7 -45 -23 -83.5t-40.5 -67t-59 -45t-78.5 -16.5q-40 0 -72.5 11.5t-60.5 26.5q-34 20 -66 38.5t-59 18.5q-33 0 -53.5 -24
t-28.5 -63h-130q7 45 23 84t40.5 67.5t59 44.5t78.5 16q45 0 82.5 -15t70.5 -35q29 -17 54 -31t51 -14q33 0 53.5 24t28.5 63h130zM184 995z" />
    <glyph glyph-name="Adieresis.c2sc" horiz-adv-x="1020" 
d="M673 302h-405l-162 -302h-166l570 1045h169l202 -1045h-152zM343 440h305l-26 141q-17 90 -30 166t-20 127h-5q-44 -101 -150 -296zM356 1216l35 167h159l-35 -167h-159zM737 1216l35 167h159l-35 -167h-159zM184 995z" />
    <glyph glyph-name="Amacron.c2sc" horiz-adv-x="1020" 
d="M673 302h-405l-162 -302h-166l570 1045h169l202 -1045h-152zM343 440h305l-26 141q-17 90 -30 166t-20 127h-5q-44 -101 -150 -296zM378 1345h540l-27 -129h-540zM175 995z" />
    <glyph glyph-name="Abreve.c2sc" horiz-adv-x="1020" 
d="M673 302h-405l-162 -302h-166l570 1045h169l202 -1045h-152zM343 440h305l-26 141q-17 90 -30 166t-20 127h-5q-44 -101 -150 -296zM623 1302q78 0 132.5 42t85.5 133h136q-18 -67 -50 -121.5t-78 -93.5t-105.5 -60t-131.5 -21q-69 0 -120 22.5t-80 59.5t-40 78.5
t-11 80.5q0 27 4 55h127q-1 -17 -1 -33q1 -69 32.5 -105.5t99.5 -36.5zM181 995z" />
    <glyph glyph-name="Aring.c2sc" horiz-adv-x="1020" 
d="M673 302h-405l-162 -302h-166l570 1045h169l202 -1045h-152zM343 440h305l-26 141q-17 90 -30 166t-20 127h-5q-44 -101 -150 -296zM667 1535q100 0 152.5 -45.5t52.5 -121.5q0 -38 -16 -77.5t-48 -71.5t-80.5 -52.5t-114.5 -20.5q-100 0 -152.5 45.5t-52.5 121.5
q0 38 16 77.5t48 71.5t80.5 52.5t114.5 20.5zM621 1244q30 0 53.5 10t40 26t25 37.5t8.5 43.5q0 34 -22 55t-67 21q-30 0 -53.5 -10t-40 -26t-25 -37t-8.5 -44q0 -34 22 -55t67 -21zM179 995z" />
    <glyph glyph-name="Aringacute.c2sc" horiz-adv-x="1020" 
d="M1014 1833l-254 -256h-131l201 256h184zM662 1519q51 0 89 -11.5t64 -32.5t39 -49.5t13 -61.5q0 -39 -16 -78.5t-48 -70.5t-80.5 -50.5t-114.5 -19.5q-51 0 -89 11.5t-64 32.5t-39 49.5t-13 61.5q0 39 16 78.5t48 70.5t80.5 50.5t114.5 19.5zM616 1243q30 0 53.5 9t40 24
t25 34.5t8.5 40.5q0 30 -22 50t-67 20q-30 0 -53.5 -9t-40 -24t-25 -34.5t-8.5 -40.5q0 -30 22 -50t67 -20zM673 302h-405l-162 -302h-166l570 1045h169l202 -1045h-152zM343 440h305l-26 141q-17 90 -30 166t-20 127h-5q-44 -101 -150 -296z" />
    <glyph glyph-name="Aogonek.c2sc" horiz-adv-x="1020" 
d="M673 302h-405l-162 -302h-166l570 1045h169l202 -1045q-48 -19 -101 -49.5t-97.5 -69t-72.5 -80.5t-28 -83q0 -37 22.5 -55t64.5 -18q30 0 61 5.5t67 17.5l-28 -134q-29 -12 -63.5 -18t-68.5 -6q-94 0 -144 44t-50 127q0 56 25 108.5t65 97t90.5 81t100.5 60.5zM343 440
h305l-26 141q-17 90 -30 166t-20 127h-5q-44 -101 -150 -296z" />
    <glyph glyph-name="AE.c2sc" horiz-adv-x="1448" 
d="M795 138h517l-29 -138h-647l32 302h-353l-206 -302h-169l720 1045h758l-30 -138h-512l-32 -302h418l-27 -138h-405zM410 440h273l51 467h-5z" />
    <glyph glyph-name="AEacute.c2sc" horiz-adv-x="1448" 
d="M795 138h517l-29 -138h-647l32 302h-353l-206 -302h-169l720 1045h758l-30 -138h-512l-32 -302h418l-27 -138h-405zM410 440h273l51 467h-5zM1299 1518l-234 -349h-134l192 349h176zM647 995z" />
    <glyph glyph-name="Cacute.c2sc" horiz-adv-x="942" 
d="M696 932q-69 0 -130.5 -20.5t-112.5 -56.5t-91.5 -86.5t-68 -110.5t-42.5 -127t-15 -138q0 -83 21.5 -137.5t61.5 -85.5t94 -44t124 -13q65 0 132 12.5t115 29.5l-30 -142q-50 -18 -115 -28t-125 -10q-99 0 -180 23.5t-138.5 73t-89 127t-31.5 185.5q0 82 17.5 164.5
t52.5 158.5t87 142.5t121 115.5t155.5 77t186.5 28q75 0 134 -12t100 -29l-28 -138q-45 17 -95.5 29t-109.5 12zM955 1518l-234 -349h-134l192 349h176zM303 995z" />
    <glyph glyph-name="Ccircumflex.c2sc" horiz-adv-x="942" 
d="M696 932q-69 0 -130.5 -20.5t-112.5 -56.5t-91.5 -86.5t-68 -110.5t-42.5 -127t-15 -138q0 -83 21.5 -137.5t61.5 -85.5t94 -44t124 -13q65 0 132 12.5t115 29.5l-30 -142q-50 -18 -115 -28t-125 -10q-99 0 -180 23.5t-138.5 73t-89 127t-31.5 185.5q0 82 17.5 164.5
t52.5 158.5t87 142.5t121 115.5t155.5 77t186.5 28q75 0 134 -12t100 -29l-28 -138q-45 17 -95.5 29t-109.5 12zM789 1518l139 -349h-135l-96 246h-4l-197 -246h-145l281 349h157zM221 995z" />
    <glyph glyph-name="Ccaron.c2sc" horiz-adv-x="942" 
d="M696 932q-69 0 -130.5 -20.5t-112.5 -56.5t-91.5 -86.5t-68 -110.5t-42.5 -127t-15 -138q0 -83 21.5 -137.5t61.5 -85.5t94 -44t124 -13q65 0 132 12.5t115 29.5l-30 -142q-50 -18 -115 -28t-125 -10q-99 0 -180 23.5t-138.5 73t-89 127t-31.5 185.5q0 82 17.5 164.5
t52.5 158.5t87 142.5t121 115.5t155.5 77t186.5 28q75 0 134 -12t100 -29l-28 -138q-45 17 -95.5 29t-109.5 12zM587 1169l-139 349h135l96 -246h4l197 246h145l-281 -349h-157zM241 995z" />
    <glyph glyph-name="Cdotaccent.c2sc" horiz-adv-x="942" 
d="M696 932q-69 0 -130.5 -20.5t-112.5 -56.5t-91.5 -86.5t-68 -110.5t-42.5 -127t-15 -138q0 -83 21.5 -137.5t61.5 -85.5t94 -44t124 -13q65 0 132 12.5t115 29.5l-30 -142q-50 -18 -115 -28t-125 -10q-99 0 -180 23.5t-138.5 73t-89 127t-31.5 185.5q0 82 17.5 164.5
t52.5 158.5t87 142.5t121 115.5t155.5 77t186.5 28q75 0 134 -12t100 -29l-28 -138q-45 17 -95.5 29t-109.5 12zM566 1216l35 171h163l-35 -171h-163zM207 995z" />
    <glyph glyph-name="Ccedilla.c2sc" horiz-adv-x="942" 
d="M75 384q0 82 17.5 164.5t52.5 158.5t87 142.5t121 115.5t155.5 77t186.5 28q75 0 134 -12t100 -29l-28 -138q-45 17 -95.5 29t-109.5 12q-69 0 -130.5 -20.5t-112.5 -56.5t-91.5 -86.5t-68 -110.5t-42.5 -127t-15 -138q0 -83 21.5 -137.5t61.5 -85.5t94 -44t124 -13
q65 0 132 12.5t115 29.5l-30 -142q-50 -18 -115 -28t-125 -10q-17 0 -29 1l-43 -104q35 -4 64.5 -16t51 -31t33.5 -45.5t12 -59.5q0 -46 -17 -84.5t-51.5 -66.5t-86 -43.5t-118.5 -15.5q-46 0 -87.5 7.5t-64.5 16.5l24 112q23 -9 56 -15t68 -6q69 0 104.5 23.5t36.5 61.5
q0 20 -10 33.5t-32 22.5t-57.5 13.5t-87.5 5.5l87 205q-67 15 -121.5 46t-92 79.5t-58 115t-20.5 153.5z" />
    <glyph glyph-name="Dcaron.c2sc" horiz-adv-x="1123" 
d="M892 658q0 79 -26.5 127.5t-70.5 75.5t-101.5 36.5t-119.5 9.5h-179l-159 -769h122q59 0 110 5t89 16q89 24 152.5 73.5t104 115.5t59.5 145.5t19 164.5zM1053 649q0 -114 -30.5 -215t-88.5 -182.5t-142 -139.5t-192 -87q-46 -12 -109 -18.5t-130 -6.5h-311l217 1045h303
q135 0 222 -27q126 -38 193.5 -129.5t67.5 -239.5zM546 1169l-139 349h135l96 -246h4l197 246h145l-281 -349h-157zM200 995z" />
    <glyph glyph-name="Dcroat.c2sc" horiz-adv-x="1149" 
d="M84 605h117l92 440h324q109 0 195 -24.5t145 -74t90.5 -124t31.5 -173.5q0 -138 -44.5 -257t-129 -206t-205.5 -136.5t-274 -49.5h-350l97 467h-118zM918 658q0 79 -26.5 127.5t-70.5 75.5t-101.5 36.5t-119.5 9.5h-179l-63 -302h282l-28 -138h-282l-68 -329h148
q137 0 233.5 42.5t157.5 114t89 166t28 197.5z" />
    <glyph glyph-name="Egrave.c2sc" horiz-adv-x="923" 
d="M236 138h517l-29 -138h-674l217 1045h646l-30 -138h-488l-63 -302h438l-27 -138h-439zM613 1518l50 -349h-126l-88 349h164zM95 995z" />
    <glyph glyph-name="Eacute.c2sc" horiz-adv-x="923" 
d="M236 138h517l-29 -138h-674l217 1045h646l-30 -138h-488l-63 -302h438l-27 -138h-439zM884 1518l-234 -349h-134l192 349h176zM232 995z" />
    <glyph glyph-name="Ecircumflex.c2sc" horiz-adv-x="923" 
d="M236 138h517l-29 -138h-674l217 1045h646l-30 -138h-488l-63 -302h438l-27 -138h-439zM754 1518l139 -349h-135l-96 246h-4l-197 -246h-145l281 349h157zM186 995z" />
    <glyph glyph-name="Ecaron.c2sc" horiz-adv-x="923" 
d="M236 138h517l-29 -138h-674l217 1045h646l-30 -138h-488l-63 -302h438l-27 -138h-439zM520 1169l-139 349h135l96 -246h4l197 246h145l-281 -349h-157zM174 995z" />
    <glyph glyph-name="Edieresis.c2sc" horiz-adv-x="923" 
d="M236 138h517l-29 -138h-674l217 1045h646l-30 -138h-488l-63 -302h438l-27 -138h-439zM342 1216l35 167h159l-35 -167h-159zM723 1216l35 167h159l-35 -167h-159zM170 995z" />
    <glyph glyph-name="Emacron.c2sc" horiz-adv-x="923" 
d="M236 138h517l-29 -138h-674l217 1045h646l-30 -138h-488l-63 -302h438l-27 -138h-439zM369 1345h540l-27 -129h-540zM166 995z" />
    <glyph glyph-name="Ebreve.c2sc" horiz-adv-x="923" 
d="M236 138h517l-29 -138h-674l217 1045h646l-30 -138h-488l-63 -302h438l-27 -138h-439zM618 1302q78 0 132.5 42t85.5 133h136q-18 -67 -50 -121.5t-78 -93.5t-105.5 -60t-131.5 -21q-69 0 -120 22.5t-80 59.5t-40 78.5t-11 80.5q0 27 4 55h127q-1 -17 -1 -33
q1 -69 32.5 -105.5t99.5 -36.5zM176 995z" />
    <glyph glyph-name="Edotaccent.c2sc" horiz-adv-x="923" 
d="M236 138h517l-29 -138h-674l217 1045h646l-30 -138h-488l-63 -302h438l-27 -138h-439zM517 1216l35 171h163l-35 -171h-163zM158 995z" />
    <glyph glyph-name="Eogonek.c2sc" horiz-adv-x="923" 
d="M50 0l217 1045h646l-30 -138h-488l-63 -302h438l-27 -138h-439l-68 -329h517l-29 -138q-29 -12 -62.5 -29t-67 -39t-64.5 -47t-55 -53t-38 -56.5t-14 -56.5q0 -74 96 -74q28 0 59 5.5t68 17.5l-28 -134q-30 -13 -65.5 -18.5t-69.5 -5.5q-95 0 -147 45t-52 130
q0 53 22.5 100t58 86.5t78.5 71t85 53.5v4h-478z" />
    <glyph glyph-name="Gcircumflex.c2sc" horiz-adv-x="1085" 
d="M736 1070q40 0 80.5 -4t75.5 -11t63.5 -14.5t49.5 -15.5l-28 -139q-55 22 -114.5 34t-128.5 12q-119 0 -213 -46.5t-157.5 -123.5t-95.5 -173.5t-32 -195.5q0 -77 19 -130.5t54 -86.5t84 -48t108 -15q54 0 102.5 12.5t86 39t63 68t37.5 98.5l14 68h-239l29 138h396
l-43 -210q-21 -103 -66 -171t-105.5 -108t-133.5 -56.5t-150 -16.5q-87 0 -163.5 23t-132.5 71.5t-88.5 125t-32.5 184.5q0 142 46.5 268t132.5 220t209 148.5t273 54.5zM830 1518l139 -349h-135l-96 246h-4l-197 -246h-145l281 349h157zM262 995z" />
    <glyph glyph-name="Gbreve.c2sc" horiz-adv-x="1085" 
d="M736 1070q40 0 80.5 -4t75.5 -11t63.5 -14.5t49.5 -15.5l-28 -139q-55 22 -114.5 34t-128.5 12q-119 0 -213 -46.5t-157.5 -123.5t-95.5 -173.5t-32 -195.5q0 -77 19 -130.5t54 -86.5t84 -48t108 -15q54 0 102.5 12.5t86 39t63 68t37.5 98.5l14 68h-239l29 138h396
l-43 -210q-21 -103 -66 -171t-105.5 -108t-133.5 -56.5t-150 -16.5q-87 0 -163.5 23t-132.5 71.5t-88.5 125t-32.5 184.5q0 142 46.5 268t132.5 220t209 148.5t273 54.5zM682 1302q78 0 132.5 42t85.5 133h136q-18 -67 -50 -121.5t-78 -93.5t-105.5 -60t-131.5 -21
q-69 0 -120 22.5t-80 59.5t-40 78.5t-11 80.5q0 27 4 55h127q-1 -17 -1 -33q1 -69 32.5 -105.5t99.5 -36.5zM240 995z" />
    <glyph glyph-name="Gdotaccent.c2sc" horiz-adv-x="1085" 
d="M736 1070q40 0 80.5 -4t75.5 -11t63.5 -14.5t49.5 -15.5l-28 -139q-55 22 -114.5 34t-128.5 12q-119 0 -213 -46.5t-157.5 -123.5t-95.5 -173.5t-32 -195.5q0 -77 19 -130.5t54 -86.5t84 -48t108 -15q54 0 102.5 12.5t86 39t63 68t37.5 98.5l14 68h-239l29 138h396
l-43 -210q-21 -103 -66 -171t-105.5 -108t-133.5 -56.5t-150 -16.5q-87 0 -163.5 23t-132.5 71.5t-88.5 125t-32.5 184.5q0 142 46.5 268t132.5 220t209 148.5t273 54.5zM620 1216l35 171h163l-35 -171h-163zM261 995z" />
    <glyph glyph-name="uni0122.c2sc" horiz-adv-x="1085" 
d="M736 1070q40 0 80.5 -4t75.5 -11t63.5 -14.5t49.5 -15.5l-28 -139q-55 22 -114.5 34t-128.5 12q-119 0 -213 -46.5t-157.5 -123.5t-95.5 -173.5t-32 -195.5q0 -77 19 -130.5t54 -86.5t84 -48t108 -15q54 0 102.5 12.5t86 39t63 68t37.5 98.5l14 68h-239l29 138h396
l-43 -210q-21 -103 -66 -171t-105.5 -108t-133.5 -56.5t-150 -16.5q-87 0 -163.5 23t-132.5 71.5t-88.5 125t-32.5 184.5q0 142 46.5 268t132.5 220t209 148.5t273 54.5zM437 -300q0 23 -15 35.5t-45 13.5h-10l27 129q13 1 25 1q81 0 128 -33.5t47 -95.5q0 -54 -28.5 -113
t-88.5 -127h-149q50 56 79.5 103.5t29.5 86.5z" />
    <glyph glyph-name="Hcircumflex.c2sc" horiz-adv-x="1154" 
d="M333 605h532l91 440h158l-217 -1045h-158l97 467h-532l-97 -467h-157l217 1045h157zM848 1518l139 -349h-135l-96 246h-4l-197 -246h-145l281 349h157zM280 995z" />
    <glyph glyph-name="Hbar.c2sc" horiz-adv-x="1154" 
d="M113 886h121l33 159h157l-33 -159h532l33 159h158l-33 -159h122l-26 -130h-123l-157 -756h-158l97 467h-532l-97 -467h-157l157 756h-121zM865 605l31 151h-532l-31 -151h532z" />
    <glyph glyph-name="Igrave.c2sc" horiz-adv-x="464" 
d="M50 0l217 1045h157l-217 -1045h-157zM395 1518l50 -349h-126l-88 349h164zM-123 995z" />
    <glyph glyph-name="Iacute.c2sc" horiz-adv-x="464" 
d="M50 0l217 1045h157l-217 -1045h-157zM662 1518l-234 -349h-134l192 349h176zM10 995z" />
    <glyph glyph-name="Icircumflex.c2sc" horiz-adv-x="464" 
d="M50 0l217 1045h157l-217 -1045h-157zM513 1518l139 -349h-135l-96 246h-4l-197 -246h-145l281 349h157zM-55 995z" />
    <glyph glyph-name="Itilde.c2sc" horiz-adv-x="464" 
d="M50 0l217 1045h157l-217 -1045h-157zM724 1427q-7 -45 -23 -83.5t-40.5 -67t-59 -45t-78.5 -16.5q-40 0 -72.5 11.5t-60.5 26.5q-34 20 -66 38.5t-59 18.5q-33 0 -53.5 -24t-28.5 -63h-130q7 45 23 84t40.5 67.5t59 44.5t78.5 16q45 0 82.5 -15t70.5 -35q29 -17 54 -31
t51 -14q33 0 53.5 24t28.5 63h130zM-68 995z" />
    <glyph glyph-name="Idieresis.c2sc" horiz-adv-x="464" 
d="M50 0l217 1045h157l-217 -1045h-157zM110 1216l35 167h159l-35 -167h-159zM491 1216l35 167h159l-35 -167h-159zM-62 995z" />
    <glyph glyph-name="Imacron.c2sc" horiz-adv-x="464" 
d="M50 0l217 1045h157l-217 -1045h-157zM129 1345h540l-27 -129h-540zM-74 995z" />
    <glyph glyph-name="Ibreve.c2sc" horiz-adv-x="464" 
d="M50 0l217 1045h157l-217 -1045h-157zM375 1302q78 0 132.5 42t85.5 133h136q-18 -67 -50 -121.5t-78 -93.5t-105.5 -60t-131.5 -21q-69 0 -120 22.5t-80 59.5t-40 78.5t-11 80.5q0 27 4 55h127q-1 -17 -1 -33q1 -69 32.5 -105.5t99.5 -36.5zM-67 995z" />
    <glyph glyph-name="Idotaccent.c2sc" horiz-adv-x="464" 
d="M50 0l217 1045h157l-217 -1045h-157zM303 1216l35 171h163l-35 -171h-163zM-56 995z" />
    <glyph glyph-name="Iogonek.c2sc" horiz-adv-x="464" 
d="M207 0q-51 -35 -90 -73t-65.5 -74.5t-40 -71t-13.5 -62.5q0 -38 20.5 -56t65.5 -18q28 0 56 5.5t64 17.5l-28 -134q-31 -13 -62.5 -18.5t-65.5 -5.5q-93 0 -141 45t-48 123q0 50 15.5 96.5t41.5 88.5t61.5 79t74.5 68l215 1035h157z" />
    <glyph glyph-name="IJ.c2sc" horiz-adv-x="1057" 
d="M50 0l217 1045h157l-217 -1045h-157zM870 1045h157l-173 -833q-26 -123 -106 -180t-214 -57q-38 0 -77.5 6t-68.5 17l28 135q26 -10 55.5 -15t58.5 -5q81 0 121 36t54 106z" />
    <glyph glyph-name="Jcircumflex.c2sc" horiz-adv-x="619" 
d="M432 1045h157l-173 -833q-26 -123 -106 -180t-214 -57q-38 0 -77.5 6t-68.5 17l28 135q26 -10 55.5 -15t58.5 -5q81 0 121 36t54 106zM675 1518l139 -349h-135l-96 246h-4l-197 -246h-145l281 349h157zM107 995z" />
    <glyph glyph-name="uni0136.c2sc" 
d="M492 512l410 -512h-186l-399 508h-4l-106 -508h-157l217 1045h157l-106 -512h4l518 512h195zM396 -300q0 23 -15 35.5t-45 13.5h-10l27 129q13 1 25 1q81 0 128 -33.5t47 -95.5q0 -54 -28.5 -113t-88.5 -127h-149q50 56 79.5 103.5t29.5 86.5z" />
    <glyph glyph-name="Lacute.c2sc" horiz-adv-x="873" 
d="M753 138l-29 -138h-674l217 1045h157l-188 -907h517zM659 1518l-234 -349h-134l192 349h176zM7 995z" />
    <glyph glyph-name="Lcaron.c2sc" horiz-adv-x="873" 
d="M753 138l-29 -138h-674l217 1045h157l-188 -907h517zM633 874q0 23 -15.5 36t-44.5 13h-10l27 129q15 1 27 1q80 0 126.5 -34t46.5 -95q0 -54 -28.5 -113t-88.5 -127h-149q50 56 79.5 103.5t29.5 86.5z" />
    <glyph glyph-name="uni013B.c2sc" horiz-adv-x="873" 
d="M753 138l-29 -138h-674l217 1045h157l-188 -907h517zM336 -300q0 23 -15 35.5t-45 13.5h-10l27 129q13 1 25 1q81 0 128 -33.5t47 -95.5q0 -54 -28.5 -113t-88.5 -127h-149q50 56 79.5 103.5t29.5 86.5z" />
    <glyph glyph-name="Lslash.c2sc" horiz-adv-x="873" 
d="M753 138l-29 -138h-674l83 401l-148 -54l30 148l149 54l103 496h157l-91 -438l294 108l-30 -148l-294 -108l-67 -321h517z" />
    <glyph glyph-name="Ldot.c2sc" horiz-adv-x="873" 
d="M753 138l-29 -138h-674l217 1045h157l-188 -907h517zM509 493l35 171h163l-35 -171h-163z" />
    <glyph glyph-name="Nacute.c2sc" horiz-adv-x="1189" 
d="M824 188q20 144 44 263l124 594h157l-217 -1045h-175l-276 609q-56 125 -102 250h-5q-15 -122 -44 -265l-123 -594h-157l217 1045h173l296 -655q40 -88 84 -202h4zM1001 1518l-234 -349h-134l192 349h176zM349 995z" />
    <glyph glyph-name="Ncaron.c2sc" horiz-adv-x="1189" 
d="M824 188q20 144 44 263l124 594h157l-217 -1045h-175l-276 609q-56 125 -102 250h-5q-15 -122 -44 -265l-123 -594h-157l217 1045h173l296 -655q40 -88 84 -202h4zM640 1169l-139 349h135l96 -246h4l197 246h145l-281 -349h-157zM294 995z" />
    <glyph glyph-name="Ntilde.c2sc" horiz-adv-x="1189" 
d="M824 188q20 144 44 263l124 594h157l-217 -1045h-175l-276 609q-56 125 -102 250h-5q-15 -122 -44 -265l-123 -594h-157l217 1045h173l296 -655q40 -88 84 -202h4zM1080 1427q-7 -45 -23 -83.5t-40.5 -67t-59 -45t-78.5 -16.5q-40 0 -72.5 11.5t-60.5 26.5
q-34 20 -66 38.5t-59 18.5q-33 0 -53.5 -24t-28.5 -63h-130q7 45 23 84t40.5 67.5t59 44.5t78.5 16q45 0 82.5 -15t70.5 -35q29 -17 54 -31t51 -14q33 0 53.5 24t28.5 63h130zM288 995z" />
    <glyph glyph-name="uni0145.c2sc" horiz-adv-x="1189" 
d="M824 188q20 144 44 263l124 594h157l-217 -1045h-175l-276 609q-56 125 -102 250h-5q-15 -122 -44 -265l-123 -594h-157l217 1045h173l296 -655q40 -88 84 -202h4zM453 -300q0 23 -15 35.5t-45 13.5h-10l27 129q13 1 25 1q81 0 128 -33.5t47 -95.5q0 -54 -28.5 -113
t-88.5 -127h-149q50 56 79.5 103.5t29.5 86.5z" />
    <glyph glyph-name="Ograve.c2sc" horiz-adv-x="1132" 
d="M664 932q-69 0 -128 -24.5t-106.5 -66.5t-83.5 -98t-60.5 -118.5t-37 -128t-12.5 -126.5q0 -125 60 -191t175 -66q70 0 129 24.5t107 66.5t84 98t60.5 118.5t37 128t12.5 126.5q0 125 -60.5 191t-176.5 66zM670 1070q91 0 163.5 -25t123.5 -73.5t78 -119.5t27 -163
q0 -79 -16 -162.5t-49 -162.5t-82 -150t-116 -124t-151 -84t-186 -31q-89 0 -160.5 25t-122 73.5t-77.5 119.5t-27 163q0 79 16 162.5t48.5 162.5t82 150t115.5 124t149 84t184 31zM709 1518l50 -349h-126l-88 349h164zM191 995z" />
    <glyph glyph-name="Oacute.c2sc" horiz-adv-x="1132" 
d="M664 932q-69 0 -128 -24.5t-106.5 -66.5t-83.5 -98t-60.5 -118.5t-37 -128t-12.5 -126.5q0 -125 60 -191t175 -66q70 0 129 24.5t107 66.5t84 98t60.5 118.5t37 128t12.5 126.5q0 125 -60.5 191t-176.5 66zM670 1070q91 0 163.5 -25t123.5 -73.5t78 -119.5t27 -163
q0 -79 -16 -162.5t-49 -162.5t-82 -150t-116 -124t-151 -84t-186 -31q-89 0 -160.5 25t-122 73.5t-77.5 119.5t-27 163q0 79 16 162.5t48.5 162.5t82 150t115.5 124t149 84t184 31zM983 1518l-234 -349h-134l192 349h176zM331 995z" />
    <glyph glyph-name="Ocircumflex.c2sc" horiz-adv-x="1132" 
d="M664 932q-69 0 -128 -24.5t-106.5 -66.5t-83.5 -98t-60.5 -118.5t-37 -128t-12.5 -126.5q0 -125 60 -191t175 -66q70 0 129 24.5t107 66.5t84 98t60.5 118.5t37 128t12.5 126.5q0 125 -60.5 191t-176.5 66zM670 1070q91 0 163.5 -25t123.5 -73.5t78 -119.5t27 -163
q0 -79 -16 -162.5t-49 -162.5t-82 -150t-116 -124t-151 -84t-186 -31q-89 0 -160.5 25t-122 73.5t-77.5 119.5t-27 163q0 79 16 162.5t48.5 162.5t82 150t115.5 124t149 84t184 31zM857 1518l139 -349h-135l-96 246h-4l-197 -246h-145l281 349h157zM289 995z" />
    <glyph glyph-name="Otilde.c2sc" horiz-adv-x="1132" 
d="M664 932q-69 0 -128 -24.5t-106.5 -66.5t-83.5 -98t-60.5 -118.5t-37 -128t-12.5 -126.5q0 -125 60 -191t175 -66q70 0 129 24.5t107 66.5t84 98t60.5 118.5t37 128t12.5 126.5q0 125 -60.5 191t-176.5 66zM670 1070q91 0 163.5 -25t123.5 -73.5t78 -119.5t27 -163
q0 -79 -16 -162.5t-49 -162.5t-82 -150t-116 -124t-151 -84t-186 -31q-89 0 -160.5 25t-122 73.5t-77.5 119.5t-27 163q0 79 16 162.5t48.5 162.5t82 150t115.5 124t149 84t184 31zM1079 1427q-7 -45 -23 -83.5t-40.5 -67t-59 -45t-78.5 -16.5q-40 0 -72.5 11.5t-60.5 26.5
q-34 20 -66 38.5t-59 18.5q-33 0 -53.5 -24t-28.5 -63h-130q7 45 23 84t40.5 67.5t59 44.5t78.5 16q45 0 82.5 -15t70.5 -35q29 -17 54 -31t51 -14q33 0 53.5 24t28.5 63h130zM287 995z" />
    <glyph glyph-name="Odieresis.c2sc" horiz-adv-x="1132" 
d="M664 932q-69 0 -128 -24.5t-106.5 -66.5t-83.5 -98t-60.5 -118.5t-37 -128t-12.5 -126.5q0 -125 60 -191t175 -66q70 0 129 24.5t107 66.5t84 98t60.5 118.5t37 128t12.5 126.5q0 125 -60.5 191t-176.5 66zM670 1070q91 0 163.5 -25t123.5 -73.5t78 -119.5t27 -163
q0 -79 -16 -162.5t-49 -162.5t-82 -150t-116 -124t-151 -84t-186 -31q-89 0 -160.5 25t-122 73.5t-77.5 119.5t-27 163q0 79 16 162.5t48.5 162.5t82 150t115.5 124t149 84t184 31zM443 1216l35 167h159l-35 -167h-159zM824 1216l35 167h159l-35 -167h-159zM271 995z" />
    <glyph glyph-name="Omacron.c2sc" horiz-adv-x="1132" 
d="M664 932q-69 0 -128 -24.5t-106.5 -66.5t-83.5 -98t-60.5 -118.5t-37 -128t-12.5 -126.5q0 -125 60 -191t175 -66q70 0 129 24.5t107 66.5t84 98t60.5 118.5t37 128t12.5 126.5q0 125 -60.5 191t-176.5 66zM670 1070q91 0 163.5 -25t123.5 -73.5t78 -119.5t27 -163
q0 -79 -16 -162.5t-49 -162.5t-82 -150t-116 -124t-151 -84t-186 -31q-89 0 -160.5 25t-122 73.5t-77.5 119.5t-27 163q0 79 16 162.5t48.5 162.5t82 150t115.5 124t149 84t184 31zM474 1345h540l-27 -129h-540zM271 995z" />
    <glyph glyph-name="Obreve.c2sc" horiz-adv-x="1132" 
d="M664 932q-69 0 -128 -24.5t-106.5 -66.5t-83.5 -98t-60.5 -118.5t-37 -128t-12.5 -126.5q0 -125 60 -191t175 -66q70 0 129 24.5t107 66.5t84 98t60.5 118.5t37 128t12.5 126.5q0 125 -60.5 191t-176.5 66zM670 1070q91 0 163.5 -25t123.5 -73.5t78 -119.5t27 -163
q0 -79 -16 -162.5t-49 -162.5t-82 -150t-116 -124t-151 -84t-186 -31q-89 0 -160.5 25t-122 73.5t-77.5 119.5t-27 163q0 79 16 162.5t48.5 162.5t82 150t115.5 124t149 84t184 31zM711 1302q78 0 132.5 42t85.5 133h136q-18 -67 -50 -121.5t-78 -93.5t-105.5 -60
t-131.5 -21q-69 0 -120 22.5t-80 59.5t-40 78.5t-11 80.5q0 27 4 55h127q-1 -17 -1 -33q1 -69 32.5 -105.5t99.5 -36.5zM269 995z" />
    <glyph glyph-name="Ohungarumlaut.c2sc" horiz-adv-x="1132" 
d="M664 932q-69 0 -128 -24.5t-106.5 -66.5t-83.5 -98t-60.5 -118.5t-37 -128t-12.5 -126.5q0 -125 60 -191t175 -66q70 0 129 24.5t107 66.5t84 98t60.5 118.5t37 128t12.5 126.5q0 125 -60.5 191t-176.5 66zM670 1070q91 0 163.5 -25t123.5 -73.5t78 -119.5t27 -163
q0 -79 -16 -162.5t-49 -162.5t-82 -150t-116 -124t-151 -84t-186 -31q-89 0 -160.5 25t-122 73.5t-77.5 119.5t-27 163q0 79 16 162.5t48.5 162.5t82 150t115.5 124t149 84t184 31zM840 1518l-234 -349h-134l192 349h176zM1149 1518l-256 -349h-134l214 349h176zM339 995z
" />
    <glyph glyph-name="Oslash.c2sc" horiz-adv-x="1132" 
d="M3 70l107 104q-35 78 -35 182q0 79 16 162.5t48.5 162.5t81 150t114 124t147.5 84t181 31q175 0 279 -86l88 86l93 -95l-100 -97q19 -40 29 -87t10 -102q0 -79 -16 -162.5t-48.5 -162.5t-81 -150t-114 -124t-147.5 -84t-181 -31q-180 0 -285 91l-93 -91zM480 113
q68 0 125.5 24.5t105 66.5t83.5 98t61 118.5t37.5 128t12.5 126.5q0 42 -8 80l-598 -582q62 -60 181 -60zM657 932q-68 0 -125.5 -24.5t-105 -66.5t-83.5 -98t-61 -118.5t-37.5 -128t-12.5 -126.5q0 -39 6 -72l594 579q-63 55 -175 55z" />
    <glyph glyph-name="Oslashacute.c2sc" horiz-adv-x="1132" 
d="M3 70l107 104q-35 78 -35 182q0 79 16 162.5t48.5 162.5t81 150t114 124t147.5 84t181 31q175 0 279 -86l88 86l93 -95l-100 -97q19 -40 29 -87t10 -102q0 -79 -16 -162.5t-48.5 -162.5t-81 -150t-114 -124t-147.5 -84t-181 -31q-180 0 -285 91l-93 -91zM480 113
q68 0 125.5 24.5t105 66.5t83.5 98t61 118.5t37.5 128t12.5 126.5q0 42 -8 80l-598 -582q62 -60 181 -60zM657 932q-68 0 -125.5 -24.5t-105 -66.5t-83.5 -98t-61 -118.5t-37.5 -128t-12.5 -126.5q0 -39 6 -72l594 579q-63 55 -175 55zM984 1518l-234 -349h-134l192 349h176
zM332 995z" />
    <glyph glyph-name="OE.c2sc" horiz-adv-x="1648" 
d="M961 138h517l-29 -138h-674l27 129h-4q-66 -69 -151 -111.5t-196 -42.5q-84 0 -153.5 25t-119 73.5t-76.5 119.5t-27 163q0 79 16 162.5t48.5 162.5t81 150t114 124t147.5 84t181 31q111 0 183.5 -42t114.5 -115h4l27 132h646l-30 -138h-488l-63 -302h438l-27 -138h-439z
M664 932q-69 0 -128 -24.5t-106.5 -66.5t-83.5 -98t-60.5 -118.5t-37 -128t-12.5 -126.5q0 -125 60 -191t175 -66q70 0 129 24.5t107 66.5t84 98t60.5 118.5t37 128t12.5 126.5q0 125 -60.5 191t-176.5 66z" />
    <glyph glyph-name="Racute.c2sc" horiz-adv-x="1015" 
d="M294 421l-87 -421h-157l217 1045h342q69 0 121 -9.5t92 -27.5q68 -31 105.5 -86.5t37.5 -133.5q0 -61 -22 -117.5t-65.5 -103t-107.5 -80t-148 -49.5v-4l236 -434h-169l-220 421h-175zM323 559h148q163 0 248 57.5t85 164.5q0 65 -52 95.5t-138 30.5h-219zM900 1518
l-234 -349h-134l192 349h176zM248 995z" />
    <glyph glyph-name="Rcaron.c2sc" horiz-adv-x="1015" 
d="M294 421l-87 -421h-157l217 1045h342q69 0 121 -9.5t92 -27.5q68 -31 105.5 -86.5t37.5 -133.5q0 -61 -22 -117.5t-65.5 -103t-107.5 -80t-148 -49.5v-4l236 -434h-169l-220 421h-175zM323 559h148q163 0 248 57.5t85 164.5q0 65 -52 95.5t-138 30.5h-219zM533 1169
l-139 349h135l96 -246h4l197 246h145l-281 -349h-157zM187 995z" />
    <glyph glyph-name="uni0156.c2sc" horiz-adv-x="1015" 
d="M294 421l-87 -421h-157l217 1045h342q69 0 121 -9.5t92 -27.5q68 -31 105.5 -86.5t37.5 -133.5q0 -61 -22 -117.5t-65.5 -103t-107.5 -80t-148 -49.5v-4l236 -434h-169l-220 421h-175zM323 559h148q163 0 248 57.5t85 164.5q0 65 -52 95.5t-138 30.5h-219zM392 -300
q0 23 -15 35.5t-45 13.5h-10l27 129q13 1 25 1q81 0 128 -33.5t47 -95.5q0 -54 -28.5 -113t-88.5 -127h-149q50 56 79.5 103.5t29.5 86.5z" />
    <glyph glyph-name="Sacute.c2sc" horiz-adv-x="925" 
d="M161 752q0 69 25.5 127.5t74 101t118.5 66t158 23.5q98 0 184.5 -18.5t143.5 -42.5l-28 -141q-61 28 -139 46t-151 18q-115 0 -170.5 -44.5t-55.5 -125.5q0 -36 15 -60.5t40.5 -42t59 -29.5t70.5 -24q49 -15 99.5 -33.5t92 -49.5t67 -81t25.5 -123q0 -77 -29 -140.5
t-85.5 -108.5t-139 -70t-189.5 -25q-57 0 -106 6.5t-89 16.5t-70.5 23t-51.5 25l29 138q26 -16 58.5 -29t70 -22.5t79 -14.5t82.5 -5q142 0 211 53t69 145q0 41 -17.5 68t-47 46t-67 32t-78.5 26q-48 15 -93.5 33t-82.5 47.5t-59.5 74.5t-22.5 114zM870 1518l-234 -349h-134
l192 349h176zM218 995z" />
    <glyph glyph-name="Scircumflex.c2sc" horiz-adv-x="925" 
d="M161 752q0 69 25.5 127.5t74 101t118.5 66t158 23.5q98 0 184.5 -18.5t143.5 -42.5l-28 -141q-61 28 -139 46t-151 18q-115 0 -170.5 -44.5t-55.5 -125.5q0 -36 15 -60.5t40.5 -42t59 -29.5t70.5 -24q49 -15 99.5 -33.5t92 -49.5t67 -81t25.5 -123q0 -77 -29 -140.5
t-85.5 -108.5t-139 -70t-189.5 -25q-57 0 -106 6.5t-89 16.5t-70.5 23t-51.5 25l29 138q26 -16 58.5 -29t70 -22.5t79 -14.5t82.5 -5q142 0 211 53t69 145q0 41 -17.5 68t-47 46t-67 32t-78.5 26q-48 15 -93.5 33t-82.5 47.5t-59.5 74.5t-22.5 114zM714 1518l139 -349h-135
l-96 246h-4l-197 -246h-145l281 349h157zM146 995z" />
    <glyph glyph-name="Scaron.c2sc" horiz-adv-x="925" 
d="M161 752q0 69 25.5 127.5t74 101t118.5 66t158 23.5q98 0 184.5 -18.5t143.5 -42.5l-28 -141q-61 28 -139 46t-151 18q-115 0 -170.5 -44.5t-55.5 -125.5q0 -36 15 -60.5t40.5 -42t59 -29.5t70.5 -24q49 -15 99.5 -33.5t92 -49.5t67 -81t25.5 -123q0 -77 -29 -140.5
t-85.5 -108.5t-139 -70t-189.5 -25q-57 0 -106 6.5t-89 16.5t-70.5 23t-51.5 25l29 138q26 -16 58.5 -29t70 -22.5t79 -14.5t82.5 -5q142 0 211 53t69 145q0 41 -17.5 68t-47 46t-67 32t-78.5 26q-48 15 -93.5 33t-82.5 47.5t-59.5 74.5t-22.5 114zM495 1169l-139 349h135
l96 -246h4l197 246h145l-281 -349h-157zM149 995z" />
    <glyph glyph-name="Scedilla.c2sc" horiz-adv-x="925" 
d="M161 752q0 68 25.5 127t74 101.5t118.5 66t158 23.5q100 0 185.5 -18.5t142.5 -42.5l-28 -141q-60 27 -137 45.5t-153 18.5q-114 0 -170 -44.5t-56 -125.5q0 -36 15 -60.5t40.5 -42t59 -29.5t70.5 -24q49 -15 99.5 -33.5t91.5 -49.5t67 -79.5t26 -124.5q0 -73 -26 -133.5
t-76 -105t-123 -71t-168 -32.5l-44 -105q35 -4 64.5 -16t51 -31t33.5 -45.5t12 -59.5q0 -46 -17 -84.5t-51.5 -66.5t-85.5 -43.5t-119 -15.5q-46 0 -87.5 7.5t-64.5 16.5l24 112q23 -9 57 -15t67 -6q67 0 104 23.5t37 61.5q0 20 -10 33.5t-32 22.5t-57.5 13.5t-87.5 5.5
l82 193q-86 8 -147.5 27.5t-95.5 40.5l29 138q26 -16 58.5 -29t70 -22.5t78.5 -14.5t83 -5q142 0 211 53t69 145q0 41 -17.5 68t-47 46t-67 32t-78.5 26q-47 15 -93 33t-83 47.5t-59.5 75t-22.5 113.5z" />
    <glyph glyph-name="uni0218.c2sc" horiz-adv-x="925" 
d="M161 752q0 69 25.5 127.5t74 101t118.5 66t158 23.5q98 0 184.5 -18.5t143.5 -42.5l-28 -141q-61 28 -139 46t-151 18q-115 0 -170.5 -44.5t-55.5 -125.5q0 -36 15 -60.5t40.5 -42t59 -29.5t70.5 -24q49 -15 99.5 -33.5t92 -49.5t67 -81t25.5 -123q0 -77 -29 -140.5
t-85.5 -108.5t-139 -70t-189.5 -25q-57 0 -106 6.5t-89 16.5t-70.5 23t-51.5 25l29 138q26 -16 58.5 -29t70 -22.5t79 -14.5t82.5 -5q142 0 211 53t69 145q0 41 -17.5 68t-47 46t-67 32t-78.5 26q-48 15 -93.5 33t-82.5 47.5t-59.5 74.5t-22.5 114zM298 -300q0 23 -15 35.5
t-45 13.5h-10l27 129q13 1 25 1q81 0 128 -33.5t47 -95.5q0 -54 -28.5 -113t-88.5 -127h-149q50 56 79.5 103.5t29.5 86.5z" />
    <glyph glyph-name="Tcaron.c2sc" horiz-adv-x="910" 
d="M431 0h-157l188 907h-347l29 138h851l-29 -138h-347zM504 1169l-139 349h135l96 -246h4l197 246h145l-281 -349h-157zM158 995z" />
    <glyph glyph-name="uni0162.c2sc" horiz-adv-x="910" 
d="M431 0h-157l188 907h-347l29 138h851l-29 -138h-347zM294 -300q0 23 -15 35.5t-45 13.5h-10l27 129q13 1 25 1q81 0 128 -33.5t47 -95.5q0 -54 -28.5 -113t-88.5 -127h-149q50 56 79.5 103.5t29.5 86.5z" />
    <glyph glyph-name="Tbar.c2sc" horiz-adv-x="910" 
d="M214 605h185l63 302h-347l29 138h851l-29 -138h-347l-63 -302h199l-28 -138h-199l-97 -467h-157l97 467h-186z" />
    <glyph glyph-name="Ugrave.c2sc" horiz-adv-x="1112" 
d="M464 113q77 0 134.5 21.5t98.5 61t67.5 96.5t41.5 128l129 625h157l-131 -632q-8 -38 -15.5 -68t-15 -53.5t-16 -43t-17.5 -36.5q-58 -108 -166.5 -172.5t-274.5 -64.5q-80 0 -147 18t-115.5 56t-75.5 96t-27 139q0 27 3.5 57.5t11.5 69.5l131 634h157l-133 -639
q-13 -59 -13 -106q0 -92 52 -139.5t164 -47.5zM686 1518l50 -349h-126l-88 349h164zM168 995z" />
    <glyph glyph-name="Uacute.c2sc" horiz-adv-x="1112" 
d="M464 113q77 0 134.5 21.5t98.5 61t67.5 96.5t41.5 128l129 625h157l-131 -632q-8 -38 -15.5 -68t-15 -53.5t-16 -43t-17.5 -36.5q-58 -108 -166.5 -172.5t-274.5 -64.5q-80 0 -147 18t-115.5 56t-75.5 96t-27 139q0 27 3.5 57.5t11.5 69.5l131 634h157l-133 -639
q-13 -59 -13 -106q0 -92 52 -139.5t164 -47.5zM969 1518l-234 -349h-134l192 349h176zM317 995z" />
    <glyph glyph-name="Ucircumflex.c2sc" horiz-adv-x="1112" 
d="M464 113q77 0 134.5 21.5t98.5 61t67.5 96.5t41.5 128l129 625h157l-131 -632q-8 -38 -15.5 -68t-15 -53.5t-16 -43t-17.5 -36.5q-58 -108 -166.5 -172.5t-274.5 -64.5q-80 0 -147 18t-115.5 56t-75.5 96t-27 139q0 27 3.5 57.5t11.5 69.5l131 634h157l-133 -639
q-13 -59 -13 -106q0 -92 52 -139.5t164 -47.5zM820 1518l139 -349h-135l-96 246h-4l-197 -246h-145l281 349h157zM252 995z" />
    <glyph glyph-name="Utilde.c2sc" horiz-adv-x="1112" 
d="M464 113q77 0 134.5 21.5t98.5 61t67.5 96.5t41.5 128l129 625h157l-131 -632q-8 -38 -15.5 -68t-15 -53.5t-16 -43t-17.5 -36.5q-58 -108 -166.5 -172.5t-274.5 -64.5q-80 0 -147 18t-115.5 56t-75.5 96t-27 139q0 27 3.5 57.5t11.5 69.5l131 634h157l-133 -639
q-13 -59 -13 -106q0 -92 52 -139.5t164 -47.5zM1039 1427q-7 -45 -23 -83.5t-40.5 -67t-59 -45t-78.5 -16.5q-40 0 -72.5 11.5t-60.5 26.5q-34 20 -66 38.5t-59 18.5q-33 0 -53.5 -24t-28.5 -63h-130q7 45 23 84t40.5 67.5t59 44.5t78.5 16q45 0 82.5 -15t70.5 -35
q29 -17 54 -31t51 -14q33 0 53.5 24t28.5 63h130zM247 995z" />
    <glyph glyph-name="Udieresis.c2sc" horiz-adv-x="1112" 
d="M464 113q77 0 134.5 21.5t98.5 61t67.5 96.5t41.5 128l129 625h157l-131 -632q-8 -38 -15.5 -68t-15 -53.5t-16 -43t-17.5 -36.5q-58 -108 -166.5 -172.5t-274.5 -64.5q-80 0 -147 18t-115.5 56t-75.5 96t-27 139q0 27 3.5 57.5t11.5 69.5l131 634h157l-133 -639
q-13 -59 -13 -106q0 -92 52 -139.5t164 -47.5zM422 1216l35 167h159l-35 -167h-159zM803 1216l35 167h159l-35 -167h-159zM250 995z" />
    <glyph glyph-name="Umacron.c2sc" horiz-adv-x="1112" 
d="M464 113q77 0 134.5 21.5t98.5 61t67.5 96.5t41.5 128l129 625h157l-131 -632q-8 -38 -15.5 -68t-15 -53.5t-16 -43t-17.5 -36.5q-58 -108 -166.5 -172.5t-274.5 -64.5q-80 0 -147 18t-115.5 56t-75.5 96t-27 139q0 27 3.5 57.5t11.5 69.5l131 634h157l-133 -639
q-13 -59 -13 -106q0 -92 52 -139.5t164 -47.5zM447 1345h540l-27 -129h-540zM244 995z" />
    <glyph glyph-name="Ubreve.c2sc" horiz-adv-x="1112" 
d="M464 113q77 0 134.5 21.5t98.5 61t67.5 96.5t41.5 128l129 625h157l-131 -632q-8 -38 -15.5 -68t-15 -53.5t-16 -43t-17.5 -36.5q-58 -108 -166.5 -172.5t-274.5 -64.5q-80 0 -147 18t-115.5 56t-75.5 96t-27 139q0 27 3.5 57.5t11.5 69.5l131 634h157l-133 -639
q-13 -59 -13 -106q0 -92 52 -139.5t164 -47.5zM692 1302q78 0 132.5 42t85.5 133h136q-18 -67 -50 -121.5t-78 -93.5t-105.5 -60t-131.5 -21q-69 0 -120 22.5t-80 59.5t-40 78.5t-11 80.5q0 27 4 55h127q-1 -17 -1 -33q1 -69 32.5 -105.5t99.5 -36.5zM250 995z" />
    <glyph glyph-name="Uring.c2sc" horiz-adv-x="1112" 
d="M464 113q77 0 134.5 21.5t98.5 61t67.5 96.5t41.5 128l129 625h157l-131 -632q-8 -38 -15.5 -68t-15 -53.5t-16 -43t-17.5 -36.5q-58 -108 -166.5 -172.5t-274.5 -64.5q-80 0 -147 18t-115.5 56t-75.5 96t-27 139q0 27 3.5 57.5t11.5 69.5l131 634h157l-133 -639
q-13 -59 -13 -106q0 -92 52 -139.5t164 -47.5zM734 1535q100 0 152.5 -45.5t52.5 -121.5q0 -38 -16 -77.5t-48 -71.5t-80.5 -52.5t-114.5 -20.5q-100 0 -152.5 45.5t-52.5 121.5q0 38 16 77.5t48 71.5t80.5 52.5t114.5 20.5zM688 1244q30 0 53.5 10t40 26t25 37.5t8.5 43.5
q0 34 -22 55t-67 21q-30 0 -53.5 -10t-40 -26t-25 -37t-8.5 -44q0 -34 22 -55t67 -21zM246 995z" />
    <glyph glyph-name="Uhungarumlaut.c2sc" horiz-adv-x="1112" 
d="M464 113q77 0 134.5 21.5t98.5 61t67.5 96.5t41.5 128l129 625h157l-131 -632q-8 -38 -15.5 -68t-15 -53.5t-16 -43t-17.5 -36.5q-58 -108 -166.5 -172.5t-274.5 -64.5q-80 0 -147 18t-115.5 56t-75.5 96t-27 139q0 27 3.5 57.5t11.5 69.5l131 634h157l-133 -639
q-13 -59 -13 -106q0 -92 52 -139.5t164 -47.5zM829 1518l-234 -349h-134l192 349h176zM1138 1518l-256 -349h-134l214 349h176zM328 995z" />
    <glyph glyph-name="Uogonek.c2sc" horiz-adv-x="1112" 
d="M545 -5q-48 -17 -119 -18q-70 0 -131.5 19t-106.5 57.5t-71 96t-26 134.5q0 27 3.5 57.5t11.5 69.5l131 634h157l-133 -639q-13 -59 -13 -106q0 -91 51 -139t156 -48q79 0 139 21.5t102 61t68.5 96.5t41.5 128l129 625h157l-134 -645q-13 -61 -34.5 -113.5t-49 -96.5
t-60 -80t-66.5 -65q-47 -39 -88.5 -72t-93 -81t-77 -91t-25.5 -82q0 -74 94 -74q28 0 59 5.5t68 17.5l-28 -134q-31 -13 -66 -18.5t-69 -5.5q-96 0 -149.5 45.5t-53.5 129.5q0 46 19 90.5t50.5 83t72.5 72t86 60.5z" />
    <glyph glyph-name="Wgrave.c2sc" horiz-adv-x="1501" 
d="M829 560q-7 155 -7 299h-5q-49 -144 -100 -266l-250 -593h-169l-148 1045h152l74 -573q23 -186 30 -294h4q38 107 111 286l239 581h179l26 -533q9 -186 9 -334h4q44 115 131 290l298 577h167l-552 -1045h-167zM889 1518l50 -349h-126l-88 349h164zM371 995z" />
    <glyph glyph-name="Wacute.c2sc" horiz-adv-x="1501" 
d="M829 560q-7 155 -7 299h-5q-49 -144 -100 -266l-250 -593h-169l-148 1045h152l74 -573q23 -186 30 -294h4q38 107 111 286l239 581h179l26 -533q9 -186 9 -334h4q44 115 131 290l298 577h167l-552 -1045h-167zM1162 1518l-234 -349h-134l192 349h176zM510 995z" />
    <glyph glyph-name="Wcircumflex.c2sc" horiz-adv-x="1501" 
d="M829 560q-7 155 -7 299h-5q-49 -144 -100 -266l-250 -593h-169l-148 1045h152l74 -573q23 -186 30 -294h4q38 107 111 286l239 581h179l26 -533q9 -186 9 -334h4q44 115 131 290l298 577h167l-552 -1045h-167zM1014 1518l139 -349h-135l-96 246h-4l-197 -246h-145
l281 349h157zM446 995z" />
    <glyph glyph-name="Wdieresis.c2sc" horiz-adv-x="1501" 
d="M829 560q-7 155 -7 299h-5q-49 -144 -100 -266l-250 -593h-169l-148 1045h152l74 -573q23 -186 30 -294h4q38 107 111 286l239 581h179l26 -533q9 -186 9 -334h4q44 115 131 290l298 577h167l-552 -1045h-167zM619 1216l35 167h159l-35 -167h-159zM1000 1216l35 167h159
l-35 -167h-159zM447 995z" />
    <glyph glyph-name="Ygrave.c2sc" horiz-adv-x="927" 
d="M138 1045h155l190 -494h4l342 494h177l-456 -645l-84 -400h-157l84 405zM596 1518l50 -349h-126l-88 349h164zM78 995z" />
    <glyph glyph-name="Yacute.c2sc" horiz-adv-x="927" 
d="M138 1045h155l190 -494h4l342 494h177l-456 -645l-84 -400h-157l84 405zM876 1518l-234 -349h-134l192 349h176zM224 995z" />
    <glyph glyph-name="Ycircumflex.c2sc" horiz-adv-x="927" 
d="M138 1045h155l190 -494h4l342 494h177l-456 -645l-84 -400h-157l84 405zM722 1518l139 -349h-135l-96 246h-4l-197 -246h-145l281 349h157zM154 995z" />
    <glyph glyph-name="Ydieresis.c2sc" horiz-adv-x="927" 
d="M138 1045h155l190 -494h4l342 494h177l-456 -645l-84 -400h-157l84 405zM322 1216l35 167h159l-35 -167h-159zM703 1216l35 167h159l-35 -167h-159zM150 995z" />
    <glyph glyph-name="Zacute.c2sc" horiz-adv-x="939" 
d="M713 907h-535l29 138h747l-21 -99l-702 -804v-4h559l-28 -138h-772l20 99l703 804v4zM870 1518l-234 -349h-134l192 349h176zM218 995z" />
    <glyph glyph-name="Zcaron.c2sc" horiz-adv-x="939" 
d="M713 907h-535l29 138h747l-21 -99l-702 -804v-4h559l-28 -138h-772l20 99l703 804v4zM515 1169l-139 349h135l96 -246h4l197 246h145l-281 -349h-157zM169 995z" />
    <glyph glyph-name="Zdotaccent.c2sc" horiz-adv-x="939" 
d="M713 907h-535l29 138h747l-21 -99l-702 -804v-4h559l-28 -138h-772l20 99l703 804v4zM507 1216l35 171h163l-35 -171h-163zM148 995z" />
    <glyph glyph-name="Eng.c2sc" horiz-adv-x="1189" 
d="M1149 1045l-239 -1149q-16 -77 -42.5 -135t-67.5 -96.5t-99 -58t-137 -19.5q-23 0 -47 2.5t-40 7.5l26 132q9 -3 24 -5t31 -2q49 0 83 13t57 41t39.5 74t30.5 112l4 19l-289 628q-58 125 -104 250h-5q-15 -122 -44 -265l-123 -594h-157l217 1045h173l296 -646
q41 -88 86 -202h4q20 144 44 263l122 585h157z" />
    <glyph glyph-name="Eth.c2sc" horiz-adv-x="1149" 
d="M84 605h117l92 440h324q109 0 195 -24.5t145 -74t90.5 -124t31.5 -173.5q0 -138 -44.5 -257t-129 -206t-205.5 -136.5t-274 -49.5h-350l97 467h-118zM918 658q0 79 -26.5 127.5t-70.5 75.5t-101.5 36.5t-119.5 9.5h-179l-63 -302h282l-28 -138h-282l-68 -329h148
q137 0 233.5 42.5t157.5 114t89 166t28 197.5z" />
    <glyph glyph-name="Thorn.c2sc" horiz-adv-x="935" 
d="M382 843h151q88 0 154 -21t110 -57t66 -83t22 -99q0 -62 -25.5 -126t-84 -116t-153 -85t-232.5 -33q-33 0 -69 2t-66 7l-48 -232h-157l217 1045h157zM285 370q24 -5 57 -7t56 -2q106 0 170 22t98.5 55t46 71t11.5 70q0 62 -55 94t-151 32h-164z" />
    <glyph glyph-name="a.superior" horiz-adv-x="814" 
d="M511 1123q-58 0 -102 -36.5t-73.5 -91.5t-44.5 -119t-15 -119q0 -44 7.5 -72t21 -43.5t31.5 -21t38 -5.5q38 0 75 19.5t69.5 57.5t58.5 94t41 130l29 139q-22 26 -59 47t-77 21zM493 1244q59 0 104.5 -25.5t69.5 -68.5h3l33 76h120l-111 -530q-4 -17 -5 -31.5t3.5 -24.5
t16 -15.5t33.5 -5.5q24 0 57 5l-24 -116q-42 -7 -79 -7q-69 0 -105 29.5t-37 97.5h-4q-51 -75 -112.5 -104.5t-126.5 -29.5q-41 0 -76.5 15t-61.5 45t-41 75.5t-15 107.5q0 108 28.5 201t77 161t114 106.5t138.5 38.5z" />
    <glyph glyph-name="b.superior" horiz-adv-x="765" 
d="M360 1133q33 47 84.5 79t119.5 32q40 0 78.5 -13.5t69 -43.5t49.5 -78t19 -114q0 -58 -11 -118t-32.5 -115.5t-55.5 -104.5t-79 -85t-103 -57t-129 -21q-63 0 -111.5 21t-78.5 59.5t-40 93.5t4 123l155 748h142l-84 -406h3zM284 784q-8 -37 -7.5 -68t12 -53.5t35 -35
t62.5 -12.5q63 0 112 35.5t80.5 90t46.5 119.5t15 123q0 30 -5.5 56t-19 44.5t-36 29t-56.5 10.5q-33 0 -66 -13.5t-62.5 -41.5t-52 -69t-33.5 -97z" />
    <glyph glyph-name="c.superior" horiz-adv-x="689" 
d="M711 1087q-33 16 -76.5 26t-78.5 10q-51 0 -91.5 -17t-71.5 -45.5t-53 -65t-36.5 -75t-21 -75.5t-6.5 -68q0 -46 12 -77t34 -50t52 -27t67 -8q52 0 107.5 14.5t89.5 33.5l-25 -129q-86 -38 -199 -40q-67 0 -119.5 19.5t-87.5 55.5t-53.5 86.5t-18.5 112.5q0 84 26.5 169
t78.5 153t129 111t177 43q102 -2 188 -39z" />
    <glyph glyph-name="d.superior" horiz-adv-x="812" 
d="M647 1055q-22 26 -59 47t-77 21q-58 0 -102 -36.5t-73.5 -91.5t-44.5 -119t-15 -119q0 -44 7.5 -72t21 -43.5t31.5 -21t38 -5.5q38 0 75 19.5t69.5 57.5t58.5 94.5t41 129.5zM712 696q-4 -17 -5 -31.5t3.5 -24.5t16 -15.5t33.5 -5.5q25 0 57 5l-24 -116q-42 -7 -79 -7
q-69 0 -105 29.5t-37 97.5h-4q-51 -75 -112.5 -104.5t-126.5 -29.5q-41 0 -76.5 15t-61.5 45t-41 75.5t-15 107.5q0 108 28.5 201t77 161t114 106.5t138.5 38.5q57 0 101.5 -24t67.5 -63h3l80 382h142z" />
    <glyph glyph-name="e.superior" horiz-adv-x="740" 
d="M771 1060q0 -68 -32.5 -115t-95.5 -76.5t-155 -43.5t-211 -16q-2 -24 -2 -33q0 -83 47.5 -122t145.5 -39q25 0 53.5 4t56.5 10.5t54 15t46 18.5l-25 -129q-38 -17 -95.5 -28.5t-119.5 -11.5q-154 0 -228.5 75t-74.5 208q0 88 26.5 172t78 149.5t127.5 105.5t174 40
q48 0 90 -11t73 -33.5t49 -57t18 -82.5zM300 931q74 1 134.5 7t104.5 20t68 38t24 61q0 34 -25 50t-67 16q-40 0 -77.5 -13.5t-69 -38t-55.5 -60t-37 -80.5z" />
    <glyph glyph-name="f.superior" horiz-adv-x="527" 
d="M284 437q-16 -76 -45.5 -127t-70.5 -82t-92 -44t-109 -13q-34 0 -65.5 5t-51.5 12l24 119q17 -6 40 -10.5t49 -4.5q37 0 66 8t52 28t39.5 55t28.5 90l133 636h-132l25 117h131l17 79q13 62 41 109t67.5 79t89 48t105.5 16q39 0 72 -5.5t54 -11.5l-23 -116
q-23 5 -47.5 8.5t-48.5 3.5q-72 0 -114.5 -36.5t-59.5 -120.5l-11 -53h196l-25 -117h-195z" />
    <glyph glyph-name="g.superior" horiz-adv-x="794" 
d="M512 1123q-56 0 -101 -36.5t-74.5 -91.5t-44.5 -119t-15 -119q0 -44 7.5 -72t21 -43.5t31.5 -21t38 -5.5q38 0 75 19.5t69.5 57.5t58.5 94t41 130l29 139q-22 27 -59.5 47.5t-76.5 20.5zM553 613q-16 -29 -41 -51t-54.5 -37t-62.5 -23t-65 -8q-41 0 -76.5 15t-61.5 45
t-41 75.5t-15 107.5q0 108 28.5 201t77 161t114.5 106.5t138 38.5q58 0 104 -25.5t70 -68.5h3l33 76h120l-149 -718q-35 -171 -135 -254t-272 -83q-60 0 -118 10.5t-106 28.5l23 121q45 -18 94 -28.5t97 -10.5q65 0 111.5 13.5t79.5 42.5t54.5 74.5t35.5 109.5l18 81h-4z
" />
    <glyph glyph-name="h.superior" horiz-adv-x="818" 
d="M380 1129h4q46 54 105 84.5t128 30.5q95 0 150.5 -56t55.5 -151q0 -17 -2 -35t-6 -38l-95 -451h-142l91 433q3 14 6.5 35.5t3.5 36.5q0 52 -27.5 76.5t-78.5 24.5q-44 0 -84 -18.5t-72 -50.5t-54.5 -75.5t-33.5 -94.5l-77 -367h-142l213 1026h142z" />
    <glyph glyph-name="i.superior" horiz-adv-x="377" 
d="M110 513l149 713h142l-149 -713h-142zM294 1410l30 147h148l-30 -147h-148z" />
    <glyph glyph-name="j.superior" horiz-adv-x="396" 
d="M244 384q-10 -51 -30.5 -90.5t-52.5 -66.5t-77.5 -41.5t-107.5 -14.5q-40 0 -72.5 5t-53.5 13l24 118q21 -7 46.5 -11t43.5 -4q39 0 65 8t42 27t26 50.5t20 79.5l161 769h142zM313 1410l30 147h148l-30 -147h-148z" />
    <glyph glyph-name="k.superior" horiz-adv-x="762" 
d="M706 622q16 0 24.5 1t15.5 3l-25 -122q-10 -2 -23.5 -3.5t-25.5 -1.5q-58 0 -99 26t-69.5 65.5t-49.5 86.5t-39.5 89.5t-38.5 74.5t-47 41l-77 -369h-142l226 1086h142l-142 -685h4l337 312h180l-361 -333q16 -16 28 -42t24 -56t26 -61t32 -56t42.5 -40.5t57.5 -15.5z
" />
    <glyph glyph-name="l.superior" horiz-adv-x="406" 
d="M377 515q-21 -6 -49.5 -10t-54.5 -4q-31 0 -57.5 6t-46.5 20t-31 36.5t-11 55.5q0 23 6 51l181 869h142l-178 -856q-3 -16 -3 -25q0 -15 9.5 -22.5t33.5 -7.5q17 0 43.5 4t41.5 8z" />
    <glyph glyph-name="m.superior" horiz-adv-x="1227" 
d="M1041 1244q45 0 80.5 -14.5t60 -39.5t37.5 -59.5t13 -74.5q0 -31 -3.5 -56.5t-9.5 -52.5l-91 -434h-142l91 433q3 14 6.5 38t3.5 48q0 17 -4 32.5t-13.5 27.5t-26 19.5t-42.5 7.5q-44 0 -82.5 -18.5t-68.5 -50.5t-51 -75.5t-32 -94.5l-77 -367h-142l91 433q3 14 6.5 37.5
t3.5 48.5q0 17 -4 32.5t-13.5 27.5t-26 19.5t-42.5 7.5q-44 0 -82 -18.5t-68 -50.5t-51.5 -75.5t-32.5 -94.5l-77 -367h-142l149 713h120v-97h4q46 54 100 84.5t124 30.5q76 0 119.5 -40t54.5 -106h4q25 37 55.5 64.5t64 45.5t68.5 27t68 9z" />
    <glyph glyph-name="uni207F" unicode="&#x207f;" horiz-adv-x="818" 
d="M252 513h-142l149 713h120v-97h4q46 54 105 84.5t129 30.5q95 0 150.5 -56t55.5 -151q0 -17 -2 -35t-6 -38l-95 -451h-142l91 433q3 14 6.5 36t3.5 36q0 52 -27.5 76.5t-78.5 24.5q-44 0 -83.5 -18.5t-71.5 -50.5t-55 -75.5t-34 -94.5z" />
    <glyph glyph-name="o.superior" horiz-adv-x="778" 
d="M520 1123q-60 0 -106 -32.5t-76.5 -83t-46 -112.5t-15.5 -121q0 -74 33 -116.5t104 -42.5q60 0 106 32.5t76.5 83t46 112.5t15.5 121q0 74 -33 116.5t-104 42.5zM532 1244q59 0 108 -18t84 -52t54.5 -84t19.5 -115q0 -50 -10 -105t-30.5 -108.5t-52.5 -102t-76 -85
t-101 -58.5t-128 -22q-59 0 -107.5 18t-83.5 52t-54.5 84.5t-19.5 114.5q0 50 10 105t30.5 108.5t52 102t75.5 85t101 58.5t128 22z" />
    <glyph glyph-name="p.superior" horiz-adv-x="778" 
d="M37 189l216 1037h120v-97h4q31 49 84 82t121 33q40 0 78.5 -14t69 -45.5t49.5 -81.5t19 -122q0 -104 -31.5 -195t-85 -156t-122 -100.5t-139.5 -35.5q-50 0 -92 16.5t-69 45.5h-4l-76 -367h-142zM412 615q54 0 100.5 32.5t78.5 84.5t49.5 116t17.5 127q0 73 -28.5 110.5
t-88.5 37.5q-33 0 -66 -13.5t-62 -41.5t-51.5 -69t-34.5 -97l-49 -235q24 -23 58 -37.5t76 -14.5z" />
    <glyph glyph-name="q.superior" horiz-adv-x="793" 
d="M511 1123q-56 0 -101.5 -37t-74.5 -91.5t-44 -118.5t-15 -119q0 -44 7.5 -72t21.5 -43.5t31.5 -21t37.5 -5.5q38 0 75 19.5t69.5 57.5t58.5 94t41 130l29 139q-22 27 -60 47.5t-76 20.5zM607 189h-142l89 421h-4q-16 -28 -40.5 -49.5t-54 -36.5t-62 -22.5t-64.5 -7.5
q-41 0 -76.5 15t-61.5 45t-41 75.5t-15 107.5q0 106 28.5 200t77 162t114 106.5t138.5 38.5q58 0 104 -25.5t70 -68.5h3l33 76h120z" />
    <glyph glyph-name="r.superior" horiz-adv-x="519" 
d="M329 880l-77 -367h-142l149 713h120v-97h4q40 51 93.5 83t120.5 32q26 0 48 -4l-28 -135q-23 4 -45 4q-50 0 -91 -19t-71.5 -50.5t-51 -73t-29.5 -86.5z" />
    <glyph glyph-name="s.superior" horiz-adv-x="654" 
d="M325 1031q0 -24 11 -40t29.5 -28t42.5 -20.5t50 -17.5q31 -10 62 -23.5t56 -34.5t40 -54t15 -78q0 -59 -25 -104t-67 -75.5t-98.5 -46t-119.5 -15.5q-78 0 -132.5 15.5t-89.5 33.5l25 117q41 -21 88.5 -33t104.5 -12q80 0 128.5 29t48.5 80q0 23 -12.5 38t-33 26t-47 20
t-54.5 19q-31 11 -58.5 25t-50 35.5t-36.5 53t-14 77.5q0 56 21.5 98.5t57.5 71t83 42.5t98 14q55 0 117.5 -12.5t117.5 -37.5l-26 -116q-45 19 -97.5 32t-109.5 13q-60 0 -92.5 -24t-32.5 -68z" />
    <glyph glyph-name="t.superior" horiz-adv-x="570" 
d="M509 512q-20 -6 -60 -12t-80 -6q-96 0 -142 39.5t-46 113.5q0 15 1.5 30t6.5 38l81 394h-135l25 117h135l40 195h142l-40 -195h193l-24 -117h-194l-82 -396q-2 -12 -3.5 -22.5t-1.5 -19.5q0 -30 18 -43t59 -13q29 0 60 4t71 14z" />
    <glyph glyph-name="u.superior" horiz-adv-x="820" 
d="M425 494q-67 0 -117.5 17t-84.5 47.5t-50.5 73t-16.5 93.5q0 37 8 75l89 426h142l-87 -416q-8 -38 -8 -67q0 -26 6.5 -49.5t22 -41t41.5 -27.5t65 -10q44 0 76.5 13.5t55.5 38t38 59.5t24 78l89 422h142l-97 -464q-13 -61 -39 -110.5t-67.5 -84.5t-99 -54t-132.5 -19z
" />
    <glyph glyph-name="v.superior" horiz-adv-x="738" 
d="M400 676q41 80 90 168l214 382h159l-420 -713h-137l-156 713h137l74 -359q20 -92 35 -191h4z" />
    <glyph glyph-name="w.superior" horiz-adv-x="1117" 
d="M335 932q26 -170 35 -265h4q24 76 78 204l151 355h147l34 -363q7 -77 13 -196h5q39 96 90 194l193 365h157l-397 -713h-145l-31 335q-9 96 -12 222h-5q-38 -115 -87 -225l-145 -332h-146l-124 713h141z" />
    <glyph glyph-name="x.superior" horiz-adv-x="720" 
d="M321 1226l132 -251h4l226 251h162l-323 -354l197 -359h-144l-144 269h-4l-240 -269h-162l337 372l-185 341h144z" />
    <glyph glyph-name="y.superior" horiz-adv-x="718" 
d="M392 685l290 541h161l-384 -688q-46 -83 -88.5 -150.5t-90 -116t-109 -74.5t-142.5 -26q-20 0 -46.5 3t-42.5 8l24 118q9 -3 24.5 -5.5t35.5 -2.5q38 0 71.5 9t65 33.5t63.5 68.5t68 115l-164 708h142l118 -541h4z" />
    <glyph glyph-name="z.superior" horiz-adv-x="697" 
d="M541 1105v4h-332l25 117h508l-19 -91l-430 -501v-4h363l-25 -117h-546l17 80z" />
    <glyph glyph-name="ampersand" unicode="&#x26;" horiz-adv-x="1302" 
d="M58 293q0 84 27.5 148.5t73 114t105 87.5t123.5 71q-30 34 -55.5 68t-43.5 70.5t-28 76t-10 83.5q0 82 30.5 147t83.5 110.5t126 69.5t158 24q72 0 130.5 -18t100 -51.5t64 -82.5t22.5 -112q0 -83 -31 -145t-81.5 -110t-116 -86t-134.5 -72q29 -34 63.5 -75.5t72.5 -87.5
t78.5 -94.5t80.5 -96.5q62 69 109 159t72 205h149q-26 -143 -89.5 -260.5t-153.5 -208.5q37 -45 69.5 -84t58 -69.5t41.5 -49.5t20 -24h-185q-4 4 -34.5 40.5t-78.5 92.5q-106 -77 -225 -117.5t-238 -40.5q-92 0 -159 27t-110.5 71.5t-64 102t-20.5 117.5zM431 107
q80 0 174 31t185 97q-42 49 -86 101.5t-86.5 103t-81 96.5t-69.5 83q-53 -28 -100 -59.5t-82 -69.5t-55.5 -84t-20.5 -105q0 -97 59.5 -145.5t162.5 -48.5zM401 1019q0 -31 7 -59.5t22 -57t37.5 -58.5t53.5 -65q58 28 110.5 57.5t92 65t63 79.5t23.5 100q0 76 -48.5 113
t-128.5 37q-52 0 -95 -15.5t-73.5 -43t-47 -66.5t-16.5 -87z" />
    <glyph glyph-name="ampersand.c2sc" horiz-adv-x="1083" 
d="M30 232q0 66 21 116.5t56.5 90.5t82 70.5t97.5 55.5q-45 52 -70.5 106t-25.5 122q0 65 24.5 116.5t68 87t103 54.5t129.5 19q123 0 193 -53.5t75 -153.5q3 -66 -19.5 -116.5t-62 -89.5t-91 -69.5t-106.5 -57.5q39 -47 90 -108.5t105 -127.5q40 50 71 113t49 141h153
q-20 -109 -68 -200t-116 -162q30 -37 56 -69t46.5 -57t33.5 -40.5t16 -19.5h-184q-2 2 -23.5 27.5t-53.5 64.5q-83 -57 -174.5 -87t-184.5 -30q-70 0 -124.5 19.5t-91.5 54t-56 81.5t-19 102zM336 107q60 0 127 21.5t131 66.5q-28 34 -58 70t-59 71t-56 67.5t-50 60.5
q-38 -21 -71.5 -43.5t-58 -49t-38.5 -58.5t-14 -71q0 -28 8.5 -52.5t26.5 -43t45.5 -29t66.5 -10.5zM350 799q0 -38 16 -80t56 -91q44 21 83 43t67.5 48t44 58t12.5 73q-4 45 -38.5 66.5t-85.5 21.5q-71 0 -113 -35t-42 -104z" />
    <glyph glyph-name="grave" unicode="`" horiz-adv-x="700" 
d="M518 1473l50 -349h-126l-88 349h164zM0 950z" />
    <glyph glyph-name="glyph431" horiz-adv-x="700" 
d="M457 1656l95 -247h-135l-130 247h170zM0 1338z" />
    <glyph glyph-name="gravecomb" unicode="&#x300;" horiz-adv-x="0" 
d="M-520 1473l50 -349h-126l-88 349h164zM-1038 950z" />
    <glyph glyph-name="glyph433" horiz-adv-x="0" 
d="M-475 1656l95 -247h-135l-130 247h170zM-932 1338z" />
    <glyph glyph-name="acute" unicode="&#xb4;" horiz-adv-x="700" 
d="M652 1473l-234 -349h-134l192 349h176zM0 950z" />
    <glyph glyph-name="glyph435" horiz-adv-x="700" 
d="M607 1656l-232 -247h-143l193 247h182zM0 1338z" />
    <glyph glyph-name="acutecomb" unicode="&#x301;" horiz-adv-x="0" 
d="M-150 1473l-234 -349h-134l192 349h176zM-802 950z" />
    <glyph glyph-name="glyph437" horiz-adv-x="0" 
d="M-161 1656l-232 -247h-143l193 247h182zM-768 1338z" />
    <glyph glyph-name="circumflex" unicode="&#x2c6;" horiz-adv-x="700" 
d="M568 1473l139 -349h-135l-96 246h-4l-197 -246h-145l281 349h157zM0 950z" />
    <glyph glyph-name="glyph439" horiz-adv-x="700" 
d="M557 1656l167 -247h-151l-106 151h-4l-167 -151h-165l265 247h161zM0 1338z" />
    <glyph glyph-name="uni0302" unicode="&#x302;" horiz-adv-x="0" 
d="M-293 1473l139 -349h-135l-96 246h-4l-197 -246h-145l281 349h157zM-861 950z" />
    <glyph glyph-name="glyph441" horiz-adv-x="0" 
d="M-339 1656l167 -247h-151l-106 151h-4l-167 -151h-165l265 247h161zM-896 1338z" />
    <glyph glyph-name="caron" unicode="&#x2c7;" horiz-adv-x="700" 
d="M346 1124l-139 349h135l96 -246h4l197 246h145l-281 -349h-157zM0 950z" />
    <glyph glyph-name="glyph443" horiz-adv-x="700" 
d="M357 1409l-167 247h151l106 -151h4l167 151h165l-265 -247h-161zM0 1338z" />
    <glyph glyph-name="uni030C" unicode="&#x30c;" horiz-adv-x="0" 
d="M-526 1124l-139 349h135l96 -246h4l197 246h145l-281 -349h-157zM-872 950z" />
    <glyph glyph-name="glyph445" horiz-adv-x="0" 
d="M-537 1409l-167 247h151l106 -151h4l167 151h165l-265 -247h-161zM-894 1338z" />
    <glyph glyph-name="uni0315" unicode="&#x315;" horiz-adv-x="106" 
d="M168 1270q0 23 -15.5 36t-44.5 13h-10l27 129q15 1 27 1q80 0 126.5 -34t46.5 -95q0 -54 -28.5 -113t-88.5 -127h-149q50 56 79.5 103.5t29.5 86.5zM106 950z" />
    <glyph glyph-name="tilde" unicode="&#x2dc;" horiz-adv-x="700" 
d="M792 1382q-7 -45 -23 -83.5t-40.5 -67t-59 -45t-78.5 -16.5q-40 0 -72.5 11.5t-60.5 26.5q-34 20 -66 38.5t-59 18.5q-33 0 -53.5 -24t-28.5 -63h-130q7 45 23 84t40.5 67.5t59 44.5t78.5 16q45 0 82.5 -15t70.5 -35q29 -17 54 -31t51 -14q33 0 53.5 24t28.5 63h130z
M0 950z" />
    <glyph glyph-name="glyph448" horiz-adv-x="700" 
d="M792 1633q-7 -45 -23 -83.5t-40.5 -67t-59 -45t-78.5 -16.5q-27 0 -51 5.5t-44.5 14.5t-39 19.5t-35.5 20.5q-24 15 -45.5 25t-42.5 10q-32 0 -53 -24t-29 -63h-130q7 45 23 84t40.5 67.5t59 44.5t78.5 16t81.5 -14.5t71.5 -35.5q29 -17 54 -31t51 -14q33 0 53.5 24
t28.5 63h130zM0 1338z" />
    <glyph glyph-name="tildecomb" unicode="&#x303;" horiz-adv-x="0" 
d="M-67 1382q-7 -45 -23 -83.5t-40.5 -67t-59 -45t-78.5 -16.5q-40 0 -72.5 11.5t-60.5 26.5q-34 20 -66 38.5t-59 18.5q-33 0 -53.5 -24t-28.5 -63h-130q7 45 23 84t40.5 67.5t59 44.5t78.5 16q45 0 82.5 -15t70.5 -35q29 -17 54 -31t51 -14q33 0 53.5 24t28.5 63h130z
M-859 950z" />
    <glyph glyph-name="glyph450" horiz-adv-x="0" 
d="M-100 1633q-7 -45 -23 -83.5t-40.5 -67t-59 -45t-78.5 -16.5q-27 0 -51 5.5t-44.5 14.5t-39 19.5t-35.5 20.5q-24 15 -45.5 25t-42.5 10q-32 0 -53 -24t-29 -63h-130q7 45 23 84t40.5 67.5t59 44.5t78.5 16t81.5 -14.5t71.5 -35.5q29 -17 54 -31t51 -14q33 0 53.5 24
t28.5 63h130zM-892 1338z" />
    <glyph glyph-name="dieresis" unicode="&#xa8;" horiz-adv-x="700" 
d="M172 1171l35 167h159l-35 -167h-159zM553 1171l35 167h159l-35 -167h-159zM0 950z" />
    <glyph glyph-name="glyph452" horiz-adv-x="700" 
d="M170 1448l35 169h161l-35 -169h-161zM553 1448l35 169h161l-35 -169h-161zM0 1338z" />
    <glyph glyph-name="uni0308" unicode="&#x308;" horiz-adv-x="0" 
d="M-687 1171l35 167h159l-35 -167h-159zM-306 1171l35 167h159l-35 -167h-159zM-859 950z" />
    <glyph glyph-name="glyph454" horiz-adv-x="0" 
d="M-724 1448l35 169h161l-35 -169h-161zM-341 1448l35 169h161l-35 -169h-161zM-894 1338z" />
    <glyph glyph-name="macron" unicode="&#xaf;" horiz-adv-x="700" 
d="M203 1300h540l-27 -129h-540zM0 950z" />
    <glyph glyph-name="macron" unicode="&#x2c9;" horiz-adv-x="700" 
d="M203 1300h540l-27 -129h-540zM0 950z" />
    <glyph glyph-name="glyph456" horiz-adv-x="700" 
d="M203 1581h540l-27 -133h-540zM0 1338z" />
    <glyph glyph-name="uni0304" unicode="&#x304;" horiz-adv-x="0" 
d="M-660 1300h540l-27 -129h-540zM-863 950z" />
    <glyph glyph-name="glyph458" horiz-adv-x="0" 
d="M-701 1581h540l-27 -133h-540zM-904 1338z" />
    <glyph glyph-name="breve" unicode="&#x2d8;" horiz-adv-x="700" 
d="M442 1257q78 0 132.5 42t85.5 133h136q-18 -67 -50 -121.5t-78 -93.5t-105.5 -60t-131.5 -21q-69 0 -120 22.5t-80 59.5t-40 78.5t-11 80.5q0 27 4 55h127q-1 -17 -1 -33q1 -69 32.5 -105.5t99.5 -36.5zM0 950z" />
    <glyph glyph-name="glyph460" horiz-adv-x="700" 
d="M438 1530q29 0 60.5 7t60 23t52.5 43t39 67h140q-20 -66 -56.5 -115t-83.5 -81.5t-103.5 -48.5t-116.5 -16q-61 0 -111 17t-83 49.5t-46.5 74.5t-13.5 82q0 20 2 38h126q-1 -9 -1 -17q1 -55 35 -89t100 -34zM0 1338z" />
    <glyph glyph-name="uni0306" unicode="&#x306;" horiz-adv-x="0" 
d="M-404 1257q78 0 132.5 42t85.5 133h136q-18 -67 -50 -121.5t-78 -93.5t-105.5 -60t-131.5 -21q-69 0 -120 22.5t-80 59.5t-40 78.5t-11 80.5q0 27 4 55h127q-1 -17 -1 -33q1 -69 32.5 -105.5t99.5 -36.5zM-846 950z" />
    <glyph glyph-name="glyph462" horiz-adv-x="0" 
d="M-463 1530q29 0 60.5 7t60 23t52.5 43t39 67h140q-20 -66 -56.5 -115t-83.5 -81.5t-103.5 -48.5t-116.5 -16q-61 0 -111 17t-83 49.5t-46.5 74.5t-13.5 82q0 20 2 38h126q-1 -9 -1 -17q1 -55 35 -89t100 -34zM-901 1338z" />
    <glyph glyph-name="ring" unicode="&#x2da;" horiz-adv-x="700" 
d="M488 1490q100 0 152.5 -45.5t52.5 -121.5q0 -38 -16 -77.5t-48 -71.5t-80.5 -52.5t-114.5 -20.5q-100 0 -152.5 45.5t-52.5 121.5q0 38 16 77.5t48 71.5t80.5 52.5t114.5 20.5zM442 1199q30 0 53.5 10t40 26t25 37.5t8.5 43.5q0 34 -22 55t-67 21q-30 0 -53.5 -10
t-40 -26t-25 -37t-8.5 -44q0 -34 22 -55t67 -21zM0 950z" />
    <glyph glyph-name="glyph464" horiz-adv-x="700" 
d="M487 1750q51 0 89 -11.5t64 -32.5t39 -49.5t13 -61.5q0 -39 -16 -78.5t-48 -70.5t-80.5 -50.5t-114.5 -19.5q-51 0 -89 11.5t-64 32.5t-39 49.5t-13 61.5q0 39 16 78.5t48 70.5t80.5 50.5t114.5 19.5zM441 1474q30 0 53.5 9t40 24t25 34.5t8.5 40.5q0 30 -22 50t-67 20
q-30 0 -53.5 -9t-40 -24t-25 -34.5t-8.5 -40.5q0 -30 22 -50t67 -20zM0 1338z" />
    <glyph glyph-name="uni030A" unicode="&#x30a;" horiz-adv-x="0" 
d="M-386 1490q100 0 152.5 -45.5t52.5 -121.5q0 -38 -16 -77.5t-48 -71.5t-80.5 -52.5t-114.5 -20.5q-100 0 -152.5 45.5t-52.5 121.5q0 38 16 77.5t48 71.5t80.5 52.5t114.5 20.5zM-432 1199q30 0 53.5 10t40 26t25 37.5t8.5 43.5q0 34 -22 55t-67 21q-30 0 -53.5 -10
t-40 -26t-25 -37t-8.5 -44q0 -34 22 -55t67 -21zM-874 950z" />
    <glyph glyph-name="glyph466" horiz-adv-x="0" 
d="M-405 1750q51 0 89 -11.5t64 -32.5t39 -49.5t13 -61.5q0 -39 -16 -78.5t-48 -70.5t-80.5 -50.5t-114.5 -19.5q-51 0 -89 11.5t-64 32.5t-39 49.5t-13 61.5q0 39 16 78.5t48 70.5t80.5 50.5t114.5 19.5zM-451 1474q30 0 53.5 9t40 24t25 34.5t8.5 40.5q0 30 -22 50t-67 20
q-30 0 -53.5 -9t-40 -24t-25 -34.5t-8.5 -40.5q0 -30 22 -50t67 -20zM-892 1338z" />
    <glyph glyph-name="hungarumlaut" unicode="&#x2dd;" horiz-adv-x="700" 
d="M501 1473l-234 -349h-134l192 349h176zM810 1473l-256 -349h-134l214 349h176zM0 950z" />
    <glyph glyph-name="glyph468" horiz-adv-x="700" 
d="M510 1656l-232 -247h-143l193 247h182zM811 1656l-246 -247h-145l207 247h184zM0 1338z" />
    <glyph glyph-name="uni030B" unicode="&#x30b;" horiz-adv-x="0" 
d="M-326 1473l-234 -349h-134l192 349h176zM-17 1473l-256 -349h-134l214 349h176zM-827 950z" />
    <glyph glyph-name="glyph470" horiz-adv-x="0" 
d="M-346 1656l-232 -247h-143l193 247h182zM-45 1656l-246 -247h-145l207 247h184zM-856 1338z" />
    <glyph glyph-name="dotaccent" unicode="&#x2d9;" horiz-adv-x="700" 
d="M359 1171l35 171h163l-35 -171h-163zM0 950z" />
    <glyph glyph-name="glyph472" horiz-adv-x="700" 
d="M359 1448l35 171h163l-35 -171h-163zM0 1338z" />
    <glyph glyph-name="uni0307" unicode="&#x307;" horiz-adv-x="0" 
d="M-519 1171l35 171h163l-35 -171h-163zM-878 950z" />
    <glyph glyph-name="glyph474" horiz-adv-x="0" 
d="M-536 1448l35 171h163l-35 -171h-163zM-895 1338z" />
    <glyph glyph-name="cedilla" unicode="&#xb8;" horiz-adv-x="700" 
d="M176 0h124l-54 -128q35 -4 64.5 -16t51 -31t33.5 -45.5t12 -59.5q0 -46 -17 -84.5t-51.5 -66.5t-85.5 -43.5t-119 -15.5q-46 0 -87.5 7.5t-64.5 16.5l24 112q23 -9 56 -15t68 -6q74 0 107.5 25.5t33.5 59.5q0 20 -10 33.5t-32 22.5t-58 13.5t-87 5.5z" />
    <glyph glyph-name="uni0327" unicode="&#x327;" horiz-adv-x="0" 
d="M-518 0h124l-54 -128q35 -4 64.5 -16t51 -31t33.5 -45.5t12 -59.5q0 -46 -17 -84.5t-51.5 -66.5t-85.5 -43.5t-119 -15.5q-46 0 -87.5 7.5t-64.5 16.5l24 112q23 -9 56 -15t68 -6q74 0 107.5 25.5t33.5 59.5q0 20 -10 33.5t-32 22.5t-58 13.5t-87 5.5z" />
    <glyph glyph-name="ogonek" unicode="&#x2db;" horiz-adv-x="700" 
d="M436 29q-60 -33 -119.5 -69.5t-106.5 -76t-76.5 -81t-29.5 -83.5q0 -74 94 -74q28 0 59 5.5t68 17.5l-28 -134q-29 -13 -65 -18.5t-70 -5.5q-95 0 -148 44.5t-53 124.5q0 60 27.5 110.5t71.5 95t99.5 81t112.5 63.5h164z" />
    <glyph glyph-name="uni0328" unicode="&#x328;" horiz-adv-x="0" 
d="M-258 29q-60 -33 -119.5 -69.5t-106.5 -76t-76.5 -81t-29.5 -83.5q0 -74 94 -74q28 0 59 5.5t68 17.5l-28 -134q-29 -13 -65 -18.5t-70 -5.5q-95 0 -148 44.5t-53 124.5q0 60 27.5 110.5t71.5 95t99.5 81t112.5 63.5h164z" />
    <glyph glyph-name="uni0326" unicode="&#x326;" horiz-adv-x="700" 
d="M175 -300q0 23 -15 35.5t-45 13.5h-10l27 129q13 1 25 1q81 0 128 -33.5t47 -95.5q0 -54 -28.5 -113t-88.5 -127h-149q50 56 79.5 103.5t29.5 86.5z" />
    <glyph glyph-name="uni0312" unicode="&#x312;" horiz-adv-x="0" 
d="M-320 1283q0 -23 15.5 -36t46.5 -13h8l-27 -129q-12 -1 -23 -1q-83 0 -130 33.5t-47 95.5q0 54 28.5 113t88.5 127h149q-50 -56 -79.5 -103.5t-29.5 -86.5zM1 950z" />
    <glyph glyph-name="comma" unicode="," horiz-adv-x="542" 
d="M151 218h173l-243 -608h-151z" />
    <glyph glyph-name="semicolon" unicode=";" horiz-adv-x="542" 
d="M145 218h173l-237 -608h-151zM426 807l-40 -195h-191l40 195h191z" />
    <glyph glyph-name="colon" unicode=":" horiz-adv-x="542" 
d="M75 0l40 195h191l-40 -195h-191zM433 807l-40 -195h-191l40 195h191z" />
    <glyph glyph-name="period" unicode="." horiz-adv-x="542" 
d="M75 0l40 195h191l-40 -195h-191z" />
    <glyph glyph-name="ellipsis" unicode="&#x2026;" horiz-adv-x="1626" 
d="M75 0l40 195h191l-40 -195h-191zM617 0l40 195h191l-40 -195h-191zM1159 0l40 195h191l-40 -195h-191z" />
    <glyph glyph-name="hyphen" unicode="-" horiz-adv-x="661" 
d="M150 571h421l-30 -145h-421z" />
    <glyph glyph-name="hyphen" unicode="&#x2010;" horiz-adv-x="661" 
d="M150 571h421l-30 -145h-421z" />
    <glyph glyph-name="hyphen" unicode="&#xad;" horiz-adv-x="661" 
d="M150 571h421l-30 -145h-421z" />
    <glyph glyph-name="hyphen.case" horiz-adv-x="681" 
d="M170 752h421l-30 -145h-421z" />
    <glyph glyph-name="exclam" unicode="!" horiz-adv-x="541" 
d="M75 0l40 195h187l-40 -195h-187zM533 1338l-213 -907h-135l165 907h183z" />
    <glyph glyph-name="exclamdown" unicode="&#xa1;" horiz-adv-x="541" 
d="M458 950l-40 -195h-187l40 195h187zM0 -387l213 906h135l-165 -906h-183z" />
    <glyph glyph-name="exclamdown.case" horiz-adv-x="541" 
d="M537 1338l-40 -195h-187l40 195h187zM79 1l213 906h135l-165 -906h-183z" />
    <glyph glyph-name="question" unicode="?" horiz-adv-x="850" 
d="M159 0l41 195h187l-41 -195h-187zM898 1087q0 -65 -19.5 -114.5t-51.5 -88.5t-73 -71t-85 -62q-42 -29 -84 -58.5t-77.5 -65t-61.5 -79.5t-37 -101l-3 -16h-142q5 81 33 141t68.5 106t89 81.5t96.5 67.5q38 26 72 52t60 55.5t41.5 65t15.5 80.5q0 71 -52.5 110.5
t-148.5 39.5q-39 0 -79.5 -5.5t-79 -15t-73.5 -21.5t-63 -26l27 134q57 32 132.5 49.5t157.5 17.5q77 0 139 -19t106 -54.5t68 -86.5t24 -116z" />
    <glyph glyph-name="questiondown" unicode="&#xbf;" horiz-adv-x="850" 
d="M714 950l-41 -195h-187l41 195h187zM-25 -137q0 70 22 121.5t58 92.5t82 74t94 66q39 27 76.5 55t69 62t54.5 75.5t33 93.5l3 16h142q-5 -73 -28 -129t-57.5 -99.5t-77 -77.5t-86.5 -64q-43 -30 -84 -58t-72.5 -60.5t-51 -71t-19.5 -89.5q0 -71 52.5 -110.5t148.5 -39.5
q39 0 79.5 5.5t79 15t73.5 21.5t63 26l-27 -134q-57 -32 -132.5 -49.5t-157.5 -17.5q-77 0 -139 19t-106 54.5t-68 86.5t-24 116z" />
    <glyph glyph-name="questiondown.case" horiz-adv-x="850" 
d="M770 1338l-41 -195h-187l41 195h187zM31 251q0 70 22 121.5t58 92.5t82 74t94 66q39 27 76.5 55t69 62t54.5 75.5t33 93.5l3 16h142q-5 -73 -28 -129t-57.5 -99.5t-77 -77.5t-86.5 -64q-43 -30 -84 -58t-72.5 -60.5t-51 -71t-19.5 -89.5q0 -71 52.5 -110.5t148.5 -39.5
q39 0 79.5 5.5t79 15t73.5 21.5t63 26l-27 -134q-57 -32 -132.5 -49.5t-157.5 -17.5q-77 0 -139 19t-106 54.5t-68 86.5t-24 116z" />
    <glyph glyph-name="quoteleft" unicode="&#x2018;" horiz-adv-x="449" 
d="M235 1338h139l73 -494h-169z" />
    <glyph glyph-name="quoteright" unicode="&#x2019;" horiz-adv-x="449" 
d="M410 1338h181l-279 -494h-147z" />
    <glyph glyph-name="quoteleft.c2sc" horiz-adv-x="449" 
d="M171 1046h139l73 -494h-169z" />
    <glyph glyph-name="quoteright.c2sc" horiz-adv-x="449" 
d="M311 1046h181l-279 -494h-147z" />
    <glyph glyph-name="quotedblleft" unicode="&#x201c;" horiz-adv-x="789" 
d="M235 1338h139l53 -494h-169zM574 1338h141l72 -494h-171z" />
    <glyph glyph-name="quotedblright" unicode="&#x201d;" horiz-adv-x="809" 
d="M410 1338h181l-279 -494h-147zM768 1338h183l-308 -494h-149z" />
    <glyph glyph-name="quotedblleft.c2sc" horiz-adv-x="809" 
d="M171 1046h139l53 -494h-169zM510 1046h141l72 -494h-171z" />
    <glyph glyph-name="quotedblright.c2sc" horiz-adv-x="809" 
d="M311 1046h181l-279 -494h-147zM669 1046h183l-308 -494h-149z" />
    <glyph glyph-name="quotesinglbase" unicode="&#x201a;" horiz-adv-x="449" 
d="M126 219h181l-279 -494h-147z" />
    <glyph glyph-name="quotedblbase" unicode="&#x201e;" horiz-adv-x="809" 
d="M126 219h181l-279 -494h-147zM484 219h183l-308 -494h-149z" />
    <glyph glyph-name="guilsinglleft" unicode="&#x2039;" horiz-adv-x="588" 
d="M90 474l329 376h159l-306 -376l149 -376h-141z" />
    <glyph glyph-name="guilsinglright" unicode="&#x203a;" horiz-adv-x="588" 
d="M508 474l-329 -376h-159l306 376l-149 376h141z" />
    <glyph glyph-name="guilsinglleft.case" horiz-adv-x="588" 
d="M120 680l329 376h159l-306 -376l149 -376h-141z" />
    <glyph glyph-name="guilsinglright.case" horiz-adv-x="588" 
d="M508 680l-329 -376h-159l306 376l-149 376h141z" />
    <glyph glyph-name="guillemotleft" unicode="&#xab;" horiz-adv-x="980" 
d="M482 474l329 376h159l-306 -376l149 -376h-141zM90 474l354 376h165l-335 -376l176 -376h-139z" />
    <glyph glyph-name="guillemotright" unicode="&#xbb;" horiz-adv-x="980" 
d="M508 474l-329 -376h-159l306 376l-149 376h141zM900 474l-354 -376h-165l335 376l-176 376h139z" />
    <glyph glyph-name="guillemotleft.case" horiz-adv-x="980" 
d="M512 680l329 376h159l-306 -376l149 -376h-141zM120 680l354 376h165l-335 -376l176 -376h-139z" />
    <glyph glyph-name="guillemotright.case" horiz-adv-x="980" 
d="M508 680l-329 -376h-159l306 376l-149 376h141zM900 680l-354 -376h-165l335 376l-176 376h139z" />
    <glyph glyph-name="slash" unicode="/" horiz-adv-x="563" 
d="M-132 -249l710 1587h156l-711 -1587h-155z" />
    <glyph glyph-name="bar" unicode="|" horiz-adv-x="465" 
d="M305 -465h-145v1913h145v-1913z" />
    <glyph glyph-name="endash" unicode="&#x2013;" horiz-adv-x="1000" 
d="M13 558h1000l-27 -125h-999z" />
    <glyph glyph-name="endash.case" horiz-adv-x="1000" 
d="M13 747h1000l-27 -125h-999z" />
    <glyph glyph-name="emdash" unicode="&#x2014;" horiz-adv-x="1700" 
d="M13 558h1700l-27 -125h-1699z" />
    <glyph glyph-name="emdash.case" horiz-adv-x="1700" 
d="M13 747h1700l-27 -125h-1699z" />
    <glyph glyph-name="uni2015" unicode="&#x2015;" horiz-adv-x="1700" 
d="M13 558h1700l-27 -125h-1699z" />
    <glyph glyph-name="uni2015.case" horiz-adv-x="1700" 
d="M13 747h1700l-27 -125h-1699z" />
    <glyph glyph-name="bullet" unicode="&#x2022;" horiz-adv-x="908" 
d="M181 667q0 67 24 124.5t66 99.5t99.5 66t124.5 24t124.5 -24t99.5 -66t66 -99.5t24 -124.5t-24 -124.5t-66 -99.5t-99.5 -66t-124.5 -24t-124.5 24t-99.5 66t-66 99.5t-24 124.5z" />
    <glyph glyph-name="periodcentered" unicode="&#xb7;" horiz-adv-x="541" 
d="M160 394l40 195h191l-40 -195h-191z" />
    <glyph glyph-name="periodcentered" unicode="&#x2219;" horiz-adv-x="541" 
d="M160 394l40 195h191l-40 -195h-191z" />
    <glyph glyph-name="periodcentered.case" horiz-adv-x="541" 
d="M272 588l40 195h191l-40 -195h-191z" />
    <glyph glyph-name="parenleft" unicode="(" horiz-adv-x="580" 
d="M680 1278q-100 -86 -182.5 -195t-142 -238t-92 -276.5t-32.5 -311.5q0 -163 37.5 -286t103.5 -211l-89 -85q-32 32 -67.5 88t-65 133.5t-48.5 175t-19 212.5q0 182 41.5 343t112.5 297.5t165.5 247t200.5 191.5z" />
    <glyph glyph-name="parenright" unicode=")" horiz-adv-x="580" 
d="M-94 -240q100 86 182.5 195t142 238t92 277t32.5 311q0 164 -37.5 286.5t-103.5 210.5l89 85q32 -32 67.5 -88t65 -133.5t48.5 -175t19 -212.5q0 -182 -41.5 -343t-112.5 -297.5t-165.5 -247t-200.5 -191.5z" />
    <glyph glyph-name="parenleft.case" horiz-adv-x="580" 
d="M762 1429q-100 -86 -182.5 -195t-142 -238t-92 -276.5t-32.5 -311.5q0 -163 37.5 -286t103.5 -211l-89 -85q-32 32 -67.5 88t-65 133.5t-48.5 175t-19 212.5q0 182 41.5 343t112.5 297.5t165.5 247t200.5 191.5z" />
    <glyph glyph-name="parenright.case" horiz-adv-x="580" 
d="M-142 -89q100 86 182.5 195t142 238t92 277t32.5 311q0 164 -37.5 286.5t-103.5 210.5l89 85q32 -32 67.5 -88t65 -133.5t48.5 -175t19 -212.5q0 -182 -41.5 -343t-112.5 -297.5t-165.5 -247t-200.5 -191.5z" />
    <glyph glyph-name="bracketleft" unicode="[" horiz-adv-x="633" 
d="M342 1338h406l-26 -123h-255l-291 -1392h255l-26 -123h-405z" />
    <glyph glyph-name="bracketright" unicode="]" horiz-adv-x="633" 
d="M290 -300h-405l26 123h254l291 1392h-255l26 123h406z" />
    <glyph glyph-name="bracketleft.case" horiz-adv-x="601" 
d="M340 1488h376l-25 -123h-226l-291 -1390h226l-25 -123h-375z" />
    <glyph glyph-name="bracketright.case" horiz-adv-x="601" 
d="M260 -148h-375l25 123h235l291 1390h-236l25 123h376z" />
    <glyph glyph-name="braceleft" unicode="{" horiz-adv-x="599" 
d="M311 777q0 37 -8 68t-18 63t-18 66.5t-8 79.5q0 60 26.5 112t77.5 90.5t125.5 60t171.5 21.5h39l-26 -123h-12q-124 0 -186.5 -41t-62.5 -126q0 -35 7 -63.5t15 -57.5t14.5 -61t6.5 -74q0 -53 -15 -98t-41.5 -80.5t-61 -59.5t-73.5 -35v-4q12 -3 28 -13.5t31 -30
t25.5 -49t10.5 -70.5q0 -35 -7.5 -66t-20.5 -59t-28.5 -54t-32.5 -50q-17 -25 -33 -48.5t-29 -47t-20.5 -47t-7.5 -48.5q0 -52 46.5 -80.5t143.5 -28.5h12l-26 -123h-28q-91 0 -150 18.5t-93 48t-47 66t-13 72.5q0 39 10 73t26.5 65t37 60.5t41.5 57.5q17 24 33 48
t28.5 49.5t20 52t7.5 56.5q0 33 -13.5 51.5t-34.5 28.5t-47.5 12.5t-52.5 2.5l25 122q36 0 73 6t66 26.5t47.5 58.5t18.5 102z" />
    <glyph glyph-name="braceright" unicode="}" horiz-adv-x="599" 
d="M293 261q0 -37 8 -68t18 -63t18 -66.5t8 -79.5q0 -60 -26.5 -112t-77.5 -90.5t-125.5 -60t-171.5 -21.5h-39l26 123h12q124 0 186.5 41t62.5 126q0 35 -7 63.5t-15 57.5t-14.5 61t-6.5 74q0 53 15 98t41.5 80.5t61 59.5t73.5 35v4q-12 3 -28 13.5t-31 30t-25.5 49
t-10.5 70.5q0 35 7.5 66t20.5 59t28.5 54t32.5 50q17 25 33 48.5t29 47t20.5 47t7.5 48.5q0 52 -46.5 80.5t-143.5 28.5h-12l26 123h28q91 0 150 -18.5t93 -48t47 -66t13 -72.5q0 -39 -10 -73t-26.5 -65t-37 -60.5t-41.5 -57.5q-17 -24 -33 -48t-28.5 -49.5t-20 -52
t-7.5 -56.5q0 -33 13.5 -51.5t34.5 -28.5t47.5 -12.5t52.5 -2.5l-25 -122q-36 0 -73 -6t-66 -26.5t-47.5 -58.5t-18.5 -102z" />
    <glyph glyph-name="braceleft.case" horiz-adv-x="599" 
d="M356 927q0 37 -8 68t-18 63t-18 66.5t-8 79.5q0 60 26.5 112t77.5 90.5t125.5 60t171.5 21.5h39l-26 -123h-12q-124 0 -186.5 -41t-62.5 -126q0 -35 7 -63.5t15 -57.5t14.5 -61t6.5 -74q0 -53 -15 -98t-41.5 -80.5t-61 -59.5t-73.5 -35v-4q12 -3 28 -13.5t31 -30
t25.5 -49t10.5 -70.5q0 -35 -7.5 -66t-20.5 -59t-28.5 -54t-32.5 -50q-17 -25 -33 -48.5t-29 -47t-20.5 -47t-7.5 -48.5q0 -52 46.5 -80.5t143.5 -28.5h12l-26 -123h-28q-91 0 -150 18.5t-93 48t-47 66t-13 72.5q0 39 10 73t26.5 65t37 60.5t41.5 57.5q17 24 33 48
t28.5 49.5t20 52t7.5 56.5q0 33 -13.5 51.5t-34.5 28.5t-47.5 12.5t-52.5 2.5l25 122q36 0 73 6t66 26.5t47.5 58.5t18.5 102z" />
    <glyph glyph-name="braceright.case" horiz-adv-x="599" 
d="M297 411q0 -37 8 -68t18 -63t18 -66.5t8 -79.5q0 -60 -26.5 -112t-77.5 -90.5t-125.5 -60t-171.5 -21.5h-39l26 123h12q124 0 186.5 41t62.5 126q0 35 -7 63.5t-15 57.5t-14.5 61t-6.5 74q0 53 15 98t41.5 80.5t61 59.5t73.5 35v4q-12 3 -28 13.5t-31 30t-25.5 49
t-10.5 70.5q0 35 7.5 66t20.5 59t28.5 54t32.5 50q17 25 33 48.5t29 47t20.5 47t7.5 48.5q0 52 -46.5 80.5t-143.5 28.5h-12l26 123h28q91 0 150 -18.5t93 -48t47 -66t13 -72.5q0 -39 -10 -73t-26.5 -65t-37 -60.5t-41.5 -57.5q-17 -24 -33 -48t-28.5 -49.5t-20 -52
t-7.5 -56.5q0 -33 13.5 -51.5t34.5 -28.5t47.5 -12.5t52.5 -2.5l-25 -122q-36 0 -73 -6t-66 -26.5t-47.5 -58.5t-18.5 -102z" />
    </font>
</defs>
</svg>
